Классический форум-трекер
canvas not supported
Нас вместе: 4 078 908

Человек-паук: Вдали от дома / Spider-Man: Far from Home (2019) BDRip [720p] ATV


 
 
RSS
Начать новую тему   Ответить на тему    Торрент-трекер NNM-Club -> Аудио и Видео -> Зарубежное видео HD для устройств Apple
Автор Сообщение
Весельчак У ®
Модератор Apple

Online
Стаж: 5 лет 10 мес.
Сообщений: 3299
Ratio: 147,663
Поблагодарили: 108770
100%
Откуда: От Москвы недалеко...
ussr.gif
Человек-паук: Вдали от дома / Spider-Man: Far from Home (2019) BDRip [720p] ATV
Производство: США / Columbia Pictures, Marvel Studios, Pascal Pictures
Жанр: Фантастика, боевик, приключения

Режиссер: Джон Уоттс
Продюсер: Кевин Файги, Эми Паскаль, Виктория Алонсо
Актеры: Том Холланд (II), Зендая Колеман, Энгаури Райс, Джон Фавро, Джейк Джилленхол, Сэмюэл Л. Джексон, Коби Смолдерс, Мариса Томей, Мартин Старр, Нуман Аджар, Джейкоб Баталон, Тони Револори

Описание:
Питер Паркер вместе с друзьями отправляется на летние каникулы в Европу. Однако отдохнуть приятелям вряд ли удастся - Питеру придется согласиться помочь Нику Фьюри раскрыть тайну существ, вызывающих стихийные бедствия и разрушения по всему континенту.


Возраст: 12+ (зрителям, достигшим 12 лет)
Рейтинг MPAA: PG-13 (детям до 13 лет просмотр нежелателен)
Дата мировой премьеры: 26 июня 2019
Дата российской премьеры: 4 июля 2019, «WDSSPR»

Продолжительность: 02:09:23
Качество видео: BDRip 720p
Перевод: Дублированный, профессиональный многоголосый
Субтитры: Русские (Forced, 2 x Full), украинские (Full), английские

Видео: H.264, 1280х536 (2.40:1), ~3497 kbps, 23.976 fps
Аудио#1: AAC, 2.0 ch, 197 Kbps - Русский DUB, iTunes
Аудио#2: AAC, 2.0 ch, 196 Kbps - Русский MVO, HDRezka Studio
Аудио#3: AAC, 2.0 ch, 188 Kbps - Український DUB, iTunes
Аудио#4: AAC, 2.0 ch, 199 Kbps - English, Original
Аудио#5: AC3, 6.0 ch, 384 Kbps - Русский DUB, iTunes
Аудио#6: AC3, 6.0 ch, 640 Kbps - English, Original

Общее
Полное имя : /Volumes/HDD/Movies/NNMC/Spider-Man.Far.from.Home.2019.BDRip.720p.m4v
Формат : MPEG-4
Идентификатор кодека : M4V (M4V /M4A /mp42/isom)
Размер файла : 4,81 Гбайт
Продолжительность : 2 ч. 9 м.
Режим общего битрейта : Переменный
Общий поток : 5317 Кбит/сек
Название фильма : Человек-Паук: Вдали От Дома
Исполнитель : Jon Watts
Режиссёр : Jon Watts
Исполнитель : Tom Holland / Jon Favreau / Zendaya / Samuel L. Jackson / Jake Gyllenhaal / Jacob Batalon
Сценарист : Chris McKenna / Erik Sommers
Продюсер : Kevin Feige / Amy Pascal
Студия-производитель : Columbia Pictures
Жанр : Боевики и приключения
Тип содержимого : Short Film
Описание : Питер Паркер вместе с друзьями отправляется на летние каникулы в Европу. Однако отдохнуть приятелям вряд ли удастся — Питеру придется согласиться помочь Нику Фьюри раскрыть тайну существ, вызывающих стихийные бедствия и разрушения по всему континенту.
Дата записи : UTC 2019-07-04 07:00:00
Дата кодирования : UTC 2019-09-26 20:24:48
Дата пометки : UTC 2019-09-26 20:29:59
Авторское право : © 2019 Columbia Pictures Industries , Inc. MARVEL and all related character names: 2019 MARVEL.
Обложка : Yes
LongDescription : Питер Паркер вместе с друзьями отправляется на летние каникулы в Европу. Однако отдохнуть приятелям вряд ли удастся — Питеру придется согласиться помочь Нику Фьюри раскрыть тайну существ, вызывающих стихийные бедствия и разрушения по всему континенту.
HDVideo : Yes
AppleStoreCountry : Russia
AppleStoreCatalogID : 1469325682
ContentRating : ru-movie|12+|200|

Видео #1
Идентификатор : 1
Формат : AVC
Формат/Информация : Advanced Video Codec
Профиль формата : High@L4.1
Настройки формата : CABAC / 12 Ref Frames
Параметр CABAC формата : Да
Параметр ReFrames формата : 12 кадров
Идентификатор кодека : avc1
Идентификатор кодека/Информация : Advanced Video Coding
Продолжительность : 2 ч. 9 м.
Битрейт : 3497 Кбит/сек
Ширина : 1280 пикселей
Высота : 536 пикселей
Соотношение сторон : 2,40:1
Режим частоты кадров : Переменный
Частота кадров : 23,976 (24000/1001) кадра/сек
Минимальная частота кадров : 23,810 кадра/сек
Максимальная частота кадров : 24,390 кадра/сек
Цветовое пространство : YUV
Субдискретизация насыщенности : 4:2:0
Битовая глубина : 8 бит
Тип развёртки : Прогрессивная
Бит/(Пиксели*Кадры) : 0.213
Размер потока : 3,16 Гбайт (66%)
Библиотека кодирования : x264 core 148 r2705kMod 3f5ed56
Настройки программы : cabac=1 / ref=12 / deblock=1:-2:-2 / analyse=0x3:0x113 / me=umh / subme=11 / psy=1 / fade_compensate=0.00 / psy_rd=1.01:0.02 / mixed_ref=1 / me_range=48 / chroma_me=1 / trellis=2 / 8x8dct=1 / cqm=0 / deadzone=21,11 / fast_pskip=0 / chroma_qp_offset=-3 / threads=17 / lookahead_threads=2 / sliced_threads=0 / nr=0 / decimate=0 / interlaced=0 / bluray_compat=0 / constrained_intra=0 / fgo=0 / bframes=9 / b_pyramid=2 / b_adapt=2 / b_bias=0 / direct=3 / weightb=1 / open_gop=0 / weightp=2 / keyint=240 / keyint_min=23 / scenecut=40 / intra_refresh=0 / rc_lookahead=50 / rc=2pass / mbtree=0 / bitrate=3497 / ratetol=1.0 / qcomp=0.60 / qpmin=0 / qpmax=51 / qpstep=4 / cplxblur=20.0 / qblur=0.5 / vbv_maxrate=50000 / vbv_bufsize=62500 / nal_hrd=none / filler=0 / ip_ratio=1.40 / pb_ratio=1.30 / aq=3:0.80
Язык : English
Дата кодирования : UTC 2019-09-26 20:24:48
Дата пометки : UTC 2019-09-26 20:29:48
Menus : 14,15
Codec configuration box : avcC

Видео #2
Идентификатор : 15
Формат : JPEG
Идентификатор кодека : jpeg
Продолжительность : 2 ч. 9 м.
Вид битрейта : Переменный
Битрейт : 621 бит/сек
Ширина : 640 пикселей
Высота : 268 пикселей
Соотношение сторон : 2,40:1
Режим частоты кадров : Переменный
Частота кадров : 0,002 кадр/сек
Минимальная частота кадров : 0,001 кадр/сек
Максимальная частота кадров : 0,003 кадр/сек
Цветовое пространство : YUV
Субдискретизация насыщенности : 4:2:0
Битовая глубина : 8 бит
Метод сжатия : С потерями
Бит/(Пиксели*Кадры) : 1.810
Размер потока : 607 Кбайт (0%)
Язык : English
Default : Нет
Дата кодирования : UTC 2019-09-26 20:29:57
Дата пометки : UTC 2019-09-26 20:29:58
Menu For : 1
ColorSpace_ICC : RGB

Аудио #1
Идентификатор : 2
Формат : AAC LC
Формат/Информация : Advanced Audio Codec Low Complexity
Идентификатор кодека : mp4a-40-2
Продолжительность : 2 ч. 9 м.
Вид битрейта : Переменный
Битрейт : 197 Кбит/сек
Максимальный битрейт : 335 Кбит/сек
Каналы : 2 канала
Channel layout : L R
Частота : 48,0 КГц
Частота кадров : 46,875 кадров/сек (1024 SPF)
Метод сжатия : С потерями
Размер потока : 183 Мбайт (4%)
Язык : Russian
Default : Да
Alternate group : 1
Дата кодирования : UTC 2019-09-26 20:24:48
Дата пометки : UTC 2019-09-26 20:29:48
Fallback From : 6
tagc : public.main-program-content

Аудио #2
Идентификатор : 3
Формат : AAC LC
Формат/Информация : Advanced Audio Codec Low Complexity
Идентификатор кодека : mp4a-40-2
Продолжительность : 2 ч. 9 м.
Вид битрейта : Переменный
Битрейт : 196 Кбит/сек
Максимальный битрейт : 281 Кбит/сек
Каналы : 2 канала
Channel layout : L R
Частота : 48,0 КГц
Частота кадров : 46,875 кадров/сек (1024 SPF)
Метод сжатия : С потерями
Размер потока : 181 Мбайт (4%)
Язык : Russian
Default : Нет
Alternate group : 1
Дата кодирования : UTC 2019-09-26 20:24:48
Дата пометки : UTC 2019-09-26 20:29:48
tagc : public.auxiliary-content

Аудио #3
Идентификатор : 4
Формат : AAC LC
Формат/Информация : Advanced Audio Codec Low Complexity
Идентификатор кодека : mp4a-40-2
Продолжительность : 2 ч. 9 м.
Вид битрейта : Переменный
Битрейт : 188 Кбит/сек
Максимальный битрейт : 255 Кбит/сек
Каналы : 2 канала
Channel layout : L R
Частота : 48,0 КГц
Частота кадров : 46,875 кадров/сек (1024 SPF)
Метод сжатия : С потерями
Размер потока : 174 Мбайт (4%)
Язык : Ukrainian
Default : Нет
Alternate group : 1
Дата кодирования : UTC 2019-09-26 20:24:48
Дата пометки : UTC 2019-09-26 20:29:48
tagc : public.main-program-content

Аудио #4
Идентификатор : 5
Формат : AAC LC
Формат/Информация : Advanced Audio Codec Low Complexity
Идентификатор кодека : mp4a-40-2
Продолжительность : 2 ч. 9 м.
Вид битрейта : Переменный
Битрейт : 199 Кбит/сек
Максимальный битрейт : 336 Кбит/сек
Каналы : 2 канала
Channel layout : L R
Частота : 48,0 КГц
Частота кадров : 46,875 кадров/сек (1024 SPF)
Метод сжатия : С потерями
Размер потока : 184 Мбайт (4%)
Язык : English
Default : Нет
Alternate group : 1
Дата кодирования : UTC 2019-09-26 20:24:48
Дата пометки : UTC 2019-09-26 20:29:48
Fallback From : 7
tagc : public.main-program-content

Аудио #5
Идентификатор : 6
Формат : AC-3
Формат/Информация : Audio Coding 3
Коммерческое название : Dolby Digital
Идентификатор кодека : ac-3
Продолжительность : 2 ч. 9 м.
Вид битрейта : Постоянный
Битрейт : 384 Кбит/сек
Каналы : 6 каналов
Channel layout : L R C LFE Ls Rs
Частота : 48,0 КГц
Частота кадров : 31,250 кадров/сек (1536 SPF)
Битовая глубина : 16 бит
Метод сжатия : С потерями
Размер потока : 355 Мбайт (7%)
Язык : Russian
Service kind : Complete Main
Default : Inherited From: 2
Alternate group : 1
Дата кодирования : UTC 2019-09-26 20:24:48
Дата пометки : UTC 2019-09-26 20:29:48
Fallback To : 2
tagc : public.main-program-content

Аудио #6
Идентификатор : 7
Формат : AC-3
Формат/Информация : Audio Coding 3
Коммерческое название : Dolby Digital
Идентификатор кодека : ac-3
Продолжительность : 2 ч. 9 м.
Вид битрейта : Постоянный
Битрейт : 640 Кбит/сек
Каналы : 6 каналов
Channel layout : L R C LFE Ls Rs
Частота : 48,0 КГц
Частота кадров : 31,250 кадров/сек (1536 SPF)
Битовая глубина : 16 бит
Метод сжатия : С потерями
Размер потока : 592 Мбайт (12%)
Язык : English
Service kind : Complete Main
Default : Нет
Alternate group : 1
Дата кодирования : UTC 2019-09-26 20:24:48
Дата пометки : UTC 2019-09-26 20:29:48
Fallback To : 5
tagc : public.main-program-content

Текст #1
Идентификатор : 8
Формат : Timed Text
Режим смешивания : sbtl
Идентификатор кодека : tx3g
Продолжительность : 2 ч. 9 м.
Вид битрейта : Переменный
Битрейт : 1 бит/сек
Размер потока : 630 байт (0%)
Язык : Russian
Default : Да
Forced : Нет
Alternate group : 2
Дата кодирования : UTC 2019-09-26 20:24:48
Дата пометки : UTC 2019-09-26 20:29:48
tagc : public.subtitles.forced-only

Текст #2
Идентификатор : 9
Формат : Timed Text
Режим смешивания : sbtl
Идентификатор кодека : tx3g
Продолжительность : 2 ч. 9 м.
Вид битрейта : Переменный
Битрейт : 100 бит/сек
Размер потока : 94,9 Кбайт (0%)
Язык : Russian
Default : Нет
Forced : Нет
Alternate group : 2
Дата кодирования : UTC 2019-09-26 20:24:48
Дата пометки : UTC 2019-09-26 20:29:49
tagc : public.main-program-content

Текст #3
Идентификатор : 10
Формат : Timed Text
Режим смешивания : sbtl
Идентификатор кодека : tx3g
Продолжительность : 2 ч. 9 м.
Вид битрейта : Переменный
Битрейт : 100 бит/сек
Размер потока : 94,9 Кбайт (0%)
Язык : Russian
Default : Нет
Forced : Нет
Alternate group : 2
Дата кодирования : UTC 2019-09-26 20:24:48
Дата пометки : UTC 2019-09-26 20:29:49
tagc : public.auxiliary-content

Текст #4
Идентификатор : 11
Формат : Timed Text
Режим смешивания : sbtl
Идентификатор кодека : tx3g
Продолжительность : 2 ч. 9 м.
Вид битрейта : Переменный
Битрейт : 103 бит/сек
Размер потока : 97,5 Кбайт (0%)
Язык : Ukrainian
Default : Нет
Forced : Нет
Alternate group : 2
Дата кодирования : UTC 2019-09-26 20:24:48
Дата пометки : UTC 2019-09-26 20:29:49
tagc : public.main-program-content

Текст #5
Идентификатор : 12
Формат : Timed Text
Режим смешивания : sbtl
Идентификатор кодека : tx3g
Продолжительность : 2 ч. 8 м.
Вид битрейта : Переменный
Битрейт : 66 бит/сек
Размер потока : 62,4 Кбайт (0%)
Язык : English
Default : Нет
Forced : Нет
Alternate group : 2
Дата кодирования : UTC 2019-09-26 20:24:48
Дата пометки : UTC 2019-09-26 20:29:49
tagc : public.main-program-content

Текст #6
Идентификатор : 13
Формат : Timed Text
Режим смешивания : sbtl
Идентификатор кодека : tx3g
Продолжительность : 2 ч. 8 м.
Вид битрейта : Переменный
Битрейт : 73 бит/сек
Размер потока : 68,5 Кбайт (0%)
Язык : English
Default : Нет
Forced : Нет
Alternate group : 2
Дата кодирования : UTC 2019-09-26 20:24:48
Дата пометки : UTC 2019-09-26 20:29:49
tagc : public.accessibility.transcribes-spoken-dialog

Меню
Идентификатор : 14
Идентификатор кодека : text
Продолжительность : 2 ч. 9 м.
Язык : English
Дата кодирования : UTC 2019-09-26 20:29:49
Дата пометки : UTC 2019-09-26 20:29:49
Вид битрейта : CBR
Menu For : 1
00:00:00.000 : 00:00:00.000
00:09:35.033 : 00:09:35.033
00:16:06.716 : 00:16:06.716
00:25:18.475 : 00:25:18.475
00:35:26.499 : 00:35:26.499
00:41:57.014 : 00:41:57.014
00:49:50.029 : 00:49:50.029
00:57:09.509 : 00:57:09.509
01:04:50.637 : 01:04:50.637
01:15:57.219 : 01:15:57.219
01:22:49.089 : 01:22:49.089
01:29:25.193 : 01:29:25.193
01:36:43.256 : 01:36:43.256
01:44:47.364 : 01:44:47.364
01:52:17.397 : 01:52:17.397
01:57:45.433 : 01:57:45.433
Вид битрейта : Постоянный


Name: Человек-Паук: Вдали От Дома
Artist: Jon Watts
Media Kind: Movie
HD Video: 720p
Genre: Боевики и приключения
Release Date: 2019-07-04T07:00:00Z
Description: Питер Паркер вместе с друзьями отправляется на летние каникулы в Европу. Однако отдохнуть приятелям вряд ли удастся — Питеру придется согласиться помочь Нику Фьюри раскрыть тайну существ, вызывающих стихийные бедствия и разрушения по всему континенту.
Long Description: Питер Паркер вместе с друзьями отправляется на летние каникулы в Европу. Однако отдохнуть приятелям вряд ли удастся — Питеру придется согласиться помочь Нику Фьюри раскрыть тайну существ, вызывающих стихийные бедствия и разрушения по всему континенту.
Rating: ru-movie|12+|200|
Studio: Columbia Pictures
Cast: Tom Holland, Jon Favreau, Zendaya, Samuel L. Jackson, Jake Gyllenhaal, Jacob Batalon
Director: Jon Watts
Producers: Kevin Feige, Amy Pascal
Screenwriters: Chris McKenna, Erik Sommers
Copyright: © 2019 Columbia Pictures Industries , Inc. MARVEL and all related character names: 2019 MARVEL.
content ID: 1469325682
iTunes Country: 143469

Скриншоты:


Все одноименные релизы в Клубе
Время раздачи: 24/7 (до появления первых 3-5 скачавших)

Релиз подготовлен для просмотра на Apple TV, iPad, iPhone, iPod Touch.
Для просмотра данного релиза на компьютере с ОС Windows рекомендуется использовать VLC media player
[NNMClub.to]_Spider-Man.Far.from.Home.2019.BDRip.720p.m4v.torrent
 Торрент:   Зарегистрирован
 
Зарегистрируйтесь и скачайте торрент!
48,3 KB

Примагнититься
 Зарегистрирован:   26 Сен 2019 23:40:09
 Размер:   4,81 GB  (
 Рейтинг:   4,9 (Голосов: 15)
 Поблагодарили:   49
 Проверка:   Оформление проверено модератором 27 Сен 2019 00:18:17
Как cкачать  ·  Как раздать  ·  Правильно оформить  ·  Поднять ратио!  

_________________
«Всё против нас, только ветер навстречу…».
🍏Apple iMac 21.5 (mid 2011) / Intel Core i5 2.7 GHz / AMD Radeon HD 6770M 512 Mb / 12GB DDR3 / Apple Trackpad, Apple Keyboard / macOS High Sierra 10.13.6 (17G8030)
Загрузка...
Показать сообщения:   
Начать новую тему   Ответить на тему    Торрент-трекер NNM-Club -> Аудио и Видео -> Зарубежное видео HD для устройств Apple Часовой пояс: GMT + 3
Страница 1 из 1