Классический форум-трекер
canvas not supported
Нас вместе: 4 079 289

Форсаж: Хоббс и Шоу / Fast & Furious Presents: Hobbs & Shaw (2019) WEBRip [1080p] ATV (Line)


 
 
RSS
Начать новую тему   Ответить на тему    Торрент-трекер NNM-Club -> Аудио и Видео -> Зарубежное видео HD для устройств Apple
Автор Сообщение
Весельчак У ®
Модератор Apple

Online
Стаж: 5 лет 10 мес.
Сообщений: 3384
Ratio: 147,732
Поблагодарили: 111140
100%
Откуда: От Москвы недалеко...
ussr.gif
Форсаж: Хоббс и Шоу / Fast & Furious Presents: Hobbs & Shaw (2019) WEBRip [1080p] ATV
Производство: США / Chris Morgan Productions, Seven Bucks Productions, Universal Pictures
Жанр: Боевик, приключения

Режиссер: Дэвид Литч
Продюсер: Хирам Гарсиа, Дуэйн Джонсон, Крис Морган
Актеры: Дуэйн Джонсон, Джейсон Стэйтем, Идрис Эльба, Ванесса Кирби, Хелен Миррен, Эйса Гонсалес, Эдди Марсан, Элиана Суа, Клифф Кёртис, Лори Пеленис Туисано

Описание:
Люк Хоббс - американский элитный спецагент, он любит удобную спортивную одежду, большие пикапы и здоровое питание. Декард Шоу - британский пижон, бывший сотрудник разведки, предпочитает дорогие костюмы, спортивные авто и длинноногих красоток. Эти двое ненавидят друг друга. Но если кто-то угрожает их семьям, они готовы пойти на все. Даже на работу в команде.


Возраст: 12+ (зрителям, достигшим 12 лет)
Рейтинг MPAA: PG-13 (детям до 13 лет просмотр нежелателен)
Дата мировой премьеры: 13 июля 2019
Дата российской премьеры: 1 августа 2019, «UPI»

Продолжительность: 02:15:51
Качество видео: WEBRip 1080р
Перевод: Дублированный (Line)
Субтитры: Русские (форс. хардсаб), английские

Видео: H.264, 1920x800 (2.40:1), ~10,8 Mbps, 23.976 fps
Аудио#1: AAC, 2.0 ch, 197 Kbps - Русский DUB, Line
Аудио#2: AAC, 2.0 ch, 191 Kbps - English, Original

Общее
Полное имя : /Volumes/HDD/Movies/NNMC/Fast.and.Furious.Presents.Hobbs.and.Shaw.2019.WEBRip.1080p.m4v
Формат : MPEG-4
Идентификатор кодека : M4V (M4V /M4A /mp42/isom)
Размер файла : 10,6 Гбайт
Продолжительность : 2 ч. 15 м.
Режим общего битрейта : Переменный
Общий поток : 11,2 Мбит/сек
Название фильма : Форсаж: Хоббс и Шоу
Исполнитель : David Leitch
Режиссёр : David Leitch
Исполнитель : Dwayne Johnson / Jason Statham / Idris Elba / Vanessa Kirby / Eiza González / Eddie Marsan / Stephanie Vogt / David Mumeni / Axel Nu / Lampros Kalfuntzos / Leati Joseph Anoaʻi / Kevin Hart / Ryan Reynolds / Rob Delaney / Cliff Curtis / Helen Mirren / Eliana Su’a / Lori Pelenise Tuisano
Сценарист : Chris Morgan / Drew Pearce / Chris Morgan
Продюсер : Hiram Garcia / Neal H. Moritz / Dany Garcia / Dwayne Johnson / Jason Statham / Chris Morgan
Исполнительный продюсер : Steven Chasman, Ainsley Davies
Студия-производитель : Universal Pictures
Жанр : боевик
Тип содержимого : Short Film
Описание : Превосходный спецагент, боец и стрелок Люк Хоббс вынужден объединиться со своим старым врагом, опаснейшим преступником Деккардом Шоу, чтобы противостоять общему противнику.
Дата записи : UTC 2019-08-01 00:00:00
Дата кодирования : UTC 2019-09-27 14:57:11
Дата пометки : UTC 2019-09-27 15:04:22
Обложка : Yes
LongDescription : Превосходный спецагент, боец и стрелок Люк Хоббс вынужден объединиться со своим старым врагом, опаснейшим преступником Деккардом Шоу, чтобы противостоять общему противнику.
ContentRating : mpaa|Unrated|???|

Видео
Идентификатор : 1
Формат : AVC
Формат/Информация : Advanced Video Codec
Профиль формата : High@L4.1
Настройки формата : CABAC / 4 Ref Frames
Параметр CABAC формата : Да
Параметр ReFrames формата : 4 кадра
Идентификатор кодека : avc1
Идентификатор кодека/Информация : Advanced Video Coding
Продолжительность : 2 ч. 15 м.
Битрейт : 10,8 Мбит/сек
Ширина : 1920 пикселей
Высота : 800 пикселей
Соотношение сторон : 2,40:1
Режим частоты кадров : Переменный
Частота кадров : 23,976 (24000/1001) кадра/сек
Минимальная частота кадров : 23,810 кадра/сек
Максимальная частота кадров : 24,390 кадра/сек
Цветовое пространство : YUV
Субдискретизация насыщенности : 4:2:0
Битовая глубина : 8 бит
Тип развёртки : Прогрессивная
Бит/(Пиксели*Кадры) : 0.292
Размер потока : 10,2 Гбайт (96%)
Язык : English
Дата кодирования : UTC 2019-09-27 14:57:11
Дата пометки : UTC 2019-09-27 15:04:20
Цветовой диапазон : Limited
Основные цвета : BT.709
Характеристики трансфера : BT.709
Коэффициенты матрицы : BT.709
Codec configuration box : avcC

Аудио #1
Идентификатор : 2
Формат : AAC LC
Формат/Информация : Advanced Audio Codec Low Complexity
Идентификатор кодека : mp4a-40-2
Продолжительность : 2 ч. 15 м.
Вид битрейта : Переменный
Битрейт : 197 Кбит/сек
Максимальный битрейт : 263 Кбит/сек
Каналы : 2 канала
Channel layout : L R
Частота : 48,0 КГц
Частота кадров : 46,875 кадров/сек (1024 SPF)
Метод сжатия : С потерями
Размер потока : 192 Мбайт (2%)
Язык : Russian
Default : Да
Alternate group : 1
Дата кодирования : UTC 2019-09-27 14:57:11
Дата пометки : UTC 2019-09-27 15:04:20
tagc : public.main-program-content

Аудио #2
Идентификатор : 3
Формат : AAC LC
Формат/Информация : Advanced Audio Codec Low Complexity
Идентификатор кодека : mp4a-40-2
Продолжительность : 2 ч. 15 м.
Продолжительность оригинала : 2 ч. 15 м.
Вид битрейта : Переменный
Номинальный битрейт : 191 Кбит/сек
Максимальный битрейт : 289 Кбит/сек
Каналы : 2 канала
Channel layout : L R
Частота : 48,0 КГц
Частота кадров : 46,875 кадров/сек (1024 SPF)
Метод сжатия : С потерями
Размер потока оригинала : 186 Мбайт (2%)
Язык : English
Default : Нет
Alternate group : 1
Дата кодирования : UTC 2019-09-27 14:57:11
Дата пометки : UTC 2019-09-27 15:04:20
tagc : public.main-program-content

Текст
Идентификатор : 4
Формат : Timed Text
Режим смешивания : sbtl
Идентификатор кодека : tx3g
Продолжительность : 2 ч. 1 м.
Вид битрейта : Переменный
Битрейт : 72 бит/сек
Размер потока : 64,0 Кбайт (0%)
Язык : English
Default : Да
Forced : Нет
Alternate group : 2
Дата кодирования : UTC 2019-09-27 14:57:11
Дата пометки : UTC 2019-09-27 15:04:20
tagc : public.main-program-content


Name: Форсаж: Хоббс и Шоу
Artist: David Leitch
Media Kind: Movie
HD Video: 1080p
Genre: боевик
Release Date: 2019-08-01T00:00:00Z
Description: Превосходный спецагент, боец и стрелок Люк Хоббс вынужден объединиться со своим старым врагом, опаснейшим преступником Деккардом Шоу, чтобы противостоять общему противнику.
Long Description: Превосходный спецагент, боец и стрелок Люк Хоббс вынужден объединиться со своим старым врагом, опаснейшим преступником Деккардом Шоу, чтобы противостоять общему противнику.
Rating: mpaa|Unrated|???|
Studio: Universal Pictures
Cast: Dwayne Johnson, Jason Statham, Idris Elba, Vanessa Kirby, Eiza González, Eddie Marsan, Stephanie Vogt, David Mumeni, Axel Nu, Lampros Kalfuntzos, Leati Joseph Anoaʻi, Kevin Hart, Ryan Reynolds, Rob Delaney, Cliff Curtis, Helen Mirren, Eliana Su’a, Lori Pelenise Tuisano
Director: David Leitch
Producers: Hiram Garcia, Neal H. Moritz, Dany Garcia, Dwayne Johnson, Jason Statham, Chris Morgan
Executive Producer: Steven Chasman, Ainsley Davies
Screenwriters: Chris Morgan, Drew Pearce, Chris Morgan

Скриншоты:


Все одноименные релизы в Клубе
Время раздачи: 24/7 (до появления первых 3-5 скачавших)

Релиз подготовлен для просмотра на Apple TV, iPad, iPhone, iPod Touch.
Для просмотра данного релиза на компьютере с ОС Windows рекомендуется использовать VLC media player
[NNMClub.to]_Fast.and.Furious.Presents.Hobbs.and.Shaw.2019.WEBRip.1080p.m4v.torrent
 Торрент:   Зарегистрирован
 
Зарегистрируйтесь и скачайте торрент!
106 KB

Примагнититься
 Зарегистрирован:   27 Сен 2019 18:23:07
 Размер:   10,6 GB  (
 Рейтинг:   4,6 (Голосов: 20)
 Поблагодарили:   92
 Проверка:   Оформление проверено модератором 27 Сен 2019 18:58:44
Как cкачать  ·  Как раздать  ·  Правильно оформить  ·  Поднять ратио!  

_________________
«Всё против нас, только ветер навстречу…».
🍏Apple iMac 21.5 (mid 2011) / Intel Core i5 2.7 GHz / AMD Radeon HD 6770M 512 Mb / 12GB DDR3 / Apple Trackpad, Apple Keyboard / macOS High Sierra 10.13.6 (17G8030)
4atlanin
Стаж: 8 лет 7 мес.
Сообщений: 18
Ratio: 26,909
60.17%
russia.gif
Звук как из ведра. Спасибо за фильм. Всем любителям форсажа не советую, умерла серия.
Показать сообщения:   
Начать новую тему   Ответить на тему    Торрент-трекер NNM-Club -> Аудио и Видео -> Зарубежное видео HD для устройств Apple Часовой пояс: GMT + 3
Страница 1 из 1