Классический форум-трекер
canvas not supported
Нас вместе: 4 079 341

Schiller - Morgenstund (2019) Super Deluxe Edition [FLAC|Lossless|tracks + .cue] <Ambient , Downtempo>


 
 
RSS
Начать новую тему   Ответить на тему    Торрент-трекер NNM-Club -> Electronic -> Easy listening (Lossless)
Автор Сообщение
Lazyra ®
RG Music
Модератор музыки Electronic
 
Стаж: 8 лет 7 мес.
Сообщений: 4846
Ratio: 1843,16
Раздал: 64,03 TB
Поблагодарили: 106739
100%
Откуда: Владимир
russia.gif
Schiller - Morgenstund (Super Deluxe Edition) (2019)



Год: 2019
Жанр: Ambient , Downtempo
Продолжительность: 02:31:31
Лейбл: Sony Music
Каталог №: 19075854002
Сканы: Комплект
Тип рипа: tracks + .cue
Кодек: FLAC
Битрейт: Lossless

Трeклист:

Треклист:
01. Schiller - Willkommen (0:37)
02. Schiller - Harmonia (5:46)
03. Schiller & Tricia McTeague - Universe (7:22)
04. Schiller & Jhyve - Dreamcatcher (4:07)
05. Schiller - Baum des Lebens (5:46)
06. Schiller & Schwarz - Avalanche (5:43)
07. Schiller & Yalda Abbasi - Das Goldene Tor (5:12)
08. Schiller - Berlin Tehran (Miniatur) (0:53)
09. Schiller & Jan Blomqvist - In Between (4:47)
10. Schiller & Nena - Morgenstund (5:25)
11. Schiller - Shangri La (5:18)
12. Schiller & Giorgio Moroder - Lichtjahre (4:26)
13. Schiller & Schwarz - New Day (6:01)
14. Schiller - Over You (4:11)
15. Schiller & Tangerine Dream - Morgenstern (Ausschnitt) (5:12)
16. Schiller & Rebecca Ferguson - Love (9:37)

Продoлжительность: 01:20:23
Код: выделить все

Exact Audio Copy V1.3 from 2. September 2016

EAC extraction logfile from 13. September 2019, 20:49

Schiller / Morgenstund

Used drive  : PIONEER BD-RW   BDR-205   Adapter: 1  ID: 0

Read mode               : Secure
Utilize accurate stream : Yes
Defeat audio cache      : Yes
Make use of C2 pointers : No

Read offset correction                      : 667
Overread into Lead-In and Lead-Out          : No
Fill up missing offset samples with silence : Yes
Delete leading and trailing silent blocks   : No
Null samples used in CRC calculations       : Yes
Used interface                              : Native Win32 interface for Win NT & 2000
Gap handling                                : Appended to previous track

Used output format              : User Defined Encoder
Selected bitrate                : 1024 kBit/s
Quality                         : High
Add ID3 tag                     : No
Command line compressor         : C:\Program Files (x86)\Exact Audio Copy\Flac\flac.exe
Additional command line options : -8 -V -T "ARTIST=%artist%" -T "TITLE=%title%" -T "ALBUM=%albumtitle%" -T "DATE=%year%" -T "TRACKNUMBER=%tracknr%" -T "GENRE=%genre%" -T "COMMENT=%comment%" -T "BAND=%albuminterpret%" -T "ALBUMARTIST=%albuminterpret%" -T "COMPOSER=%composer%" %haslyrics%--tag-from-file=LYRICS="%lyricsfile%"%haslyrics% -T "DISCNUMBER=%cdnumber%" -T "TOTALDISCS=%totalcds%" -T "TOTALTRACKS=%numtracks%" %hascover%--picture="%coverfile%"%hascover% %source% -o %dest%

TOC of the extracted CD

     Track |   Start  |  Length  | Start sector | End sector
    ---------------------------------------------------------
        1  |  0:00.00 |  0:37.39 |         0    |     2813
        2  |  0:37.39 |  5:46.67 |      2814    |    28830
        3  |  6:24.31 |  7:22.28 |     28831    |    62008
        4  | 13:46.59 |  4:07.18 |     62009    |    80551
        5  | 17:54.02 |  5:46.36 |     80552    |   106537
        6  | 23:40.38 |  5:43.62 |    106538    |   132324
        7  | 29:24.25 |  5:12.53 |    132325    |   155777
        8  | 34:37.03 |  0:53.57 |    155778    |   159809
        9  | 35:30.60 |  4:47.52 |    159810    |   181386
       10  | 40:18.37 |  5:25.69 |    181387    |   205830
       11  | 45:44.31 |  5:18.46 |    205831    |   229726
       12  | 51:03.02 |  4:26.15 |    229727    |   249691
       13  | 55:29.17 |  6:01.61 |    249692    |   276827
       14  | 61:31.03 |  4:11.49 |    276828    |   295701
       15  | 65:42.52 |  5:12.13 |    295702    |   319114
       16  | 70:54.65 |  9:37.00 |    319115    |   362389

Track  1

     Filename T:\audio\Schiller - Morgenstund [2019] (Super Deluxe Edition)\CD1 Morgenstund\01 Willkommen.wav

     Pre-gap length  0:00:02.00

     Peak level 59.8 %
     Extraction speed 1.8 X
     Track quality 99.7 %
     Test CRC 25D03B3D
     Copy CRC 25D03B3D
     Accurately ripped (confidence 21)  [C6E5FE96]  (AR v2)
     Copy OK

Track  2

     Filename T:\audio\Schiller - Morgenstund [2019] (Super Deluxe Edition)\CD1 Morgenstund\02 Harmonia.wav

     Peak level 93.8 %
     Extraction speed 4.8 X
     Track quality 99.9 %
     Test CRC C5BFD7F7
     Copy CRC C5BFD7F7
     Accurately ripped (confidence 21)  [DF1B670B]  (AR v2)
     Copy OK

Track  3

     Filename T:\audio\Schiller - Morgenstund [2019] (Super Deluxe Edition)\CD1 Morgenstund\03 Universe.wav

     Pre-gap length  0:00:00.02

     Peak level 93.6 %
     Extraction speed 6.0 X
     Track quality 100.0 %
     Test CRC BEEA3C78
     Copy CRC BEEA3C78
     Accurately ripped (confidence 21)  [806A41D2]  (AR v2)
     Copy OK

Track  4

     Filename T:\audio\Schiller - Morgenstund [2019] (Super Deluxe Edition)\CD1 Morgenstund\04 Dreamcatcher.wav

     Pre-gap length  0:00:00.02

     Peak level 95.8 %
     Extraction speed 6.1 X
     Track quality 100.0 %
     Test CRC 94E48C8F
     Copy CRC 94E48C8F
     Accurately ripped (confidence 21)  [5544C03C]  (AR v2)
     Copy OK

Track  5

     Filename T:\audio\Schiller - Morgenstund [2019] (Super Deluxe Edition)\CD1 Morgenstund\05 Baum des Lebens.wav

     Pre-gap length  0:00:00.02

     Peak level 93.5 %
     Extraction speed 6.7 X
     Track quality 100.0 %
     Test CRC 251752A6
     Copy CRC 251752A6
     Accurately ripped (confidence 21)  [AAA13240]  (AR v2)
     Copy OK

Track  6

     Filename T:\audio\Schiller - Morgenstund [2019] (Super Deluxe Edition)\CD1 Morgenstund\06 Avalanche.wav

     Pre-gap length  0:00:00.02

     Peak level 95.6 %
     Extraction speed 7.1 X
     Track quality 100.0 %
     Test CRC 840F11DB
     Copy CRC 840F11DB
     Accurately ripped (confidence 21)  [D79ECA75]  (AR v2)
     Copy OK

Track  7

     Filename T:\audio\Schiller - Morgenstund [2019] (Super Deluxe Edition)\CD1 Morgenstund\07 Das Goldene Tor.wav

     Pre-gap length  0:00:00.02

     Peak level 97.6 %
     Extraction speed 6.7 X
     Track quality 99.9 %
     Test CRC E742C505
     Copy CRC E742C505
     Accurately ripped (confidence 21)  [4E793CE9]  (AR v2)
     Copy OK

Track  8

     Filename T:\audio\Schiller - Morgenstund [2019] (Super Deluxe Edition)\CD1 Morgenstund\08 Berlin Tehran (Miniatur).wav

     Pre-gap length  0:00:00.02

     Peak level 81.5 %
     Extraction speed 3.5 X
     Track quality 99.8 %
     Test CRC 77A67FDD
     Copy CRC 77A67FDD
     Accurately ripped (confidence 20)  [ACDFE138]  (AR v2)
     Copy OK

Track  9

     Filename T:\audio\Schiller - Morgenstund [2019] (Super Deluxe Edition)\CD1 Morgenstund\09 In Between.wav

     Pre-gap length  0:00:00.02

     Peak level 93.0 %
     Extraction speed 7.7 X
     Track quality 100.0 %
     Test CRC 6404AB5F
     Copy CRC 6404AB5F
     Accurately ripped (confidence 21)  [796514F6]  (AR v2)
     Copy OK

Track 10

     Filename T:\audio\Schiller - Morgenstund [2019] (Super Deluxe Edition)\CD1 Morgenstund\10 Morgenstund.wav

     Pre-gap length  0:00:00.02

     Peak level 96.0 %
     Extraction speed 8.0 X
     Track quality 100.0 %
     Test CRC F27C8823
     Copy CRC F27C8823
     Accurately ripped (confidence 21)  [0E58A8E9]  (AR v2)
     Copy OK

Track 11

     Filename T:\audio\Schiller - Morgenstund [2019] (Super Deluxe Edition)\CD1 Morgenstund\11 Shangri La.wav

     Pre-gap length  0:00:00.02

     Peak level 95.4 %
     Extraction speed 8.3 X
     Track quality 100.0 %
     Test CRC 454CDB10
     Copy CRC 454CDB10
     Accurately ripped (confidence 21)  [04EB9937]  (AR v2)
     Copy OK

Track 12

     Filename T:\audio\Schiller - Morgenstund [2019] (Super Deluxe Edition)\CD1 Morgenstund\12 Lichtjahre.wav

     Pre-gap length  0:00:00.02

     Peak level 96.5 %
     Extraction speed 8.4 X
     Track quality 100.0 %
     Test CRC A7F95CF3
     Copy CRC A7F95CF3
     Accurately ripped (confidence 21)  [74BE585E]  (AR v2)
     Copy OK

Track 13

     Filename T:\audio\Schiller - Morgenstund [2019] (Super Deluxe Edition)\CD1 Morgenstund\13 New Day.wav

     Pre-gap length  0:00:00.02

     Peak level 96.1 %
     Extraction speed 8.9 X
     Track quality 100.0 %
     Test CRC 3D81D369
     Copy CRC 3D81D369
     Accurately ripped (confidence 21)  [09097002]  (AR v2)
     Copy OK

Track 14

     Filename T:\audio\Schiller - Morgenstund [2019] (Super Deluxe Edition)\CD1 Morgenstund\14 Over You.wav

     Pre-gap length  0:00:00.02

     Peak level 96.5 %
     Extraction speed 7.8 X
     Track quality 99.9 %
     Test CRC 490CD64F
     Copy CRC 490CD64F
     Accurately ripped (confidence 21)  [95376BE2]  (AR v2)
     Copy OK

Track 15

     Filename T:\audio\Schiller - Morgenstund [2019] (Super Deluxe Edition)\CD1 Morgenstund\15 Morgenstern (Ausschnitt).wav

     Pre-gap length  0:00:00.02

     Peak level 91.3 %
     Extraction speed 9.3 X
     Track quality 100.0 %
     Test CRC E7C247A2
     Copy CRC E7C247A2
     Accurately ripped (confidence 21)  [AFFEE34B]  (AR v2)
     Copy OK

Track 16

     Filename T:\audio\Schiller - Morgenstund [2019] (Super Deluxe Edition)\CD1 Morgenstund\16 Love.wav

     Pre-gap length  0:00:00.02

     Peak level 95.0 %
     Extraction speed 10.0 X
     Track quality 100.0 %
     Test CRC 12144EDF
     Copy CRC 12144EDF
     Accurately ripped (confidence 21)  [7B66AFF4]  (AR v2)
     Copy OK

All tracks accurately ripped

No errors occurred

End of status report

---- CUETools DB Plugin V2.1.6

[CTDB TOCID: SKEDTbnhiZZ7eQ9ALlf4w3pClwQ-] found
Submit result: SKEDTbnhiZZ7eQ9ALlf4w3pClwQ- has been confirmed
Track | CTDB Status
  1   | (344/345) Accurately ripped
  2   | (344/345) Accurately ripped
  3   | (344/345) Accurately ripped
  4   | (344/345) Accurately ripped
  5   | (344/345) Accurately ripped
  6   | (344/345) Accurately ripped
  7   | (344/345) Accurately ripped
  8   | (344/345) Accurately ripped
  9   | (344/345) Accurately ripped
 10   | (344/345) Accurately ripped
 11   | (344/345) Accurately ripped
 12   | (343/345) Accurately ripped
 13   | (344/345) Accurately ripped
 14   | (344/345) Accurately ripped
 15   | (342/345) Accurately ripped
 16   | (343/345) Accurately ripped

==== Log checksum 2D652FB984D52EC2E8C2E662685E1CC05B8EA6C99A09ADCF692F3E1C29B0A164 ====


Трeклист:
01. Aurora (6:45)
02. Kronos (5:08)
03. Poseidon (4:55)
04. Shangri La (6:52)
05. Aphrodite (4:21)
06. Berlin Tehran (4:26)
07. Die Farben der Nacht (6:25)
08. Morgenstern (feat. Tangerine Dream) (32:16)

Продoлжительность: 01:11:08
Код: выделить все

Exact Audio Copy V1.3 from 2. September 2016

EAC extraction logfile from 13. September 2019, 21:32

Schiller / Voyage: Panta Rhei

Used drive  : PIONEER BD-RW   BDR-205   Adapter: 1  ID: 0

Read mode               : Secure
Utilize accurate stream : Yes
Defeat audio cache      : Yes
Make use of C2 pointers : No

Read offset correction                      : 667
Overread into Lead-In and Lead-Out          : No
Fill up missing offset samples with silence : Yes
Delete leading and trailing silent blocks   : No
Null samples used in CRC calculations       : Yes
Used interface                              : Native Win32 interface for Win NT & 2000
Gap handling                                : Appended to previous track

Used output format              : User Defined Encoder
Selected bitrate                : 1024 kBit/s
Quality                         : High
Add ID3 tag                     : No
Command line compressor         : C:\Program Files (x86)\Exact Audio Copy\Flac\flac.exe
Additional command line options : -8 -V -T "ARTIST=%artist%" -T "TITLE=%title%" -T "ALBUM=%albumtitle%" -T "DATE=%year%" -T "TRACKNUMBER=%tracknr%" -T "GENRE=%genre%" -T "COMMENT=%comment%" -T "BAND=%albuminterpret%" -T "ALBUMARTIST=%albuminterpret%" -T "COMPOSER=%composer%" %haslyrics%--tag-from-file=LYRICS="%lyricsfile%"%haslyrics% -T "DISCNUMBER=%cdnumber%" -T "TOTALDISCS=%totalcds%" -T "TOTALTRACKS=%numtracks%" %hascover%--picture="%coverfile%"%hascover% %source% -o %dest%

TOC of the extracted CD

     Track |   Start  |  Length  | Start sector | End sector
    ---------------------------------------------------------
        1  |  0:00.00 |  6:45.60 |         0    |    30434
        2  |  6:45.60 |  5:08.05 |     30435    |    53539
        3  | 11:53.65 |  4:55.19 |     53540    |    75683
        4  | 16:49.09 |  6:52.43 |     75684    |   106626
        5  | 23:41.52 |  4:21.00 |    106627    |   126201
        6  | 28:02.52 |  4:26.46 |    126202    |   146197
        7  | 32:29.23 |  6:25.00 |    146198    |   175072
        8  | 38:54.23 | 32:16.39 |    175073    |   320311

Track  1

     Filename T:\audio\Schiller - Morgenstund [2019] (Super Deluxe Edition)\CD2 Voyage Panta Rhei\01 Aurora.wav

     Pre-gap length  0:00:02.00

     Peak level 99.3 %
     Extraction speed 5.3 X
     Track quality 100.0 %
     Test CRC DF0C1115
     Copy CRC DF0C1115
     Accurately ripped (confidence 20)  [B3262E21]  (AR v2)
     Copy OK

Track  2

     Filename T:\audio\Schiller - Morgenstund [2019] (Super Deluxe Edition)\CD2 Voyage Panta Rhei\02 Kronos.wav

     Pre-gap length  0:00:02.00

     Peak level 99.4 %
     Extraction speed 5.2 X
     Track quality 99.9 %
     Test CRC 579F2980
     Copy CRC 579F2980
     Accurately ripped (confidence 20)  [22E04E7B]  (AR v2)
     Copy OK

Track  3

     Filename T:\audio\Schiller - Morgenstund [2019] (Super Deluxe Edition)\CD2 Voyage Panta Rhei\03 Poseidon.wav

     Pre-gap length  0:00:02.00

     Peak level 97.9 %
     Extraction speed 6.2 X
     Track quality 100.0 %
     Test CRC 182ACD6C
     Copy CRC 182ACD6C
     Accurately ripped (confidence 20)  [6BC5291B]  (AR v2)
     Copy OK

Track  4

     Filename T:\audio\Schiller - Morgenstund [2019] (Super Deluxe Edition)\CD2 Voyage Panta Rhei\04 Shangri La.wav

     Pre-gap length  0:00:02.00

     Peak level 97.6 %
     Extraction speed 6.9 X
     Track quality 100.0 %
     Test CRC 14A1B6CF
     Copy CRC 14A1B6CF
     Accurately ripped (confidence 20)  [1105A570]  (AR v2)
     Copy OK

Track  5

     Filename T:\audio\Schiller - Morgenstund [2019] (Super Deluxe Edition)\CD2 Voyage Panta Rhei\05 Aphrodite.wav

     Pre-gap length  0:00:02.00

     Peak level 100.0 %
     Extraction speed 6.9 X
     Track quality 100.0 %
     Test CRC 7CB66559
     Copy CRC 7CB66559
     Accurately ripped (confidence 20)  [B624F8C3]  (AR v2)
     Copy OK

Track  6

     Filename T:\audio\Schiller - Morgenstund [2019] (Super Deluxe Edition)\CD2 Voyage Panta Rhei\06 Berlin Tehran.wav

     Pre-gap length  0:00:02.00

     Peak level 99.3 %
     Extraction speed 7.2 X
     Track quality 100.0 %
     Test CRC 7F7FB76F
     Copy CRC 7F7FB76F
     Accurately ripped (confidence 20)  [31EB062B]  (AR v2)
     Copy OK

Track  7

     Filename T:\audio\Schiller - Morgenstund [2019] (Super Deluxe Edition)\CD2 Voyage Panta Rhei\07 Die Farben der Nacht.wav

     Pre-gap length  0:00:02.00

     Peak level 96.7 %
     Extraction speed 7.9 X
     Track quality 100.0 %
     Test CRC 0E3E3C5A
     Copy CRC 0E3E3C5A
     Accurately ripped (confidence 20)  [B0ACBA61]  (AR v2)
     Copy OK

Track  8

     Filename T:\audio\Schiller - Morgenstund [2019] (Super Deluxe Edition)\CD2 Voyage Panta Rhei\08 Morgenstern (feat. Tangerine Dream).wav

     Pre-gap length  0:00:02.00

     Peak level 95.7 %
     Extraction speed 9.6 X
     Track quality 100.0 %
     Test CRC 9F65C844
     Copy CRC 9F65C844
     Accurately ripped (confidence 20)  [CBF029AF]  (AR v2)
     Copy OK

All tracks accurately ripped

No errors occurred

End of status report

---- CUETools DB Plugin V2.1.6

[CTDB TOCID: vPBM2VCM01aHTaZIwwoeVfkamaQ-] found
Submit result: vPBM2VCM01aHTaZIwwoeVfkamaQ- has been confirmed
Track | CTDB Status
  1   | (190/194) Accurately ripped
  2   | (191/194) Accurately ripped
  3   | (189/194) Accurately ripped
  4   | (192/194) Accurately ripped
  5   | (192/194) Accurately ripped
  6   | (190/194) Accurately ripped
  7   | (190/194) Accurately ripped
  8   | (192/194) Accurately ripped

==== Log checksum 6880C404650E2AD44313250290A0E15A11D738E5A9129E54977DFFB3A6C72F32 ====

Время раздачи: 24/7



Поглощение/вытеснение
Только с согласия релизера

kudzin
[NNMClub.to]_Schiller - Morgenstund (Super Deluxe Edition) (2019) [FLAC-CD].torrent
 Торрент:   Зарегистрирован
 
Зарегистрируйтесь и скачайте торрент!
19,1 KB

Примагнититься
 Зарегистрирован:   27 Сен 2019 19:18:40
 Размер:   822 MB  (
 Рейтинг:   4,8 (Голосов: 13)
 Поблагодарили:   91
 Проверка:   Оформление проверено модератором 27 Сен 2019 21:50:08
Как cкачать  ·  Как раздать  ·  Правильно оформить  ·  Поднять ратио!  
Показать сообщения:   
Начать новую тему   Ответить на тему    Торрент-трекер NNM-Club -> Electronic -> Easy listening (Lossless) Часовой пояс: GMT + 3
Страница 1 из 1