Классический форум-трекер
canvas not supported
Нас вместе: 4 078 988

The Prodigy - No Tourists (2018) [FLAC 2.0|96/24|tracks|Vinyl-Rip] <Drum & Bass, Big Beat>


 
 
RSS
Начать новую тему   Ответить на тему    Торрент-трекер NNM-Club -> HD Audio и Многоканальная Музыка -> Vinyl-Rip и Hand-Made
Автор Сообщение
Lazyra ®
RG Music
Модератор музыки Electronic
 
Стаж: 8 лет 7 мес.
Сообщений: 4839
Ratio: 1837,227
Раздал: 63,83 TB
Поблагодарили: 106448
100%
Откуда: Владимир
russia.gif
The Prodigy - No Tourists (2018)



Год: 2018
Жанр: Drum & Bass, Big Beat
Продолжительность: 00:37:28
Лейбл: Take Me To The Hospital
Каталог №: 538426291
Тип рипа: tracks
Формат записи: 24/192
Формат раздачи: 24/96
Кодек: FLAC 2.0
Треклист:
A1. Need Some1 (2:43)
A2. Light Up The Sky (3:20)
A3. We Live Forever (3:43)
B1. No Tourists (4:18)
B2. Fight Fire With Fire (Feat. Ho99o9) (3:29)
C1. Timebomb Zone (3:24)
C2. Champions Of London (4:49)
D1. Boom Boom Tap (4:05)
D2. Resonate (3:50)
D3. Give Me A Signal (Feat. Barns Courtney) (4:01)
Источник оцифровки: letemeatpvc
Состояние винила: Mint
Устройство воспроизведения: Technics SL1210GR
Головка звукоснимателя: Hana SL
Предварительный усилитель: Musical Fidelity LX LPS
АЦП: Focusrite Scarlett 2i4 2nd Gen
Программа-оцифровщик: SoX v14.4.2
Обработка: iZotope RX 6 - Click removal
Код: выделить все
Общее
Полное имя                               : D:\The Prodigy - No Tourists [538426291 LP Rip]\01 The Prodigy - Need Some1.flac
Формат                                   : FLAC
Формат/Информация                        : Free Lossless Audio Codec
Размер файла                             : 64,4 Мбайт
Продолжительность                        : 2 м. 42 с.
Режим общего битрейта                    : Переменный
Общий поток                              : 3324 Кбит/сек
Альбом                                   : No Tourists
Альбом/Исполнитель                       : The Prodigy
Трек                                     : Need Some1
Трек/Положение                           : 1
Трек/Всего                               : 10 / 10
Исполнитель                              : The Prodigy
Жанр                                     : Electronic
Дата записи                              : 2018
Программа кодирования                    : X Lossless Decoder 20170729
Обложка                                  : Yes
Тип обложки                              : Cover (front)
MIME-тип обложки                         : image/jpeg
Примечание                               : "https://www.discogs.com/The-Prodigy-No-Tourists/release/12738951" / "Technics SL1210GR --> Hana SL --> Musical Fidelity LX LPS --> Focusrite Scarlett 2i4 2nd Gen --> SoX v14.4.2" / "Originally released on https:// .org/"
iTunes_CDDB_1                            : 94132A0A+116721+10+150+26699+59332+95333+137423+171073+204570+251579+291666+328873

Аудио
Формат                                   : FLAC
Формат/Информация                        : Free Lossless Audio Codec
Продолжительность                        : 2 м. 42 с.
Вид битрейта                             : Переменный
Битрейт                                  : 3322 Кбит/сек
Каналы                                   : 2 канала
Частота                                  : 96,0 КГц
Битовая глубина                          : 24 бит
Размер потока                            : 64,4 Мбайт (100%)
Библиотека кодирования                   : libFLAC 1.3.2 (UTC 2017-01-01)

Общее
Полное имя                               : D:\The Prodigy - No Tourists [538426291 LP Rip]\02 The Prodigy - Light Up The Sky.flac
Формат                                   : FLAC
Формат/Информация                        : Free Lossless Audio Codec
Размер файла                             : 79,6 Мбайт
Продолжительность                        : 3 м. 19 с.
Режим общего битрейта                    : Переменный
Общий поток                              : 3343 Кбит/сек
Альбом                                   : No Tourists
Альбом/Исполнитель                       : The Prodigy
Трек                                     : Light Up The Sky
Трек/Положение                           : 2
Трек/Всего                               : 10 / 10
Исполнитель                              : The Prodigy
Жанр                                     : Electronic
Дата записи                              : 2018
Программа кодирования                    : X Lossless Decoder 20170729
Обложка                                  : Yes
Тип обложки                              : Cover (front)
MIME-тип обложки                         : image/jpeg
Примечание                               : "https://www.discogs.com/The-Prodigy-No-Tourists/release/12738951" / "Technics SL1210GR --> Hana SL --> Musical Fidelity LX LPS --> Focusrite Scarlett 2i4 2nd Gen --> SoX v14.4.2" / "Originally released on https:// .org/"
iTunes_CDDB_1                            : 94132A0A+116721+10+150+26699+59332+95333+137423+171073+204570+251579+291666+328873

Аудио
Формат                                   : FLAC
Формат/Информация                        : Free Lossless Audio Codec
Продолжительность                        : 3 м. 19 с.
Вид битрейта                             : Переменный
Битрейт                                  : 3341 Кбит/сек
Каналы                                   : 2 канала
Частота                                  : 96,0 КГц
Битовая глубина                          : 24 бит
Размер потока                            : 79,6 Мбайт (100%)
Библиотека кодирования                   : libFLAC 1.3.2 (UTC 2017-01-01)

Общее
Полное имя                               : D:\The Prodigy - No Tourists [538426291 LP Rip]\03 The Prodigy - We Live Forever.flac
Формат                                   : FLAC
Формат/Информация                        : Free Lossless Audio Codec
Размер файла                             : 88,2 Мбайт
Продолжительность                        : 3 м. 40 с.
Режим общего битрейта                    : Переменный
Общий поток                              : 3355 Кбит/сек
Альбом                                   : No Tourists
Альбом/Исполнитель                       : The Prodigy
Трек                                     : We Live Forever
Трек/Положение                           : 3
Трек/Всего                               : 10 / 10
Исполнитель                              : The Prodigy
Жанр                                     : Electronic
Дата записи                              : 2018
Программа кодирования                    : X Lossless Decoder 20170729
Обложка                                  : Yes
Тип обложки                              : Cover (front)
MIME-тип обложки                         : image/jpeg
Примечание                               : "https://www.discogs.com/The-Prodigy-No-Tourists/release/12738951" / "Technics SL1210GR --> Hana SL --> Musical Fidelity LX LPS --> Focusrite Scarlett 2i4 2nd Gen --> SoX v14.4.2" / "Originally released on https:// .org/"
iTunes_CDDB_1                            : 94132A0A+116721+10+150+26699+59332+95333+137423+171073+204570+251579+291666+328873

Аудио
Формат                                   : FLAC
Формат/Информация                        : Free Lossless Audio Codec
Продолжительность                        : 3 м. 40 с.
Вид битрейта                             : Переменный
Битрейт                                  : 3354 Кбит/сек
Каналы                                   : 2 канала
Частота                                  : 96,0 КГц
Битовая глубина                          : 24 бит
Размер потока                            : 88,2 Мбайт (100%)
Библиотека кодирования                   : libFLAC 1.3.2 (UTC 2017-01-01)

Общее
Полное имя                               : D:\The Prodigy - No Tourists [538426291 LP Rip]\04 The Prodigy - No Tourists.flac
Формат                                   : FLAC
Формат/Информация                        : Free Lossless Audio Codec
Размер файла                             : 99,7 Мбайт
Продолжительность                        : 4 м. 17 с.
Режим общего битрейта                    : Переменный
Общий поток                              : 3245 Кбит/сек
Альбом                                   : No Tourists
Альбом/Исполнитель                       : The Prodigy
Трек                                     : No Tourists
Трек/Положение                           : 4
Трек/Всего                               : 10 / 10
Исполнитель                              : The Prodigy
Жанр                                     : Electronic
Дата записи                              : 2018
Программа кодирования                    : X Lossless Decoder 20170729
Обложка                                  : Yes
Тип обложки                              : Cover (front)
MIME-тип обложки                         : image/jpeg
Примечание                               : "https://www.discogs.com/The-Prodigy-No-Tourists/release/12738951" / "Technics SL1210GR --> Hana SL --> Musical Fidelity LX LPS --> Focusrite Scarlett 2i4 2nd Gen --> SoX v14.4.2" / "Originally released on https:// .org/"
iTunes_CDDB_1                            : 94132A0A+116721+10+150+26699+59332+95333+137423+171073+204570+251579+291666+328873

Аудио
Формат                                   : FLAC
Формат/Информация                        : Free Lossless Audio Codec
Продолжительность                        : 4 м. 17 с.
Вид битрейта                             : Переменный
Битрейт                                  : 3244 Кбит/сек
Каналы                                   : 2 канала
Частота                                  : 96,0 КГц
Битовая глубина                          : 24 бит
Размер потока                            : 99,7 Мбайт (100%)
Библиотека кодирования                   : libFLAC 1.3.2 (UTC 2017-01-01)

Общее
Полное имя                               : D:\The Prodigy - No Tourists [538426291 LP Rip]\05 The Prodigy - Fight Fire With Fire.flac
Формат                                   : FLAC
Формат/Информация                        : Free Lossless Audio Codec
Размер файла                             : 84,4 Мбайт
Продолжительность                        : 3 м. 26 с.
Режим общего битрейта                    : Переменный
Общий поток                              : 3437 Кбит/сек
Альбом                                   : No Tourists
Альбом/Исполнитель                       : The Prodigy
Трек                                     : Fight Fire With Fire
Трек/Положение                           : 5
Трек/Всего                               : 10 / 10
Исполнитель                              : The Prodigy
Жанр                                     : Electronic
Дата записи                              : 2018
Программа кодирования                    : X Lossless Decoder 20170729
Обложка                                  : Yes
Тип обложки                              : Cover (front)
MIME-тип обложки                         : image/jpeg
Примечание                               : "https://www.discogs.com/The-Prodigy-No-Tourists/release/12738951" / "Technics SL1210GR --> Hana SL --> Musical Fidelity LX LPS --> Focusrite Scarlett 2i4 2nd Gen --> SoX v14.4.2" / "Originally released on https:// .org/"
iTunes_CDDB_1                            : 94132A0A+116721+10+150+26699+59332+95333+137423+171073+204570+251579+291666+328873

Аудио
Формат                                   : FLAC
Формат/Информация                        : Free Lossless Audio Codec
Продолжительность                        : 3 м. 26 с.
Вид битрейта                             : Переменный
Битрейт                                  : 3435 Кбит/сек
Каналы                                   : 2 канала
Частота                                  : 96,0 КГц
Битовая глубина                          : 24 бит
Размер потока                            : 84,4 Мбайт (100%)
Библиотека кодирования                   : libFLAC 1.3.2 (UTC 2017-01-01)

Общее
Полное имя                               : D:\The Prodigy - No Tourists [538426291 LP Rip]\06 The Prodigy - Timebomb Zone.flac
Формат                                   : FLAC
Формат/Информация                        : Free Lossless Audio Codec
Размер файла                             : 81,8 Мбайт
Продолжительность                        : 3 м. 25 с.
Режим общего битрейта                    : Переменный
Общий поток                              : 3344 Кбит/сек
Альбом                                   : No Tourists
Альбом/Исполнитель                       : The Prodigy
Трек                                     : Timebomb Zone
Трек/Положение                           : 6
Трек/Всего                               : 10 / 10
Исполнитель                              : The Prodigy
Жанр                                     : Electronic
Дата записи                              : 2018
Программа кодирования                    : X Lossless Decoder 20170729
Обложка                                  : Yes
Тип обложки                              : Cover (front)
MIME-тип обложки                         : image/jpeg
Примечание                               : "https://www.discogs.com/The-Prodigy-No-Tourists/release/12738951" / "Technics SL1210GR --> Hana SL --> Musical Fidelity LX LPS --> Focusrite Scarlett 2i4 2nd Gen --> SoX v14.4.2" / "Originally released on https:// .org/"
iTunes_CDDB_1                            : 94132A0A+116721+10+150+26699+59332+95333+137423+171073+204570+251579+291666+328873

Аудио
Формат                                   : FLAC
Формат/Информация                        : Free Lossless Audio Codec
Продолжительность                        : 3 м. 25 с.
Вид битрейта                             : Переменный
Битрейт                                  : 3343 Кбит/сек
Каналы                                   : 2 канала
Частота                                  : 96,0 КГц
Битовая глубина                          : 24 бит
Размер потока                            : 81,8 Мбайт (100%)
Библиотека кодирования                   : libFLAC 1.3.2 (UTC 2017-01-01)

Общее
Полное имя                               : D:\The Prodigy - No Tourists [538426291 LP Rip]\07 The Prodigy - Champions Of London.flac
Формат                                   : FLAC
Формат/Информация                        : Free Lossless Audio Codec
Размер файла                             : 117 Мбайт
Продолжительность                        : 4 м. 47 с.
Режим общего битрейта                    : Переменный
Общий поток                              : 3396 Кбит/сек
Альбом                                   : No Tourists
Альбом/Исполнитель                       : The Prodigy
Трек                                     : Champions Of London
Трек/Положение                           : 7
Трек/Всего                               : 10 / 10
Исполнитель                              : The Prodigy
Жанр                                     : Electronic
Дата записи                              : 2018
Программа кодирования                    : X Lossless Decoder 20170729
Обложка                                  : Yes
Тип обложки                              : Cover (front)
MIME-тип обложки                         : image/jpeg
Примечание                               : "https://www.discogs.com/The-Prodigy-No-Tourists/release/12738951" / "Technics SL1210GR --> Hana SL --> Musical Fidelity LX LPS --> Focusrite Scarlett 2i4 2nd Gen --> SoX v14.4.2" / "Originally released on https:// .org/"
iTunes_CDDB_1                            : 94132A0A+116721+10+150+26699+59332+95333+137423+171073+204570+251579+291666+328873

Аудио
Формат                                   : FLAC
Формат/Информация                        : Free Lossless Audio Codec
Продолжительность                        : 4 м. 47 с.
Вид битрейта                             : Переменный
Битрейт                                  : 3395 Кбит/сек
Каналы                                   : 2 канала
Частота                                  : 96,0 КГц
Битовая глубина                          : 24 бит
Размер потока                            : 117 Мбайт (100%)
Библиотека кодирования                   : libFLAC 1.3.2 (UTC 2017-01-01)

Общее
Полное имя                               : D:\The Prodigy - No Tourists [538426291 LP Rip]\08 The Prodigy - Boom Boom Tap.flac
Формат                                   : FLAC
Формат/Информация                        : Free Lossless Audio Codec
Размер файла                             : 96,0 Мбайт
Продолжительность                        : 4 м. 5 с.
Режим общего битрейта                    : Переменный
Общий поток                              : 3280 Кбит/сек
Альбом                                   : No Tourists
Альбом/Исполнитель                       : The Prodigy
Трек                                     : Boom Boom Tap
Трек/Положение                           : 8
Трек/Всего                               : 10 / 10
Исполнитель                              : The Prodigy
Жанр                                     : Electronic
Дата записи                              : 2018
Программа кодирования                    : X Lossless Decoder 20170729
Обложка                                  : Yes
Тип обложки                              : Cover (front)
MIME-тип обложки                         : image/jpeg
Примечание                               : "https://www.discogs.com/The-Prodigy-No-Tourists/release/12738951" / "Technics SL1210GR --> Hana SL --> Musical Fidelity LX LPS --> Focusrite Scarlett 2i4 2nd Gen --> SoX v14.4.2" / "Originally released on https:// .org/"
iTunes_CDDB_1                            : 94132A0A+116721+10+150+26699+59332+95333+137423+171073+204570+251579+291666+328873

Аудио
Формат                                   : FLAC
Формат/Информация                        : Free Lossless Audio Codec
Продолжительность                        : 4 м. 5 с.
Вид битрейта                             : Переменный
Битрейт                                  : 3278 Кбит/сек
Каналы                                   : 2 канала
Частота                                  : 96,0 КГц
Битовая глубина                          : 24 бит
Размер потока                            : 96,0 Мбайт (100%)
Библиотека кодирования                   : libFLAC 1.3.2 (UTC 2017-01-01)

Общее
Полное имя                               : D:\The Prodigy - No Tourists [538426291 LP Rip]\09 The Prodigy - Resonate.flac
Формат                                   : FLAC
Формат/Информация                        : Free Lossless Audio Codec
Размер файла                             : 88,9 Мбайт
Продолжительность                        : 3 м. 47 с.
Режим общего битрейта                    : Переменный
Общий поток                              : 3272 Кбит/сек
Альбом                                   : No Tourists
Альбом/Исполнитель                       : The Prodigy
Трек                                     : Resonate
Трек/Положение                           : 9
Трек/Всего                               : 10 / 10
Исполнитель                              : The Prodigy
Жанр                                     : Electronic
Дата записи                              : 2018
Программа кодирования                    : X Lossless Decoder 20170729
Обложка                                  : Yes
Тип обложки                              : Cover (front)
MIME-тип обложки                         : image/jpeg
Примечание                               : "https://www.discogs.com/The-Prodigy-No-Tourists/release/12738951" / "Technics SL1210GR --> Hana SL --> Musical Fidelity LX LPS --> Focusrite Scarlett 2i4 2nd Gen --> SoX v14.4.2" / "Originally released on https:// .org/"
iTunes_CDDB_1                            : 94132A0A+116721+10+150+26699+59332+95333+137423+171073+204570+251579+291666+328873

Аудио
Формат                                   : FLAC
Формат/Информация                        : Free Lossless Audio Codec
Продолжительность                        : 3 м. 47 с.
Вид битрейта                             : Переменный
Битрейт                                  : 3270 Кбит/сек
Каналы                                   : 2 канала
Частота                                  : 96,0 КГц
Битовая глубина                          : 24 бит
Размер потока                            : 88,8 Мбайт (100%)
Библиотека кодирования                   : libFLAC 1.3.2 (UTC 2017-01-01)

Общее
Полное имя                               : D:\The Prodigy - No Tourists [538426291 LP Rip]\10 The Prodigy - Give Me A Signal.flac
Формат                                   : FLAC
Формат/Информация                        : Free Lossless Audio Codec
Размер файла                             : 91,2 Мбайт
Продолжительность                        : 4 м. 0 с.
Режим общего битрейта                    : Переменный
Общий поток                              : 3179 Кбит/сек
Альбом                                   : No Tourists
Альбом/Исполнитель                       : The Prodigy
Трек                                     : Give Me A Signal
Трек/Положение                           : 10
Трек/Всего                               : 10 / 10
Исполнитель                              : The Prodigy
Жанр                                     : Electronic
Дата записи                              : 2018
Программа кодирования                    : X Lossless Decoder 20170729
Обложка                                  : Yes
Тип обложки                              : Cover (front)
MIME-тип обложки                         : image/jpeg
Примечание                               : "https://www.discogs.com/The-Prodigy-No-Tourists/release/12738951" / "Technics SL1210GR --> Hana SL --> Musical Fidelity LX LPS --> Focusrite Scarlett 2i4 2nd Gen --> SoX v14.4.2" / "Originally released on https:// .org/"
iTunes_CDDB_1                            : 94132A0A+116721+10+150+26699+59332+95333+137423+171073+204570+251579+291666+328873

Аудио
Формат                                   : FLAC
Формат/Информация                        : Free Lossless Audio Codec
Продолжительность                        : 4 м. 0 с.
Вид битрейта                             : Переменный
Битрейт                                  : 3178 Кбит/сек
Каналы                                   : 2 канала
Частота                                  : 96,0 КГц
Битовая глубина                          : 24 бит
Размер потока                            : 91,1 Мбайт (100%)
Библиотека кодирования                   : libFLAC 1.3.2 (UTC 2017-01-01)


Время раздачи: 24/7
[NNMClub.to]_The Prodigy - No Tourists [538426291 LP Rip].torrent
 Торрент: Золотая раздача  Зарегистрирован
 
Зарегистрируйтесь и скачайте торрент!
18,2 KB

Примагнититься
 Зарегистрирован:   27 Сен 2019 20:55:25
 Размер:   891 MB  (
 Рейтинг:   5 (Голосов: 13)
 Поблагодарили:   78
 Проверка:   Оформление проверено модератором 27 Сен 2019 23:05:23
Как cкачать  ·  Как раздать  ·  Правильно оформить  ·  Поднять ратио!  
Загрузка...
Wirol
Стаж: 6 лет 7 мес.
Сообщений: 140
Ratio: 12,447
Поблагодарили: 1655
100%
russia.gif
Благодарю за винил :клево: Надеюсь Хоулет не прикроет Prodigy со смертью Кита Флинта.
34rur
Стаж: 8 лет 6 мес.
Сообщений: 190
Ratio: 5,684
100%
ussr.gif
Какой смысл делать рипы с винила изначально цифровой музыки?
Lazyra ®
RG Music
Модератор музыки Electronic
 
Стаж: 8 лет 7 мес.
Сообщений: 4839
Ratio: 1837,227
Раздал: 63,83 TB
Поблагодарили: 106448
100%
Откуда: Владимир
russia.gif
34rur
С точки зрения банальной эрудиции, не всякий локально селектированный индивидуум способен игнорировать тенденции потенциальных эмоций и паритетно аллоцировать амбивалентные кванты логистики, экстрагируемой с учетом антропоморфности эвристического генезиса.

_________________
Нет раздачи , пиши ЛС
Показать сообщения:   
Начать новую тему   Ответить на тему    Торрент-трекер NNM-Club -> HD Audio и Многоканальная Музыка -> Vinyl-Rip и Hand-Made Часовой пояс: GMT + 3
Страница 1 из 1