Классический форум-трекер
canvas not supported
Нас вместе: 4 079 307

Бог смерти / Matar a Dios (2017) BDRip [720p] ATV (MVO) [PR]


 
 
RSS
Начать новую тему   Ответить на тему    Торрент-трекер NNM-Club -> Аудио и Видео -> Зарубежное видео HD для устройств Apple
Автор Сообщение
Весельчак У ®
Модератор Apple
Стаж: 5 лет 10 мес.
Сообщений: 3418
Ratio: 147,79
Поблагодарили: 112322
100%
Откуда: От Москвы недалеко...
ussr.gif
Бог смерти / Matar a Dios (2017) BDRip [720p] ATV
Производство: Испания, Франция / Alhena Production, New Morning Films
Жанр: Комедия, Ужасы
Режиссер: Caye Casas, Albert Pintó
Продюсер: Норберт Лларас, Ициар Кастро, Andreu Comerma,

Актеры: Эдуардо Антунья, Ициар Кастро, Эмилио Гавира, Франсеск Орелья, Дэвид Парейа, Борис Руис, Анна Марти Касас, Бруна Сала, Макарена Гомес, Бернардо Гульельметти.

Описание:
В канун Нового года супруги Ана и Карлос выясняют отношения — босс Аны прислал ей смс, которое не даёт супругу покоя. Вечером на ужин приезжают брат и отец Карлоса, а после ужина в доме обнаруживается бомжеватого вида карлик, который заявляет, что он является Богом, и человечество к утру прекратит своё существование. Но собравшейся компании выпадает редкий шанс — они могут выбрать двух человек, которые останутся жить на земле.



Продолжительность: 01:29:02
Качество видео: BDRip 720p
Перевод: Любительский многоголосый (datynet, Кирилл Адылшин, Galina Vasyukova) ненормативная лексика
Субтитры: Отсутствуют

Видео: H.264, 1280x536 (2.40:1), ~2800 kbps, 25.000 fps
Аудио#1: AAC, 2.0 ch, 160 Kbps - Русский MVO

Общее
Полное имя : /Volumes/HDD/Movies/NNMC/Matar.a.Dios.2017.BDRip.720p.m4v
Формат : MPEG-4
Идентификатор кодека : M4V (M4V /M4A /mp42/isom)
Размер файла : 1,84 Гбайт
Продолжительность : 1 ч. 29 м.
Режим общего битрейта : Переменный
Общий поток : 2961 Кбит/сек
Название фильма : To Kill God
Исполнитель : Caye Casas, Albert Pintó
Режиссёр : Caye Casas / Albert Pintó
Исполнитель : Francesc Orella / Itziar Castro / Eduardo Antuña / Emilio Gavira / Boris Ruiz / David Pareja
Сценарист : Albert Pintó / Caye Casas
Жанр : комедия, ужасы
Тип содержимого : Short Film
Дата записи : UTC 2017-10-11 00:00:00
Дата кодирования : UTC 2019-09-28 06:15:57
Дата пометки : UTC 2019-09-28 06:17:22
Обложка : Yes
HDVideo : Yes

Видео
Идентификатор : 1
Формат : AVC
Формат/Информация : Advanced Video Codec
Профиль формата : High@L4.1
Настройки формата : CABAC / 2 Ref Frames
Параметр CABAC формата : Да
Параметр ReFrames формата : 2 кадра
Идентификатор кодека : avc1
Идентификатор кодека/Информация : Advanced Video Coding
Продолжительность : 1 ч. 29 м.
Битрейт : 2800 Кбит/сек
Ширина : 1280 пикселей
Высота : 536 пикселей
Соотношение сторон : 2,40:1
Режим частоты кадров : Постоянный
Частота кадров : 25,000 кадров/сек
Цветовое пространство : YUV
Субдискретизация насыщенности : 4:2:0
Битовая глубина : 8 бит
Тип развёртки : Прогрессивная
Бит/(Пиксели*Кадры) : 0.163
Размер потока : 1,74 Гбайт (95%)
Библиотека кодирования : x264 core 142
Настройки программы : cabac=1 / ref=1 / deblock=1:-1:-1 / analyse=0x3:0 / me=hex / subme=5 / psy=0 / mixed_ref=0 / me_range=16 / chroma_me=1 / trellis=0 / 8x8dct=1 / cqm=0 / deadzone=21,11 / fast_pskip=0 / chroma_qp_offset=0 / threads=8 / lookahead_threads=2 / sliced_threads=0 / nr=0 / decimate=1 / interlaced=0 / bluray_compat=0 / constrained_intra=0 / bframes=2 / b_pyramid=0 / b_adapt=1 / b_bias=0 / direct=1 / weightb=0 / open_gop=0 / weightp=0 / keyint=24 / keyint_min=13 / scenecut=40 / intra_refresh=0 / rc=2pass / mbtree=0 / bitrate=2800 / ratetol=1.0 / qcomp=0.60 / qpmin=0 / qpmax=69 / qpstep=4 / cplxblur=20.0 / qblur=0.5 / ip_ratio=1.40 / pb_ratio=1.30 / aq=1:1.00
Язык : Spanish
Дата кодирования : UTC 2019-09-28 06:15:57
Дата пометки : UTC 2019-09-28 06:17:22
Цветовой диапазон : Limited
Основные цвета : BT.709
Характеристики трансфера : BT.709
Коэффициенты матрицы : BT.709
Codec configuration box : avcC

Аудио
Идентификатор : 2
Формат : AAC LC
Формат/Информация : Advanced Audio Codec Low Complexity
Идентификатор кодека : mp4a-40-2
Продолжительность : 1 ч. 29 м.
Вид битрейта : Переменный
Битрейт : 156 Кбит/сек
Максимальный битрейт : 200 Кбит/сек
Каналы : 2 канала
Channel layout : L R
Частота : 48,0 КГц
Частота кадров : 46,875 кадров/сек (1024 SPF)
Метод сжатия : С потерями
Размер потока : 99,1 Мбайт (5%)
Язык : Russian
Default : Да
Alternate group : 1
Дата кодирования : UTC 2019-09-28 06:15:57
Дата пометки : UTC 2019-09-28 06:17:22
tagc : public.main-program-content


Name: To Kill God
Artist: Caye Casas, Albert Pintó
Media Kind: Movie
HD Video: 720p
Genre: комедия, ужасы
Release Date: 2017-10-11T00:00:00Z
Cast: Francesc Orella, Itziar Castro, Eduardo Antuña, Emilio Gavira, Boris Ruiz, David Pareja
Director: Caye Casas, Albert Pintó
Screenwriters: Albert Pintó, Caye Casas

Скриншоты:


Все одноименные релизы в Клубе
Время раздачи: 24/7 (до появления первых 3-5 скачавших)

Релиз подготовлен для просмотра на Apple TV, iPad, iPhone, iPod Touch.
Для просмотра данного релиза на компьютере с ОС Windows рекомендуется использовать VLC media player
[NNMClub.to]_Matar.a.Dios.2017.BDRip.720p.m4v.torrent
 Торрент:   Зарегистрирован
 
Зарегистрируйтесь и скачайте торрент!
37 KB

Примагнититься
 Зарегистрирован:   28 Сен 2019 09:40:20
 Размер:   1,84 GB  (
 Рейтинг:   5 (Голосов: 13)
 Поблагодарили:   90
 Проверка:   Оформление проверено модератором 28 Сен 2019 18:43:40
Как cкачать  ·  Как раздать  ·  Правильно оформить  ·  Поднять ратио!  

_________________
«Всё против нас, только ветер навстречу…».
🍏Apple iMac 21.5 (mid 2011) / Intel Core i5 2.7 GHz / AMD Radeon HD 6770M 512 Mb / 12GB DDR3 / Apple Trackpad, Apple Keyboard / macOS High Sierra 10.13.6 (17G8030)
PrimusAsus
Стаж: 3 года 3 мес.
Сообщений: 674
Ratio: 8,694
100%
Бог смерти это время - Кронос; мы дети своего времени, а время ест своих детей.
карпуха007
Стаж: 3 года 11 мес.
Сообщений: 68
Ratio: 3,094
100%
Откуда: АР Крым
russia.gif
А как сам фильм?

_________________
Если так,то ни как по другому!
Показать сообщения:   
Начать новую тему   Ответить на тему    Торрент-трекер NNM-Club -> Аудио и Видео -> Зарубежное видео HD для устройств Apple Часовой пояс: GMT + 3
Страница 1 из 1