Классический форум-трекер
canvas not supported
Нас вместе: 4 078 909

Пальцы веером / Two Hands (1999) ВDRip [1080р] ATV (DVO)


 
 
RSS
Начать новую тему   Ответить на тему    Торрент-трекер NNM-Club -> Аудио и Видео -> Зарубежное видео HD для устройств Apple
Автор Сообщение
Весельчак У ®
Модератор Apple

Online
Стаж: 5 лет 10 мес.
Сообщений: 3299
Ratio: 147,663
Поблагодарили: 108770
100%
Откуда: От Москвы недалеко...
ussr.gif
Пальцы веером / Two Hands (1999) ВDRip [1080р] ATV«It was only one mistake, but it was a big one»
Производство: Австралия / CML Films, Meridian Films
Жанр: Триллер, Комедия, Криминал

Режиссер: Грегор Джордан
Продюсер: Мэриэн МакГовэн, Брайс Мензес, Марк Тернбулл
Актеры: Хит Леджер, Брайан Браун, Роуз Бирн, Дэвид Филд, Том Лонг, Тони Форроу, Стивен Видлер, Дэйл Кальнинш, Уильям Друри, Кири Парамор

Описание:
В жизни 19-летнего Джимми, уличного хулигана, работающего зазывалой в стриптиз-клубе, в один день произошло два важных события: он встретил девушку своей мечты и попал в высшую лигу большой преступности.
Главарь местной банды наркоторговцев Пандо попросил Джимми выполнить несложное задание: поработать курьером, доставив 10 тысяч долларов. Но судьба наносит Джимми жестокий удар: двое малолетних воришек крадут у него деньги мафии. И теперь, чтобы не получить пулю в голову, Джимми придется принять участие в ограблении банка.


Возраст: 18+ (зрителям, достигшим 18 лет. запрещено для детей)
Рейтинг MPAA: R (лицам до 17 лет обязательно присутствие взрослого)

Продолжительность: 01:29:34
Качество видео: BDRip 1080р
Перевод: Профессиональный двухголосый (Lizard Cinema)
Субтитры: Русские, английские, испанские, португальские, голландские

Видео: H.264, 1920x1080 (16:9), ~10,5 Mbps, 25.000 fps
Аудио#1: AAC, 2.0 ch, 197 Kbps - Русский DVO, Lizard Cinema
Аудио#2: AAC, 2.0 ch, 197 Kbps - English, Original
Аудио#3: AC3, 6.0 ch, 448 Kbps - Русский DVO, Lizard Cinema
Аудио#4: AC3, 6.0 ch, 448 Kbps - English, Original

Общее
Полное имя : /Volumes/HDD/Movies/NNMC/Two.Hands.1999.BDRip.1080p.m4v
Формат : MPEG-4
Идентификатор кодека : M4V (M4V /M4A /mp42/isom)
Размер файла : 7,41 Гбайт
Продолжительность : 1 ч. 29 м.
Режим общего битрейта : Переменный
Общий поток : 11,8 Мбит/сек
Название фильма : Пальцы веером
Исполнитель : Gregor Jordan
Композитор : Cezary Skubiszewski
Режиссёр : Gregor Jordan
Исполнитель : Heath Ledger / Bryan Brown / Rose Byrne / David Field / Tom Long / Tony Forrow / Steven Vidler / Dale Kalnins / Kiri Paramore / William Drury / David Moeaki / Mathew Wilkinson / Mary Acres / Evan Sheaves / Jarrah Darling / Jai Kemp
Сценарист : Gregor Jordan
Продюсер : Marian Macgowan
Исполнительный продюсер : Timothy White, Bryce Menzies, Mark Turnbull
Студия-производитель : Meridian Films, CML Films
Жанр : комедия, криминал, триллер
Тип содержимого : Short Film
Описание : В жизни 19-летнего Джимми, уличного хулигана, работающего зазывалой в стриптиз-клубе, в один день произошло два важных события: он встретил девушку своей мечты и попал в высшую лигу большой преступности. Главарь местной банды наркоторговцев Пандо…
Дата записи : UTC 1999-07-29 00:00:00
Дата кодирования : UTC 2019-09-28 16:22:00
Дата пометки : UTC 2019-09-28 16:25:30
Обложка : Yes
LongDescription : В жизни 19-летнего Джимми, уличного хулигана, работающего зазывалой в стриптиз-клубе, в один день произошло два важных события: он встретил девушку своей мечты и попал в высшую лигу большой преступности. Главарь местной банды наркоторговцев Пандо попросил Джимми выполнить несложное задание: поработать курьером, доставив 10 тысяч долларов. Но судьба наносит Джимми жестокий удар: двое малолетних воришек крадут у него деньги мафии. И теперь, чтобы не получить пулю в голову, Джимми придется принять участие в ограблении банка.
ContentRating : mpaa|R|400|

Видео #1
Идентификатор : 1
Формат : AVC
Формат/Информация : Advanced Video Codec
Профиль формата : High@L4.1
Настройки формата : CABAC / 5 Ref Frames
Параметр CABAC формата : Да
Параметр ReFrames формата : 5 кадров
Идентификатор кодека : avc1
Идентификатор кодека/Информация : Advanced Video Coding
Продолжительность : 1 ч. 29 м.
Битрейт : 10,5 Мбит/сек
Ширина : 1920 пикселей
Высота : 1080 пикселей
Соотношение сторон : 16:9
Режим частоты кадров : Постоянный
Частота кадров : 25,000 кадров/сек
Цветовое пространство : YUV
Субдискретизация насыщенности : 4:2:0
Битовая глубина : 8 бит
Тип развёртки : Прогрессивная
Бит/(Пиксели*Кадры) : 0.203
Размер потока : 6,59 Гбайт (89%)
Библиотека кодирования : x264 core 130 r2273 b3065e6
Настройки программы : cabac=1 / ref=5 / deblock=1:-3:-3 / analyse=0x3:0x133 / me=umh / subme=11 / psy=1 / psy_rd=1.00:0.10 / mixed_ref=1 / me_range=32 / chroma_me=1 / trellis=2 / 8x8dct=1 / cqm=0 / deadzone=21,11 / fast_pskip=1 / chroma_qp_offset=-3 / threads=6 / lookahead_threads=1 / sliced_threads=0 / nr=0 / decimate=1 / interlaced=0 / bluray_compat=0 / constrained_intra=0 / bframes=8 / b_pyramid=2 / b_adapt=2 / b_bias=0 / direct=3 / weightb=1 / open_gop=0 / weightp=2 / keyint=250 / keyint_min=25 / scenecut=40 / intra_refresh=0 / rc_lookahead=60 / rc=2pass / mbtree=1 / bitrate=10547 / ratetol=1.0 / qcomp=0.60 / qpmin=0 / qpmax=69 / qpstep=4 / cplxblur=20.0 / qblur=0.5 / ip_ratio=1.40 / aq=1:1.00
Язык : English
Дата кодирования : UTC 2019-09-28 16:22:00
Дата пометки : UTC 2019-09-28 16:25:15
Menus : 11,12
Codec configuration box : avcC

Видео #2
Идентификатор : 12
Формат : JPEG
Идентификатор кодека : jpeg
Продолжительность : 1 ч. 29 м.
Вид битрейта : Переменный
Битрейт : 824 бит/сек
Ширина : 640 пикселей
Высота : 360 пикселей
Соотношение сторон : 16:9
Режим частоты кадров : Переменный
Частота кадров : 0,002 кадр/сек
Минимальная частота кадров : 0,001 кадр/сек
Максимальная частота кадров : 0,005 кадр/сек
Цветовое пространство : YUV
Субдискретизация насыщенности : 4:2:0
Битовая глубина : 8 бит
Метод сжатия : С потерями
Бит/(Пиксели*Кадры) : 1.788
Размер потока : 553 Кбайт (0%)
Язык : English
Default : Нет
Дата кодирования : UTC 2019-09-28 16:25:30
Дата пометки : UTC 2019-09-28 16:25:30
Menu For : 1
ColorSpace_ICC : RGB

Аудио #1
Идентификатор : 2
Формат : AAC LC
Формат/Информация : Advanced Audio Codec Low Complexity
Идентификатор кодека : mp4a-40-2
Продолжительность : 1 ч. 29 м.
Вид битрейта : Переменный
Битрейт : 197 Кбит/сек
Максимальный битрейт : 286 Кбит/сек
Каналы : 2 канала
Channel layout : L R
Частота : 48,0 КГц
Частота кадров : 46,875 кадров/сек (1024 SPF)
Метод сжатия : С потерями
Размер потока : 126 Мбайт (2%)
Язык : Russian
Default : Да
Alternate group : 1
Дата кодирования : UTC 2019-09-28 16:22:00
Дата пометки : UTC 2019-09-28 16:25:15
Fallback From : 4
tagc : public.main-program-content

Аудио #2
Идентификатор : 3
Формат : AAC LC
Формат/Информация : Advanced Audio Codec Low Complexity
Идентификатор кодека : mp4a-40-2
Продолжительность : 1 ч. 29 м.
Вид битрейта : Переменный
Битрейт : 197 Кбит/сек
Максимальный битрейт : 287 Кбит/сек
Каналы : 2 канала
Channel layout : L R
Частота : 48,0 КГц
Частота кадров : 46,875 кадров/сек (1024 SPF)
Метод сжатия : С потерями
Размер потока : 126 Мбайт (2%)
Язык : English
Default : Нет
Alternate group : 1
Дата кодирования : UTC 2019-09-28 16:22:00
Дата пометки : UTC 2019-09-28 16:25:15
Fallback From : 5
tagc : public.main-program-content

Аудио #3
Идентификатор : 4
Формат : AC-3
Формат/Информация : Audio Coding 3
Коммерческое название : Dolby Digital
Идентификатор кодека : ac-3
Продолжительность : 1 ч. 29 м.
Вид битрейта : Постоянный
Битрейт : 448 Кбит/сек
Каналы : 6 каналов
Channel layout : L R C LFE Ls Rs
Частота : 48,0 КГц
Частота кадров : 31,250 кадров/сек (1536 SPF)
Битовая глубина : 16 бит
Метод сжатия : С потерями
Размер потока : 287 Мбайт (4%)
Язык : Russian
Service kind : Complete Main
Default : Inherited From: 2
Alternate group : 1
Дата кодирования : UTC 2019-09-28 16:22:00
Дата пометки : UTC 2019-09-28 16:25:15
Fallback To : 2
tagc : public.main-program-content

Аудио #4
Идентификатор : 5
Формат : AC-3
Формат/Информация : Audio Coding 3
Коммерческое название : Dolby Digital
Идентификатор кодека : ac-3
Продолжительность : 1 ч. 29 м.
Вид битрейта : Постоянный
Битрейт : 448 Кбит/сек
Каналы : 6 каналов
Channel layout : L R C LFE Ls Rs
Частота : 48,0 КГц
Частота кадров : 31,250 кадров/сек (1536 SPF)
Битовая глубина : 16 бит
Метод сжатия : С потерями
Размер потока : 287 Мбайт (4%)
Язык : English
Service kind : Complete Main
Default : Нет
Alternate group : 1
Дата кодирования : UTC 2019-09-28 16:22:00
Дата пометки : UTC 2019-09-28 16:25:15
Fallback To : 3
tagc : public.main-program-content

Текст #1
Идентификатор : 6
Формат : Timed Text
Режим смешивания : sbtl
Идентификатор кодека : tx3g
Продолжительность : 1 ч. 26 м.
Вид битрейта : Переменный
Битрейт : 58 бит/сек
Размер потока : 36,4 Кбайт (0%)
Язык : Russian
Default : Да
Forced : Нет
Alternate group : 2
Дата кодирования : UTC 2019-09-28 16:22:00
Дата пометки : UTC 2019-09-28 16:25:15
tagc : public.main-program-content

Текст #2
Идентификатор : 7
Формат : Timed Text
Режим смешивания : sbtl
Идентификатор кодека : tx3g
Продолжительность : 1 ч. 28 м.
Вид битрейта : Переменный
Битрейт : 64 бит/сек
Размер потока : 41,7 Кбайт (0%)
Язык : English
Default : Нет
Forced : Нет
Alternate group : 2
Дата кодирования : UTC 2019-09-28 16:22:00
Дата пометки : UTC 2019-09-28 16:25:15
tagc : public.main-program-content

Текст #3
Идентификатор : 8
Формат : Timed Text
Режим смешивания : sbtl
Идентификатор кодека : tx3g
Продолжительность : 1 ч. 26 м.
Вид битрейта : Переменный
Битрейт : 51 бит/сек
Размер потока : 32,3 Кбайт (0%)
Язык : Spanish
Default : Нет
Forced : Нет
Alternate group : 2
Дата кодирования : UTC 2019-09-28 16:22:00
Дата пометки : UTC 2019-09-28 16:25:15
tagc : public.main-program-content

Текст #4
Идентификатор : 9
Формат : Timed Text
Режим смешивания : sbtl
Идентификатор кодека : tx3g
Продолжительность : 1 ч. 26 м.
Вид битрейта : Переменный
Битрейт : 46 бит/сек
Размер потока : 29,0 Кбайт (0%)
Язык : Portuguese
Default : Нет
Forced : Нет
Alternate group : 2
Дата кодирования : UTC 2019-09-28 16:22:00
Дата пометки : UTC 2019-09-28 16:25:15
tagc : public.main-program-content

Текст #5
Идентификатор : 10
Формат : Timed Text
Режим смешивания : sbtl
Идентификатор кодека : tx3g
Продолжительность : 1 ч. 26 м.
Вид битрейта : Переменный
Битрейт : 36 бит/сек
Размер потока : 22,6 Кбайт (0%)
Язык : Dutch
Default : Нет
Forced : Нет
Alternate group : 2
Дата кодирования : UTC 2019-09-28 16:22:00
Дата пометки : UTC 2019-09-28 16:25:15
tagc : public.main-program-content

Меню
Идентификатор : 11
Идентификатор кодека : text
Продолжительность : 1 ч. 29 м.
Язык : English
Дата кодирования : UTC 2019-09-28 16:25:16
Дата пометки : UTC 2019-09-28 16:25:16
Menu For : 1
00:00:00.000 : Meeting Alex
00:13:34.120 : Playing Scrabble
00:22:27.680 : Decisions
00:28:41.080 : The Chase Begins
00:33:06.360 : The Accident
00:46:43.520 : Star Hotel
00:58:07.360 : Filthy Gun
01:06:12.199 : On Your Own
01:09:36.440 : The Bank Job
01:22:15.880 : Revenge
01:26:18.080 : End Credits


Name: Пальцы веером
Artist: Gregor Jordan
Media Kind: Movie
HD Video: 1080p
Genre: комедия, криминал, триллер
Release Date: 1999-07-29T00:00:00Z
Description: В жизни 19-летнего Джимми, уличного хулигана, работающего зазывалой в стриптиз-клубе, в один день произошло два важных события: он встретил девушку своей мечты и попал в высшую лигу большой преступности. Главарь местной банды наркоторговцев Пандо…
Long Description: В жизни 19-летнего Джимми, уличного хулигана, работающего зазывалой в стриптиз-клубе, в один день произошло два важных события: он встретил девушку своей мечты и попал в высшую лигу большой преступности. Главарь местной банды наркоторговцев Пандо попросил Джимми выполнить несложное задание: поработать курьером, доставив 10 тысяч долларов. Но судьба наносит Джимми жестокий удар: двое малолетних воришек крадут у него деньги мафии. И теперь, чтобы не получить пулю в голову, Джимми придется принять участие в ограблении банка.
Rating: mpaa|R|400|
Studio: Meridian Films, CML Films
Cast: Heath Ledger, Bryan Brown, Rose Byrne, David Field, Tom Long, Tony Forrow, Steven Vidler, Dale Kalnins, Kiri Paramore, William Drury, David Moeaki, Mathew Wilkinson, Mary Acres, Evan Sheaves, Jarrah Darling, Jai Kemp
Director: Gregor Jordan
Producers: Marian Macgowan
Executive Producer: Timothy White, Bryce Menzies, Mark Turnbull
Screenwriters: Gregor Jordan
Composer: Cezary Skubiszewski

Скриншоты:


Все одноименные релизы в Клубе
Время раздачи: 24/7 (до появления первых 3-5 скачавших)

Релиз подготовлен для просмотра на Apple TV, iPad, iPhone, iPod Touch.
Для просмотра данного релиза на компьютере с ОС Windows рекомендуется использовать VLC media player
[NNMClub.to]_Two.Hands.1999.BDRip.1080p.m4v.torrent
 Торрент: Золотая раздача  Зарегистрирован
 
Зарегистрируйтесь и скачайте торрент!
74,3 KB

Примагнититься
 Зарегистрирован:   28 Сен 2019 19:44:52
 Размер:   7,41 GB  (
 Рейтинг:    (Голосов: 7)
 Поблагодарили:   40
 Проверка:   Оформление проверено модератором 29 Сен 2019 16:21:07
Как cкачать  ·  Как раздать  ·  Правильно оформить  ·  Поднять ратио!  

_________________
«Всё против нас, только ветер навстречу…».
🍏Apple iMac 21.5 (mid 2011) / Intel Core i5 2.7 GHz / AMD Radeon HD 6770M 512 Mb / 12GB DDR3 / Apple Trackpad, Apple Keyboard / macOS High Sierra 10.13.6 (17G8030)
Загрузка...
Yuridar
 
Стаж: 4 года 9 мес.
Сообщений: 382
Ratio: 8,45
Раздал: 2,434 TB
Поблагодарили: 2942
100%
iran.gif
Совпадение? Только скачал Пальцы веером / Two Hands в mkv, но перекачаю в ATV - ведь при одинаковом или меньшем размере качество ATV обычно лучше.

_________________
Я против несправедливого, безумного мира. Но я его пленник. Если я начну навязывать всем мой образ жизни, меня точно убьют. Но не лишайте меня свободы выражать мои мысли.
(Хосе Мухика)
Показать сообщения:   
Начать новую тему   Ответить на тему    Торрент-трекер NNM-Club -> Аудио и Видео -> Зарубежное видео HD для устройств Apple Часовой пояс: GMT + 3
Страница 1 из 1