Классический форум-трекер
canvas not supported
Нас вместе: 4 078 911

Первая передача на НТВ. Автомобильная передача (29.09.2019) SATRip


 
 
RSS
Начать новую тему   Ответить на тему    Торрент-трекер NNM-Club -> Документалистика и Телепередачи -> За рулем
Автор Сообщение
Катюша ®
Мне бы в небо!
Стаж: 7 лет 6 мес.
Сообщений: 355
Ratio: 182,317
Поблагодарили: 32567
100%
witch.png
Первая передача на НТВ. Автомобильная передача (29.09.2019) SATRip

Телекомпания: НТВ
Жанр: Автопередача

Ведущий: Алексей Куличков

Описание:
Выплаты по ОСАГО и бандитская «стрелка» на заправке.
«Первая передача» — это познавательный проект про автомобилистов и для автомобилистов — для тех, что хочет из простого автолюбителя стать автопрофессионалом!

Релиз от: -=FOX=-
Продолжительность: 00:25:25
Качество видео: SATRip

Видео: MPEG4, XviD, 720x448 ~1 800 Kbps
Аудио: MP3, 48.0 KHz, 2 ch, 128 Kbps

Общее
Полное имя : Первая передача.(2019.09.29).SATRip.avi
Формат : AVI
Формат/Информация : Audio Video Interleave
Размер файла : 352 Мбайт
Продолжительность : 25 м. 25 с.
Общий поток : 1935 Кбит/сек
Программа кодирования : VirtualDubMod 1.5.10.3 | www.virtualdub-fr.org || (build 2550/release)
Библиотека кодирования : VirtualDubMod build 2550/release

Видео
Идентификатор : 0
Формат : MPEG-4 Visual
Профиль формата : Advanced Simple@L5
Настройки формата : BVOP2
Параметр BVOP формата : 2
Параметр QPel формата : Нет
Параметр GMC формата : Без точки перехода
Параметр матрицы формата : Default (H.263)
Идентификатор кодека : XVID
Идентификатор кодека/Подсказка : XviD
Продолжительность : 25 м. 25 с.
Битрейт : 1797 Кбит/сек
Ширина : 720 пикселей
Высота : 448 пикселей
Соотношение сторон : 16:10
Частота кадров : 25,000 кадров/сек
Цветовое пространство : YUV
Субдискретизация насыщенности : 4:2:0
Битовая глубина : 8 бит
Тип развёртки : Прогрессивная
Метод сжатия : С потерями
Бит/(Пиксели*Кадры) : 0.223
Размер потока : 327 Мбайт (93%)
Библиотека кодирования : XviD 1.2.1 (UTC 2008-12-04)

Аудио
Идентификатор : 1
Формат : MPEG Audio
Версия формата : Version 1
Профиль формата : Layer 3
Идентификатор кодека : 55
Идентификатор кодека/Подсказка : MP3
Продолжительность : 25 м. 25 с.
Вид битрейта : Постоянный
Битрейт : 128 Кбит/сек
Каналы : 2 канала
Частота : 48,0 КГц
Частота кадров : 41,667 кадра/сек (1152 SPF)
Метод сжатия : С потерями
Размер потока : 23,3 Мбайт (7%)
Выравнивание : Соединение по промежуткам
Продолжительность промежутка : 40 мс. (1,00 видеокадр)
Время предзагрузки промежутка : 504 мс.
Библиотека кодирования : LAME3.99r
Настройки программы : -m s -V 4 -q 2 -lowpass 17 -b 128

Скриншоты:


Все одноименные релизы в Клубе
Время раздачи: 24/7. До первых 5 скачавших.
[NNMClub.to]_Pervaya peredacha.(2019.09.29).SATRip.avi.torrent
 Торрент:   Зарегистрирован
 
Зарегистрируйтесь и скачайте торрент!
14,1 KB

Примагнититься
 Зарегистрирован:   29 Сен 2019 07:13:19
 Размер:   352 MB  (
 Рейтинг:   5 (Голосов: 10)
 Поблагодарили:   63
 Проверка:   Оформление проверено модератором 29 Сен 2019 08:03:53
Как cкачать  ·  Как раздать  ·  Правильно оформить  ·  Поднять ратио!  

_________________
С годами старые фильмы становятся все лучше, а новые - все хуже.
Загрузка...
Показать сообщения:   
Начать новую тему   Ответить на тему    Торрент-трекер NNM-Club -> Документалистика и Телепередачи -> За рулем Часовой пояс: GMT + 3
Страница 1 из 1