Классический форум-трекер
canvas not supported
Нас вместе: 4 079 081

Стрикер / Flitzer / Streaker (2017) BDRip [1080p] ATV (DVO)


 
 
RSS
Начать новую тему   Ответить на тему    Торрент-трекер NNM-Club -> Аудио и Видео -> Зарубежное видео HD для устройств Apple
Автор Сообщение
Весельчак У ®
Модератор Apple

Online
Стаж: 5 лет 10 мес.
Сообщений: 3369
Ratio: 147,723
Поблагодарили: 110942
100%
Откуда: От Москвы недалеко...
ussr.gif
Стрикер / Flitzer / Streaker (2017) BDRip [1080p] ATV
Производство: Швейцария / Spotlight Media Production AG
Жанр: Комедия, Спорт

Режиссер: Питер Луизи
Продюсер: Дэвид Луизи, Питер Луизи
Актеры: Бит Шлаттер, Доро Мюглер, Бендрит Баджра, Луна Усклер, Даниэль Мангиш, Филипп Грабер, Уна Руска, Лоренц Нуфер, Симона Керн, Роберто Мартинес Мартинес

Описание:
Чтобы разобраться с безденежьем, школьный учитель начинает заняться ставками на спорт: нанимать и тренировать стрикеров — людей, выбегающих голыми на футбольное поле. Пока он и его команда делает стрикинг новым трендом, финансовые проблемы приобретают неожиданный поворот.



Продолжительность: 01:38:21
Качество видео: BDRip 1080р
Перевод: Любительский двухголосый (LakeFilms)
Субтитры: Английские

Видео: H.264, 1920x804 (2.40:1), ~10.4 Mbps, 24.000 fps
Аудио#1: AAC, 2.0 ch, 197 Kbps - Русский DVO, LakeFilms
Аудио#2: AAC, 2.0 ch, 197 Kbps - German, Original
Аудио#3: AC3, 6.0 ch, 640 Kbps - German, Original

Общее
Полное имя : /Volumes/HDD/Movies/NNMC/Flitzer.2017.BDRip.1080p.m4v
Формат : MPEG-4
Идентификатор кодека : M4V (M4V /M4A /mp42/isom)
Размер файла : 7,84 Гбайт
Продолжительность : 1 ч. 38 м.
Режим общего битрейта : Переменный
Общий поток : 11,4 Мбит/сек
Название фильма : Streaker
Исполнитель : Peter Luisi
Режиссёр : Peter Luisi
Исполнитель : Marco Canadea / Beat Schlatter / Doro Müggler / Bendrit Bajra
Сценарист : Peter Luisi / Beat Schlatter
Продюсер : David Luisi / Peter Luisi
Студия-производитель : Spotlight Media Production AG
Жанр : комедия
Тип содержимого : Short Film
Дата записи : UTC 2017-10-12 00:00:00
Дата кодирования : UTC 2019-09-29 06:08:09
Дата пометки : UTC 2019-09-29 06:12:02
Обложка : Yes
ContentRating : mpaa|Unrated|???|

Видео #1
Идентификатор : 1
Формат : AVC
Формат/Информация : Advanced Video Codec
Профиль формата : High@L4.1
Настройки формата : CABAC / 5 Ref Frames
Параметр CABAC формата : Да
Параметр ReFrames формата : 5 кадров
Идентификатор кодека : avc1
Идентификатор кодека/Информация : Advanced Video Coding
Продолжительность : 1 ч. 38 м.
Битрейт : 10,4 Мбит/сек
Ширина : 1920 пикселей
Высота : 804 пикселя
Соотношение сторон : 2,40:1
Режим частоты кадров : Переменный
Частота кадров : 24,000 кадра/сек
Минимальная частота кадров : 23,810 кадра/сек
Максимальная частота кадров : 24,390 кадра/сек
Цветовое пространство : YUV
Субдискретизация насыщенности : 4:2:0
Битовая глубина : 8 бит
Тип развёртки : Прогрессивная
Бит/(Пиксели*Кадры) : 0.280
Размер потока : 7,12 Гбайт (91%)
Библиотека кодирования : x264 core 157 r2935 545de2f
Настройки программы : cabac=1 / ref=5 / deblock=1:-3:-3 / analyse=0x3:0x133 / me=umh / subme=10 / psy=1 / psy_rd=1.00:0.00 / mixed_ref=1 / me_range=32 / chroma_me=1 / trellis=2 / 8x8dct=1 / cqm=0 / deadzone=21,11 / fast_pskip=0 / chroma_qp_offset=-2 / threads=25 / lookahead_threads=6 / sliced_threads=0 / nr=0 / decimate=0 / interlaced=0 / bluray_compat=0 / constrained_intra=0 / bframes=16 / b_pyramid=2 / b_adapt=2 / b_bias=0 / direct=3 / weightb=1 / open_gop=0 / weightp=2 / keyint=240 / keyint_min=24 / scenecut=40 / intra_refresh=0 / rc_lookahead=60 / rc=crf / mbtree=0 / crf=14.8 / qcomp=0.60 / qpmin=0 / qpmax=69 / qpstep=4 / vbv_maxrate=62500 / vbv_bufsize=78125 / crf_max=0.0 / nal_hrd=none / filler=0 / ip_ratio=1.40 / pb_ratio=1.30 / aq=2:1.00
Язык : German
Дата кодирования : UTC 2019-09-29 06:08:09
Дата пометки : UTC 2019-09-29 06:11:55
Цветовой диапазон : Limited
Основные цвета : BT.709
Характеристики трансфера : BT.709
Коэффициенты матрицы : BT.709
Menus : 6,7
Codec configuration box : avcC

Видео #2
Идентификатор : 7
Формат : JPEG
Идентификатор кодека : jpeg
Продолжительность : 1 ч. 38 м.
Вид битрейта : Переменный
Битрейт : 608 бит/сек
Ширина : 640 пикселей
Высота : 268 пикселей
Соотношение сторон : 2,40:1
Режим частоты кадров : Переменный
Частота кадров : 0,002 кадр/сек
Минимальная частота кадров : 0,002 кадр/сек
Максимальная частота кадров : 1,144 кадр/сек
Цветовое пространство : YUV
Субдискретизация насыщенности : 4:2:0
Битовая глубина : 8 бит
Метод сжатия : С потерями
Бит/(Пиксели*Кадры) : 1.772
Размер потока : 408 Кбайт (0%)
Язык : German
Default : Нет
Дата кодирования : UTC 2019-09-29 06:12:02
Дата пометки : UTC 2019-09-29 06:12:02
Menu For : 1
ColorSpace_ICC : RGB

Аудио #1
Идентификатор : 2
Формат : AAC LC
Формат/Информация : Advanced Audio Codec Low Complexity
Идентификатор кодека : mp4a-40-2
Продолжительность : 1 ч. 38 м.
Вид битрейта : Переменный
Битрейт : 197 Кбит/сек
Максимальный битрейт : 304 Кбит/сек
Каналы : 2 канала
Channel layout : L R
Частота : 48,0 КГц
Частота кадров : 46,875 кадров/сек (1024 SPF)
Метод сжатия : С потерями
Размер потока : 139 Мбайт (2%)
Язык : Russian
Default : Да
Alternate group : 1
Дата кодирования : UTC 2019-09-29 06:08:09
Дата пометки : UTC 2019-09-29 06:11:55
tagc : public.main-program-content

Аудио #2
Идентификатор : 3
Формат : AAC LC
Формат/Информация : Advanced Audio Codec Low Complexity
Идентификатор кодека : mp4a-40-2
Продолжительность : 1 ч. 38 м.
Вид битрейта : Переменный
Битрейт : 197 Кбит/сек
Максимальный битрейт : 325 Кбит/сек
Каналы : 2 канала
Channel layout : L R
Частота : 48,0 КГц
Частота кадров : 46,875 кадров/сек (1024 SPF)
Метод сжатия : С потерями
Размер потока : 139 Мбайт (2%)
Язык : German
Default : Нет
Alternate group : 1
Дата кодирования : UTC 2019-09-29 06:08:09
Дата пометки : UTC 2019-09-29 06:11:55
Fallback From : 4
tagc : public.main-program-content

Аудио #3
Идентификатор : 4
Формат : AC-3
Формат/Информация : Audio Coding 3
Коммерческое название : Dolby Digital
Идентификатор кодека : ac-3
Продолжительность : 1 ч. 38 м.
Вид битрейта : Постоянный
Битрейт : 640 Кбит/сек
Каналы : 6 каналов
Channel layout : L R C LFE Ls Rs
Частота : 48,0 КГц
Частота кадров : 31,250 кадров/сек (1536 SPF)
Битовая глубина : 16 бит
Метод сжатия : С потерями
Размер потока : 450 Мбайт (6%)
Язык : German
Service kind : Complete Main
Default : Нет
Alternate group : 1
Дата кодирования : UTC 2019-09-29 06:08:09
Дата пометки : UTC 2019-09-29 06:11:55
Fallback To : 3
tagc : public.main-program-content

Текст
Идентификатор : 5
Формат : Timed Text
Режим смешивания : sbtl
Идентификатор кодека : tx3g
Продолжительность : 1 ч. 34 м.
Вид битрейта : Переменный
Битрейт : 40 бит/сек
Размер потока : 27,7 Кбайт (0%)
Язык : English
Default : Да
Forced : Нет
Alternate group : 2
Дата кодирования : UTC 2019-09-29 06:08:09
Дата пометки : UTC 2019-09-29 06:11:55
tagc : public.main-program-content

Меню
Идентификатор : 6
Идентификатор кодека : text
Продолжительность : 1 ч. 38 м.
Язык : English
Дата кодирования : UTC 2019-09-29 06:11:55
Дата пометки : UTC 2019-09-29 06:11:55
Вид битрейта : CBR
Menu For : 1
00:00:00.000 : Chapter 01
00:10:00.000 : Chapter 02
00:20:00.000 : Chapter 03
00:30:00.000 : Chapter 04
00:40:00.000 : Chapter 05
00:50:00.000 : Chapter 06
01:00:00.000 : Chapter 07
01:10:00.000 : Chapter 08
01:20:00.000 : Chapter 09
01:30:00.000 : Chapter 10
01:38:20.875 : Chapter 11
Вид битрейта : Постоянный


Name: Streaker
Artist: Peter Luisi
Media Kind: Movie
HD Video: 1080p
Genre: комедия
Release Date: 2017-10-12T00:00:00Z
Rating: mpaa|Unrated|???|
Studio: Spotlight Media Production AG
Cast: Marco Canadea, Beat Schlatter, Doro Müggler, Bendrit Bajra
Director: Peter Luisi
Producers: David Luisi, Peter Luisi
Screenwriters: Peter Luisi, Beat Schlatter

Скриншоты:


Все одноименные релизы в Клубе
Время раздачи: 24/7 (до появления первых 3-5 скачавших)

Релиз подготовлен для просмотра на Apple TV, iPad, iPhone, iPod Touch.
Для просмотра данного релиза на компьютере с ОС Windows рекомендуется использовать VLC media player
[NNMClub.to]_Flitzer.2017.BDRip.1080p.m4v.torrent
 Торрент:   Зарегистрирован
 
Зарегистрируйтесь и скачайте торрент!
78,6 KB

Примагнититься
 Зарегистрирован:   29 Сен 2019 09:32:16
 Размер:   7,84 GB  (
 Рейтинг:    (Голосов: 5)
 Поблагодарили:   39
 Проверка:   Оформление проверено модератором 29 Сен 2019 16:28:16
Как cкачать  ·  Как раздать  ·  Правильно оформить  ·  Поднять ратио!  

_________________
«Всё против нас, только ветер навстречу…».
🍏Apple iMac 21.5 (mid 2011) / Intel Core i5 2.7 GHz / AMD Radeon HD 6770M 512 Mb / 12GB DDR3 / Apple Trackpad, Apple Keyboard / macOS High Sierra 10.13.6 (17G8030)
Sangius
Стаж: 8 лет 4 мес.
Сообщений: 5
Ratio: 21,217
32%
ukraine.gif
Вот давно так не ржал...! Спасибо за релиз :)
Показать сообщения:   
Начать новую тему   Ответить на тему    Торрент-трекер NNM-Club -> Аудио и Видео -> Зарубежное видео HD для устройств Apple Часовой пояс: GMT + 3
Страница 1 из 1