Классический форум-трекер
canvas not supported
Нас вместе: 4 079 484

VA - Milchbar Seaside Season 11 (Compiled by Blank & Jones) (2019) [FLAC|Lossless|WEB|tracks|24/44.1] <Downtempo, Chillout>


 
 
RSS
Начать новую тему   Ответить на тему    Торрент-трекер NNM-Club -> HD Audio и Многоканальная Музыка -> WEB-DL-Audio
Автор Сообщение
Lazyra ®
RG Music
Модератор музыки Electronic
 
Стаж: 8 лет 7 мес.
Сообщений: 4846
Ratio: 1844,635
Раздал: 64,08 TB
Поблагодарили: 106764
100%
Откуда: Владимир
russia.gif
VA - Milchbar Seaside Season 11 (Compiled by Blank & Jones) (2019)


Год: 2019
Жанр: Downtempo, Chillout
Продолжительность: 01:23:14
Лейбл: Soundcolours
Каталог №: 4260154683191
Источник: highresaudio
Кодек: FLAC
Битрейт: Lossless|WEB|tracks|24/44.1
Треклист:
01. Blank Jones - Sweet Spot (3:38)
02. Blank Jones - C'est Mieux Comme Ca (2:58)
03. Bel - Ready to Die (7:06)
04. Mike Salta - Hey Moloko (8:10)
05. Rouge Congo - Monde Inverse (3:59)
06. Blank Jones - What You Won't Do for Love (4:42)
07. Ambala feat. Jonas Krag - Morning Lights (5:20)
08. Afterlife with Calladine - Clear Blue Sky (5:39)
09. Shook - Wind on the Water (4:13)
10. RunSQ - Rancho Mirage (3:12)
11. Blank & Jones with Emma Brammer - Our Love (4:33)
12. Cantoma feat. Hush Forever - Verbana (4:56)
13. Begin - Wood Trees (5:23)
14. Modern Manners - Amor Y Odio (5:00)
15. Trumpetman - Sharing & Caring (3:47)
16. JKriv & Free Magic - Emmanuel (5:41)
17. Smith & Mudd feat. Quinn Lamont Luke - The Distance (4:57)
Код: выделить все

foobar2000 1.4 / Dynamic Range Meter 1.1.1
log date: 2019-04-26 17:10:59

--------------------------------------------------------------------------------
Analyzed: Afterlife with Calladine / Milchbar Seaside Season 11 (1)
          Ambala feat. Jonas Krag / Milchbar Seaside Season 11 (2)
          Begin / Milchbar Seaside Season 11 (3)
          Bel / Milchbar Seaside Season 11 (4)
          Blank  Jones / Milchbar Seaside Season 11 (5-7)
          Blank & Jones with Emma Brammer / Milchbar Seaside Season 11 (8)
          Cantoma feat. Hush Forever / Milchbar Seaside Season 11 (9)
          JKriv & Free Magic / Milchbar Seaside Season 11 (10)
          Mike Salta / Milchbar Seaside Season 11 (11)
          Modern Manners / Milchbar Seaside Season 11 (12)
          Rouge Congo / Milchbar Seaside Season 11 (13)
          RunSQ / Milchbar Seaside Season 11 (14)
          Shook / Milchbar Seaside Season 11 (15)
          Smith & Mudd feat. Quinn Lamont Luke / Milchbar Seaside Season 11 (16)
          Trumpetman / Milchbar Seaside Season 11 (17)
--------------------------------------------------------------------------------

DR         Peak         RMS     Duration Track
--------------------------------------------------------------------------------
DR9       -0.93 dB   -11.58 dB      5:40 08-Clear Blue Sky
DR7       -1.79 dB   -10.28 dB      5:21 07-Morning Lights
DR9       -0.73 dB   -12.50 dB      5:24 13-Wood Trees
DR8       -1.27 dB   -11.27 dB      7:07 03-Ready to Die
DR12      -0.73 dB   -14.28 dB      3:38 01-Sweet Spot
DR11      -0.73 dB   -13.13 dB      2:59 02-C'est Mieux Comme Ça
DR8       -1.28 dB   -10.73 dB      4:43 06-What You Won't Do for Love
DR7       -2.41 dB   -11.48 dB      4:34 11-Our Love
DR8       -1.41 dB   -10.46 dB      4:56 12-Verbana
DR8       -1.39 dB   -10.90 dB      5:41 16-Emmanuel
DR10      -0.76 dB   -12.19 dB      8:11 04-Hey Moloko
DR9       -1.14 dB   -11.01 dB      5:00 14-Amor Y Odio
DR7       -2.85 dB   -11.13 dB      3:59 05-Monde Inverse
DR9       -0.84 dB   -11.16 dB      3:12 10-Rancho Mirage
DR9       -0.72 dB   -10.91 dB      4:13 09-Wind on the Water
DR9       -0.70 dB   -11.80 dB      4:58 17-The Distance
DR8       -1.81 dB   -11.41 dB      3:48 15-Sharing & Caring
--------------------------------------------------------------------------------

Number of tracks:  17
Official DR value: DR9
Samplerate:        44100 Hz
Channels:          2
Bits per sample:   24
Bitrate:           1478 kbps
Codec:             FLAC
================================================================================

Время раздачи: 24/7
[NNMClub.to]_VA - Milchbar Seaside Season 11 (Compiled by Blank & Jones) (2019) [FLAC-WEB].torrent
 Торрент:   Зарегистрирован
 
Зарегистрируйтесь и скачайте торрент!
19,3 KB

Примагнититься
 Зарегистрирован:   29 Сен 2019 10:01:48
 Размер:   927 MB  (
 Рейтинг:    (Голосов: 5)
 Поблагодарили:   48
 Проверка:   Оформление проверено модератором 29 Сен 2019 18:59:38
Как cкачать  ·  Как раздать  ·  Правильно оформить  ·  Поднять ратио!  
Beijing65
Модератор Музыки
RG Music
 
Стаж: 9 лет 1 мес.
Сообщений: 2449
Ratio: 1678,481
Поблагодарили: 128464
100%
Lazyra
С возвращением!
:клево:
Lazyra ®
RG Music
Модератор музыки Electronic
 
Стаж: 8 лет 7 мес.
Сообщений: 4846
Ratio: 1844,635
Раздал: 64,08 TB
Поблагодарили: 106764
100%
Откуда: Владимир
russia.gif
Beijing65 писал(а): Перейти к сообщению
С возвращением!

Спасибо , я рад что вернулся :респект:

_________________
Нет раздачи , пиши ЛС
Показать сообщения:   
Начать новую тему   Ответить на тему    Торрент-трекер NNM-Club -> HD Audio и Многоканальная Музыка -> WEB-DL-Audio Часовой пояс: GMT + 3
Страница 1 из 1