Классический форум-трекер
canvas not supported
Нас вместе: 4 079 153

Дом на холмах / A House in the Hills (1993) WEB-DLRip [1080p] ATV (VO) [PR]


 
 
RSS
Начать новую тему   Ответить на тему    Торрент-трекер NNM-Club -> Аудио и Видео -> Зарубежное видео HD для устройств Apple
Автор Сообщение
Весельчак У ®
Модератор Apple

Online
Стаж: 5 лет 10 мес.
Сообщений: 3376
Ratio: 147,725
Поблагодарили: 111033
100%
Откуда: От Москвы недалеко...
ussr.gif
Дом на холмах / A House in the Hills (1993) WEB-DLRip [1080p] ATV
Производство: США, Люксембург / Delux Productions
Жанр: Триллер, Мелодрама

Режиссер: Кен Видерхорн
Продюсер: Патриция Фолкрод, Кен Видерхорн, Адриана Кьеза Де Пальма
Актеры: Майкл Мэдсен, Хелен Слейтер, Джеффри Тэмбор, Джеймс Лоренсон, Элисса Давалос, Тейлор Ли, Тони Бэрри, Джеймс Нолленхофф, Маргарет Парк, Лару М. Малл

Описание:
Мечтающая о карьере голливудской кинозвезды Алекс присматривает за роскошным особняком в Беверли-Хиллз во время отъезда его хозяев — богатой и несколько странной семейной пары, не подозревая, что за домом следит жаждущий отомстить его владельцам бывший заключенный Микки. И, когда ничего не подозревающая Алекс впускает полного опасного для женского сердца обаяния Микки на порог, разыгрывая перед ним роль хозяйки дома, она открывает двери самым большим неприятностям в своей жизни и одновременно самой настоящей любовной страсти.


Возраст: 16+ (зрителям, достигшим 16 лет)
Рейтинг MPAA: R (лицам до 17 лет обязательно присутствие взрослого)

Продолжительность: 01:31:01
Качество видео: WEB-DLRip 1080р
Перевод: Профессиональный двухголосый, авторский, любительский одноголосый
Субтитры: Русские, английские

Видео: H.264, 1920x1080 (16:9), ~10.0 Mbps, 23.976 fps
Аудио#1: AAC, 2.0 ch, 296 Kbps - Русский MVO, Екатеринбург Арт
Аудио#2: AAC, 2.0 ch, 297 Kbps - Русский DVO, Элегия
Аудио#3: AAC, 2.0 ch, 296 Kbps - Русский AVO, А. Гаврилов
Аудио#4: AAC, 2.0 ch, 297 Kbps - Русский AVO, В. Горчаков
Аудио#5: AAC, 2.0 ch, 296 Kbps - Русский AVO, неизвестный
Аудио#6: AAC, 2.0 ch, 300 Kbps - English, Original

Общее
Полное имя : /Volumes/HDD/Movies/NNMC/A.House.In.The.Hills.1993.Web-DL1080p.m4v
Формат : MPEG-4
Идентификатор кодека : M4V (M4V /M4A /mp42/isom)
Размер файла : 7,32 Гбайт
Продолжительность : 1 ч. 31 м.
Режим общего битрейта : Переменный
Общий поток : 11,5 Мбит/сек
Название фильма : A House In The Hills
Исполнитель : Ken Wiederhorn
Режиссёр : Ken Wiederhorn
Исполнитель : Michael Madsen / Helen Slater / Jeffrey Tambor / Elyssa Davalos / James Laurenson / Toni Barry / Taylor Lee
Сценарист : Miguel Tejada-Flores / Ken Wiederhorn
Студия-производитель : Delux Productions
Жанр : триллер, мелодрама
Тип содержимого : Short Film
Дата записи : UTC 1993-01-20 00:00:00
Дата кодирования : UTC 2019-09-29 11:40:02
Дата пометки : UTC 2019-09-29 11:45:22
Обложка : Yes
ContentRating : mpaa|R|400|

Видео
Идентификатор : 1
Формат : AVC
Формат/Информация : Advanced Video Codec
Профиль формата : High@L4
Настройки формата : CABAC / 4 Ref Frames
Параметр CABAC формата : Да
Параметр ReFrames формата : 4 кадра
Идентификатор кодека : avc1
Идентификатор кодека/Информация : Advanced Video Coding
Продолжительность : 1 ч. 30 м.
Вид битрейта : Постоянный
Битрейт : 10000 Кбит/сек
Ширина : 1920 пикселей
Высота : 1080 пикселей
Соотношение сторон : 16:9
Режим частоты кадров : Переменный
Частота кадров : 23,976 (24000/1001) кадра/сек
Минимальная частота кадров : 23,810 кадра/сек
Максимальная частота кадров : 24,390 кадра/сек
Цветовое пространство : YUV
Субдискретизация насыщенности : 4:2:0
Битовая глубина : 8 бит
Тип развёртки : Прогрессивная
Бит/(Пиксели*Кадры) : 0.201
Размер потока : 6,18 Гбайт (84%)
Язык : English
Дата кодирования : UTC 2019-09-29 11:40:02
Дата пометки : UTC 2019-09-29 11:45:21
Цветовой диапазон : Limited
Основные цвета : BT.709
Характеристики трансфера : BT.709
Коэффициенты матрицы : BT.709
Codec configuration box : avcC

Аудио #1
Идентификатор : 2
Формат : AAC LC
Формат/Информация : Advanced Audio Codec Low Complexity
Идентификатор кодека : mp4a-40-2
Продолжительность : 1 ч. 31 м.
Вид битрейта : Переменный
Битрейт : 296 Кбит/сек
Максимальный битрейт : 460 Кбит/сек
Каналы : 2 канала
Channel layout : L R
Частота : 48,0 КГц
Частота кадров : 46,875 кадров/сек (1024 SPF)
Метод сжатия : С потерями
Размер потока : 193 Мбайт (3%)
Язык : Russian
Default : Да
Alternate group : 1
Дата кодирования : UTC 2019-09-29 11:40:02
Дата пометки : UTC 2019-09-29 11:43:13
tagc : public.main-program-content

Аудио #2
Идентификатор : 3
Формат : AAC LC
Формат/Информация : Advanced Audio Codec Low Complexity
Идентификатор кодека : mp4a-40-2
Продолжительность : 1 ч. 30 м.
Вид битрейта : Переменный
Битрейт : 297 Кбит/сек
Максимальный битрейт : 486 Кбит/сек
Каналы : 2 канала
Channel layout : L R
Частота : 48,0 КГц
Частота кадров : 46,875 кадров/сек (1024 SPF)
Метод сжатия : С потерями
Размер потока : 193 Мбайт (3%)
Язык : Russian
Default : Нет
Alternate group : 1
Дата кодирования : UTC 2019-09-29 11:40:02
Дата пометки : UTC 2019-09-29 11:43:18
tagc : public.auxiliary-content

Аудио #3
Идентификатор : 4
Формат : AAC LC
Формат/Информация : Advanced Audio Codec Low Complexity
Идентификатор кодека : mp4a-40-2
Продолжительность : 1 ч. 30 м.
Вид битрейта : Переменный
Битрейт : 296 Кбит/сек
Максимальный битрейт : 493 Кбит/сек
Каналы : 2 канала
Channel layout : L R
Частота : 48,0 КГц
Частота кадров : 46,875 кадров/сек (1024 SPF)
Метод сжатия : С потерями
Размер потока : 192 Мбайт (3%)
Язык : Russian
Default : Нет
Alternate group : 1
Дата кодирования : UTC 2019-09-29 11:40:02
Дата пометки : UTC 2019-09-29 11:43:17
tagc : public.auxiliary-content

Аудио #4
Идентификатор : 5
Формат : AAC LC
Формат/Информация : Advanced Audio Codec Low Complexity
Идентификатор кодека : mp4a-40-2
Продолжительность : 1 ч. 30 м.
Вид битрейта : Переменный
Битрейт : 297 Кбит/сек
Максимальный битрейт : 471 Кбит/сек
Каналы : 2 канала
Channel layout : L R
Частота : 48,0 КГц
Частота кадров : 46,875 кадров/сек (1024 SPF)
Метод сжатия : С потерями
Размер потока : 193 Мбайт (3%)
Язык : Russian
Default : Нет
Alternate group : 1
Дата кодирования : UTC 2019-09-29 11:40:02
Дата пометки : UTC 2019-09-29 11:43:14
tagc : public.auxiliary-content

Аудио #5
Идентификатор : 6
Формат : AAC LC
Формат/Информация : Advanced Audio Codec Low Complexity
Идентификатор кодека : mp4a-40-2
Продолжительность : 1 ч. 30 м.
Вид битрейта : Переменный
Битрейт : 296 Кбит/сек
Максимальный битрейт : 454 Кбит/сек
Каналы : 2 канала
Channel layout : L R
Частота : 48,0 КГц
Частота кадров : 46,875 кадров/сек (1024 SPF)
Метод сжатия : С потерями
Размер потока : 192 Мбайт (3%)
Язык : Russian
Default : Нет
Alternate group : 1
Дата кодирования : UTC 2019-09-29 11:40:02
Дата пометки : UTC 2019-09-29 11:43:16
tagc : public.auxiliary-content

Аудио #6
Идентификатор : 7
Формат : AAC LC
Формат/Информация : Advanced Audio Codec Low Complexity
Идентификатор кодека : mp4a-40-2
Продолжительность : 1 ч. 30 м.
Вид битрейта : Переменный
Битрейт : 300 Кбит/сек
Максимальный битрейт : 491 Кбит/сек
Каналы : 2 канала
Channel layout : L R
Частота : 48,0 КГц
Частота кадров : 46,875 кадров/сек (1024 SPF)
Метод сжатия : С потерями
Размер потока : 195 Мбайт (3%)
Язык : English
Default : Нет
Alternate group : 1
Дата кодирования : UTC 2019-09-29 11:40:02
Дата пометки : UTC 2019-09-29 11:43:18
tagc : public.main-program-content

Текст #1
Идентификатор : 8
Формат : Timed Text
Режим смешивания : sbtl
Идентификатор кодека : tx3g
Продолжительность : 1 ч. 28 м.
Вид битрейта : Переменный
Битрейт : 84 бит/сек
Размер потока : 54,5 Кбайт (0%)
Язык : Russian
Default : Да
Forced : Нет
Alternate group : 2
Дата кодирования : UTC 2019-09-29 11:40:02
Дата пометки : UTC 2019-09-29 11:45:21
tagc : public.main-program-content

Текст #2
Идентификатор : 9
Формат : Timed Text
Режим смешивания : sbtl
Идентификатор кодека : tx3g
Продолжительность : 1 ч. 28 м.
Вид битрейта : Переменный
Битрейт : 64 бит/сек
Размер потока : 41,5 Кбайт (0%)
Язык : English
Default : Нет
Forced : Нет
Alternate group : 2
Дата кодирования : UTC 2019-09-29 11:40:02
Дата пометки : UTC 2019-09-29 11:45:21
tagc : public.main-program-content


Name: A House In The Hills
Artist: Ken Wiederhorn
Media Kind: Movie
HD Video: 1080p
Genre: триллер, мелодрама
Release Date: 1993-01-20T00:00:00Z
Rating: mpaa|R|400|
Studio: Delux Productions
Cast: Michael Madsen, Helen Slater, Jeffrey Tambor, Elyssa Davalos, James Laurenson, Toni Barry, Taylor Lee
Director: Ken Wiederhorn
Screenwriters: Miguel Tejada-Flores, Ken Wiederhorn

Скриншоты:


Все одноименные релизы в Клубе
Время раздачи: 24/7 (до появления первых 3-5 скачавших)

Релиз подготовлен для просмотра на Apple TV, iPad, iPhone, iPod Touch.
Для просмотра данного релиза на компьютере с ОС Windows рекомендуется использовать VLC media player
[NNMClub.to]_A.House.In.The.Hills.1993.WEBDLRip.1080p.m4v.torrent
 Торрент:   Зарегистрирован
 
Зарегистрируйтесь и скачайте торрент!
73,4 KB

Примагнититься
 Зарегистрирован:   29 Сен 2019 15:00:24
 Размер:   7,32 GB  (
 Рейтинг:    (Голосов: 3)
 Поблагодарили:   27
 Проверка:   Оформление проверено модератором 29 Сен 2019 16:10:31
Как cкачать  ·  Как раздать  ·  Правильно оформить  ·  Поднять ратио!  

_________________
«Всё против нас, только ветер навстречу…».
🍏Apple iMac 21.5 (mid 2011) / Intel Core i5 2.7 GHz / AMD Radeon HD 6770M 512 Mb / 12GB DDR3 / Apple Trackpad, Apple Keyboard / macOS High Sierra 10.13.6 (17G8030)
Показать сообщения:   
Начать новую тему   Ответить на тему    Торрент-трекер NNM-Club -> Аудио и Видео -> Зарубежное видео HD для устройств Apple Часовой пояс: GMT + 3
Страница 1 из 1