Классический форум-трекер
canvas not supported
Нас вместе: 4 079 059

Золотая перчатка / Der goldene Handschuh (2019) BDRip [1080p] ATV


 
 
RSS
Начать новую тему   Ответить на тему    Торрент-трекер NNM-Club -> Аудио и Видео -> Зарубежное видео HD для устройств Apple
Автор Сообщение
Весельчак У ®
Модератор Apple
Стаж: 5 лет 10 мес.
Сообщений: 3303
Ratio: 147,666
Поблагодарили: 108967
100%
Откуда: От Москвы недалеко...
ussr.gif
Золотая перчатка / Der goldene Handschuh (2019) BDRip 1080p
Производство: Германия, Франция / Bombero International, Warner Bros. Film Productions Germany
Жанр: Триллер

Режиссер: Фатих Акин
Продюсер: Фатих Акин, Нархан Шекерджи-Порст, Анн-Кристин Барди
Актеры: Йонас Дасслер, Катя Штудт, Маргарете Тизель, Адам Боусдукс, Мартина Эйтнер, Марк Хоземанн, Тристан Гёбель, Грета Софи Шмидт, Виктория Трауттмансдорфф, Харк Бом

Описание:
Западная Германия, 70-е годы. Фриц Хонка - типичный неудачник средних лет, так ничего и не достигший в жизни. Он коротает унылые вечера в кабаке «Золотая перчатка». Здесь, в компании себе подобных, он дурманит себя алкоголем и ищет близости с одинокими женщинами, безвозвратно утратившими свою молодость и достоинство. Фриц завлекает эти потерянные души в свое холостяцкое логово. В этом затхлом мирке в безобидном для окружающих уродце просыпается монстр.


Возраст: 18+ (зрителям, достигшим 18 лет. запрещено для детей)
Дата мировой премьеры: 9 февраля 2019
Дата российской премьеры: 30 мая 2019, «Русский Репортаж»

Продолжительность: 01:49:57
Качество видео: BDRip 1080р
Перевод: Дублированный (iTunes)
Субтитры: Отсутствуют

Видео: H.264, 1920x1036 (1.85:1), ~12.2 Mbps, 23.976 fps
Аудио#1: AAC, 2.0 ch, 163 Kbps - Русский DUB, iTunes
Аудио#2: AAC, 2.0 ch, 163 Kbps - German, Original
Аудио#3: AC3, 6.0 ch, 384 Kbps - Русский DUB, iTunes
Аудио#4: AC3, 6.0 ch, 640 Kbps - German, Original

Общее
Полное имя : /Volumes/HDD/Movies/NNMC/Der.goldene.Handschuh.2019.BDRip.1080p.m4v
Формат : MPEG-4
Идентификатор кодека : M4V (M4V /M4A /mp42/isom)
Размер файла : 10,4 Гбайт
Продолжительность : 1 ч. 49 м.
Режим общего битрейта : Переменный
Общий поток : 13,6 Мбит/сек
Название фильма : Золотая перчатка
Исполнитель : Фатих Акин
Режиссёр : Фатих Акин
Исполнитель : Йонас Дасслер / Адам Боусдукс / Маргарете Тизель / Марк Хоземанн / Катя Штудт
Сценарист : Фатих Акин / Хайнц Штрунк
Продюсер : Фатих Акин / Нархан Шекерджи-Порст
Студия-производитель : Bombero International, Pathe, Warner Bros. Film Productions Germany
Жанр : Триллеры
Тип содержимого : Short Film
Описание : Западная Германия, 70-е годы. Фриц Хонка — типичный неудачник средних лет, так ничего и не достигший в жизни. Он коротает унылые вечера в кабаке «Золотая перчатка». Здесь, в компании себе подобных, он дурманит себя алкоголем и ищет близости с одинокими женщинами, безвозвратно утратившими свою молодость и достоинство. Фриц завлекает эти потерянные души в свое холостяцкое логово. В этом затхлом мирке в безобидном для окружающих уродце просыпается монстр…
Дата записи : UTC 2019-05-30 07:00:00
Дата кодирования : UTC 2019-10-01 05:45:57
Дата пометки : UTC 2019-10-01 05:55:06
Авторское право : © 2019, Русский Репортаж
Обложка : Yes
LongDescription : Западная Германия, 70-е годы. Фриц Хонка — типичный неудачник средних лет, так ничего и не достигший в жизни. Он коротает унылые вечера в кабаке «Золотая перчатка». Здесь, в компании себе подобных, он дурманит себя алкоголем и ищет близости с одинокими женщинами, безвозвратно утратившими свою молодость и достоинство. Фриц завлекает эти потерянные души в свое холостяцкое логово. В этом затхлом мирке в безобидном для окружающих уродце просыпается монстр…
AppleStoreCountry : Russia
AppleStoreCatalogID : 1464121260
ContentRating : ru-movie|18+|400|

Видео #1
Идентификатор : 1
Формат : AVC
Формат/Информация : Advanced Video Codec
Профиль формата : High@L4.1
Настройки формата : CABAC / 4 Ref Frames
Параметр CABAC формата : Да
Параметр ReFrames формата : 4 кадра
Идентификатор кодека : avc1
Идентификатор кодека/Информация : Advanced Video Coding
Продолжительность : 1 ч. 49 м.
Битрейт : 12,2 Мбит/сек
Ширина : 1920 пикселей
Высота : 1036 пикселей
Соотношение сторон : 1,85:1
Режим частоты кадров : Переменный
Частота кадров : 23,976 (24000/1001) кадра/сек
Минимальная частота кадров : 23,810 кадра/сек
Максимальная частота кадров : 24,390 кадра/сек
Цветовое пространство : YUV
Субдискретизация насыщенности : 4:2:0
Битовая глубина : 8 бит
Тип развёртки : Прогрессивная
Бит/(Пиксели*Кадры) : 0.257
Размер потока : 9,40 Гбайт (90%)
Библиотека кодирования : x264 core 152 r2851 ba24899
Настройки программы : cabac=1 / ref=4 / deblock=1:-3:-3 / analyse=0x3:0x133 / me=umh / subme=11 / psy=1 / psy_rd=1.00:0.00 / mixed_ref=1 / me_range=64 / chroma_me=1 / trellis=2 / 8x8dct=1 / cqm=0 / deadzone=21,11 / fast_pskip=0 / chroma_qp_offset=-2 / threads=24 / lookahead_threads=6 / sliced_threads=0 / nr=0 / decimate=0 / interlaced=0 / bluray_compat=0 / constrained_intra=0 / bframes=10 / b_pyramid=2 / b_adapt=2 / b_bias=0 / direct=3 / weightb=1 / open_gop=0 / weightp=2 / keyint=240 / keyint_min=23 / scenecut=40 / intra_refresh=0 / rc_lookahead=40 / rc=2pass / mbtree=0 / bitrate=12238 / ratetol=1.0 / qcomp=0.60 / qpmin=0 / qpmax=69 / qpstep=4 / cplxblur=20.0 / qblur=0.5 / vbv_maxrate=50000 / vbv_bufsize=62500 / nal_hrd=none / filler=0 / ip_ratio=1.40 / pb_ratio=1.30 / aq=1:1.00
Язык : English
Дата кодирования : UTC 2019-10-01 05:45:57
Дата пометки : UTC 2019-10-01 05:54:43
Menus : 6,7
Codec configuration box : avcC

Видео #2
Идентификатор : 7
Формат : JPEG
Идентификатор кодека : jpeg
Продолжительность : 1 ч. 49 м.
Вид битрейта : Переменный
Битрейт : 665 бит/сек
Ширина : 640 пикселей
Высота : 345 пикселей
Соотношение сторон : 1,85:1
Режим частоты кадров : Переменный
Частота кадров : 0,002 кадр/сек
Минимальная частота кадров : 0,002 кадр/сек
Максимальная частота кадров : 0,003 кадр/сек
Цветовое пространство : YUV
Субдискретизация насыщенности : 4:2:0
Битовая глубина : 8 бит
Метод сжатия : С потерями
Бит/(Пиксели*Кадры) : 1.506
Размер потока : 609 Кбайт (0%)
Язык : English
Default : Нет
Дата кодирования : UTC 2019-10-01 05:55:05
Дата пометки : UTC 2019-10-01 05:55:05
Menu For : 1
ColorSpace_ICC : RGB

Аудио #1
Идентификатор : 2
Формат : AAC LC
Формат/Информация : Advanced Audio Codec Low Complexity
Идентификатор кодека : mp4a-40-2
Продолжительность : 1 ч. 49 м.
Вид битрейта : Переменный
Битрейт : 163 Кбит/сек
Максимальный битрейт : 271 Кбит/сек
Каналы : 2 канала
Channel layout : L R
Частота : 48,0 КГц
Частота кадров : 46,875 кадров/сек (1024 SPF)
Метод сжатия : С потерями
Размер потока : 128 Мбайт (1%)
Язык : Russian
Default : Да
Alternate group : 1
Дата кодирования : UTC 2019-10-01 05:45:57
Дата пометки : UTC 2019-10-01 05:54:43
Fallback From : 4
tagc : public.main-program-content

Аудио #2
Идентификатор : 3
Формат : AAC LC
Формат/Информация : Advanced Audio Codec Low Complexity
Идентификатор кодека : mp4a-40-2
Продолжительность : 1 ч. 49 м.
Вид битрейта : Переменный
Битрейт : 163 Кбит/сек
Максимальный битрейт : 281 Кбит/сек
Каналы : 2 канала
Channel layout : L R
Частота : 48,0 КГц
Частота кадров : 46,875 кадров/сек (1024 SPF)
Метод сжатия : С потерями
Размер потока : 129 Мбайт (1%)
Язык : German
Default : Нет
Alternate group : 1
Дата кодирования : UTC 2019-10-01 05:45:57
Дата пометки : UTC 2019-10-01 05:54:43
Fallback From : 5
tagc : public.main-program-content

Аудио #3
Идентификатор : 4
Формат : AC-3
Формат/Информация : Audio Coding 3
Коммерческое название : Dolby Digital
Идентификатор кодека : ac-3
Продолжительность : 1 ч. 49 м.
Вид битрейта : Постоянный
Битрейт : 384 Кбит/сек
Каналы : 6 каналов
Channel layout : L R C LFE Ls Rs
Частота : 48,0 КГц
Частота кадров : 31,250 кадров/сек (1536 SPF)
Битовая глубина : 16 бит
Метод сжатия : С потерями
Размер потока : 302 Мбайт (3%)
Язык : Russian
Service kind : Complete Main
Default : Inherited From: 2
Alternate group : 1
Дата кодирования : UTC 2019-10-01 05:45:57
Дата пометки : UTC 2019-10-01 05:54:43
Fallback To : 2
tagc : public.main-program-content

Аудио #4
Идентификатор : 5
Формат : AC-3
Формат/Информация : Audio Coding 3
Коммерческое название : Dolby Digital
Идентификатор кодека : ac-3
Продолжительность : 1 ч. 49 м.
Вид битрейта : Постоянный
Битрейт : 640 Кбит/сек
Каналы : 6 каналов
Channel layout : L R C LFE Ls Rs
Частота : 48,0 КГц
Частота кадров : 31,250 кадров/сек (1536 SPF)
Битовая глубина : 16 бит
Метод сжатия : С потерями
Размер потока : 503 Мбайт (5%)
Язык : German
Service kind : Complete Main
Default : Нет
Alternate group : 1
Дата кодирования : UTC 2019-10-01 05:45:57
Дата пометки : UTC 2019-10-01 05:54:43
Fallback To : 3
tagc : public.main-program-content

Меню
Идентификатор : 6
Идентификатор кодека : text
Продолжительность : 1 ч. 49 м.
Язык : English
Дата кодирования : UTC 2019-10-01 05:54:43
Дата пометки : UTC 2019-10-01 05:54:43
Menu For : 1
00:00:00.000 : Глава 1
00:07:41.791 : Глава 2
00:14:11.166 : Глава 3
00:20:03.666 : Глава 4
00:26:25.666 : Глава 5
00:32:19.082 : Глава 6
00:40:19.457 : Глава 7
00:47:09.123 : Глава 8
00:54:59.664 : Глава 9
01:02:10.664 : Глава 10
01:08:09.414 : Глава 11
01:16:12.955 : Глава 12
01:24:12.496 : Глава 13
01:33:23.371 : Глава 14
01:40:54.621 : Глава 15


Name: Золотая перчатка
Artist: Фатих Акин
Media Kind: Movie
HD Video: 1080p
Genre: Триллеры
Release Date: 2019-05-30T07:00:00Z
Description: Западная Германия, 70-е годы. Фриц Хонка — типичный неудачник средних лет, так ничего и не достигший в жизни. Он коротает унылые вечера в кабаке «Золотая перчатка». Здесь, в компании себе подобных, он дурманит себя алкоголем и ищет близости с одинокими женщинами, безвозвратно утратившими свою молодость и достоинство. Фриц завлекает эти потерянные души в свое холостяцкое логово. В этом затхлом мирке в безобидном для окружающих уродце просыпается монстр…
Long Description: Западная Германия, 70-е годы. Фриц Хонка — типичный неудачник средних лет, так ничего и не достигший в жизни. Он коротает унылые вечера в кабаке «Золотая перчатка». Здесь, в компании себе подобных, он дурманит себя алкоголем и ищет близости с одинокими женщинами, безвозвратно утратившими свою молодость и достоинство. Фриц завлекает эти потерянные души в свое холостяцкое логово. В этом затхлом мирке в безобидном для окружающих уродце просыпается монстр…
Rating: ru-movie|18+|400|
Studio: Bombero International, Pathe, Warner Bros. Film Productions Germany
Cast: Йонас Дасслер, Адам Боусдукс, Маргарете Тизель, Марк Хоземанн, Катя Штудт
Director: Фатих Акин
Producers: Фатих Акин, Нархан Шекерджи-Порст
Screenwriters: Фатих Акин, Хайнц Штрунк
Copyright: © 2019, Русский Репортаж
content ID: 1464121260
iTunes Country: 143469

Скриншоты:


Все одноименные релизы в Клубе
Время раздачи: 24/7 (до появления первых 3-5 скачавших)

Релиз подготовлен для просмотра на Apple TV, iPad, iPhone, iPod Touch.
Для просмотра данного релиза на компьютере с ОС Windows рекомендуется использовать VLC media player
[NNMClub.to]_Der.goldene.Handschuh.2019.BDRip.1080p.m4v.torrent
 Торрент:   Зарегистрирован
 
Зарегистрируйтесь и скачайте торрент!
105 KB

Примагнититься
 Зарегистрирован:   01 Окт 2019 09:09:36
 Размер:   10,4 GB  (
 Рейтинг:   3,5 (Голосов: 10)
 Поблагодарили:   33
 Проверка:   Оформление проверено модератором 01 Окт 2019 17:03:35
Как cкачать  ·  Как раздать  ·  Правильно оформить  ·  Поднять ратио!  

_________________
«Всё против нас, только ветер навстречу…».
🍏Apple iMac 21.5 (mid 2011) / Intel Core i5 2.7 GHz / AMD Radeon HD 6770M 512 Mb / 12GB DDR3 / Apple Trackpad, Apple Keyboard / macOS High Sierra 10.13.6 (17G8030)
Загрузка...
thunderre​sistant​
Uploader 100+
Стаж: 8 лет 8 мес.
Сообщений: 986
Ratio: 1939,25
Раздал: 225 TB
Поблагодарили: 16523
100%
Откуда: Млечный Путь
Ну и шнобель)
А описание доставило, зачёт))

_________________
200/100/24*7
Touken
Стаж: 10 лет 5 мес.
Сообщений: 440
Ratio: 6,218
21.51%
Милый фильм. Когда наступают грустные дни, всегда смотрю его. Поднимает настроение
deadmen66
Стаж: 8 лет 6 мес.
Сообщений: 83
Ratio: 4,08
100%
russia.gif
Смешной...не для всех.
a1bert85
 
Стаж: 9 лет 2 мес.
Сообщений: 160
Ratio: 65,206
Раздал: 108,2 TB
Поблагодарили: 549
100%
Откуда: Новосибирск
russia.gif
Мрачнейший фильм... после просмотра как будто ведро де..ма вылили в голову...
geramars

Online
Стаж: 1 мес. 5 дней
Сообщений: 1
Ratio: 5,705
62.79%
Напишите люди, когда этого Фрица в конце фильма арестовывают, что вы чувствуете: радость или грусть?
Andy_qq
 
Стаж: 10 лет
Сообщений: 71
Ratio: 20,762
100%
a1bert85 писал(а): Перейти к сообщению
Мрачнейший фильм... после просмотра как будто ведро де..ма вылили в голову...


Полностью с Вами согласен.
snusmumrikzzz
Стаж: 6 лет 9 мес.
Сообщений: 5
Ratio: 1,185
0%
Как будто изнасиловали в душу ))
Показать сообщения:   
Начать новую тему   Ответить на тему    Торрент-трекер NNM-Club -> Аудио и Видео -> Зарубежное видео HD для устройств Apple Часовой пояс: GMT + 3
Страница 1 из 1