Классический форум-трекер
canvas not supported
Нас вместе: 4 079 088

Солнцестояние / Midsommar (2019) BDRip [1080p] ATV


 
 
RSS
Начать новую тему   Ответить на тему    Торрент-трекер NNM-Club -> Аудио и Видео -> Зарубежное видео HD для устройств Apple
Автор Сообщение
Весельчак У ®
Модератор Apple
Стаж: 5 лет 10 мес.
Сообщений: 3318
Ratio: 147,664
Поблагодарили: 109557
100%
Откуда: От Москвы недалеко...
ussr.gif
Солнцестояние / Midsommar (2019) BDRip [1080p] ATV«Вековая тьма пробудится»
Производство: США, Швеция, Венгрия / Proton Cinema, B-Reel Films, Square Peg
Жанр: Ужасы, триллер, драма

Режиссер: Ари Астер
Продюсер: Патрик Андерссон, Ларс Кнудсен, Тайлер Кампеллоне
Актеры: Флоренс Пью, Джек Рейнор, Вильхельм Бломгрен, Уильям Джексон Харпер, Уилл Поултер, Эллора Торчия, Арчи Мадекве, Хенрик Норлен, Гуннель Фред, Изабель Грилл

Описание:
День летнего солнцестояния — древний праздник, который во всех культурах окутан мистическим ореолом. В отрезанном от цивилизованного мира шведском поселении раз в 90 лет в этот день проводится уникальный обряд. Именно туда отправляется группа молодых американских антропологов. Однако вскоре после прибытия там начинает происходить нечто необъяснимое, и под светом солнца исследователям открывается настоящая тьма.


Возраст: 18+ (зрителям, достигшим 18 лет. запрещено для детей)
Рейтинг MPAA: R (лицам до 17 лет обязательно присутствие взрослого)
Дата мировой премьеры: 24 июня 2019
Дата российской премьеры: 18 июля 2019, «Вольга»

Продолжительность: 02:27:05
Качество видео: BDRip 1080р
Перевод: Дублированный (iTunes)
Субтитры: Русские (Forced, Full / без цензуры), английские (Full, SDH)

Видео: H.264, 1920x960 (2.000), ~11.3 Mbps, 23.976 fps
Аудио#1: AAC, 2.0 ch, 164 Kbps - Русский DUB, iTunes
Аудио#2: AAC, 2.0 ch, 162 Kbps - English, Original
Аудио#3: AC3, 6.0 ch, 384 Kbps - Русский DUB, iTunes
Аудио#4: AC3, 6.0 ch, 640 Kbps - English, Original

Общее
Полное имя : /Volumes/HDD/Movies/NNMC/Midsommar.2019.BDRip.1080p.m4v
Формат : MPEG-4
Идентификатор кодека : M4V (M4V /M4A /mp42/isom)
Размер файла : 13,0 Гбайт
Продолжительность : 2 ч. 27 м.
Режим общего битрейта : Переменный
Общий поток : 12,7 Мбит/сек
Название фильма : Солнцестояние
Исполнитель : Ари Астер
Режиссёр : Ари Астер
Исполнитель : Флоренс Пью / Джек Рейнор / Вильхельм Бломгрен / Уильям Джексон Харпер / Уилл Поултер
Сценарист : Ари Астер
Продюсер : Патрик Андерссон / Ларс Кнудсен
Студия-производитель : B-Reel Films, Square Peg
Жанр : Ужасы
Тип содержимого : Short Film
Описание : День летнего солнцестояния — древний праздник, который во всех культурах окутан мистическим ореолом. В отрезанном от цивилизованного мира шведском поселении раз в 90 лет в этот день проводится уникальный обряд. Именно туда отправляется группа молодых американских антропологов. Однако вскоре после прибытия там начинает происходить нечто необъяснимое, и под светом солнца исследователям открывается настоящая тьма...
Дата записи : UTC 2019-07-18 07:00:00
Дата кодирования : UTC 2019-10-02 09:50:33
Дата пометки : UTC 2019-10-02 09:58:34
Авторское право : © 2019 Volga Film
Обложка : Yes
LongDescription : День летнего солнцестояния — древний праздник, который во всех культурах окутан мистическим ореолом. В отрезанном от цивилизованного мира шведском поселении раз в 90 лет в этот день проводится уникальный обряд. Именно туда отправляется группа молодых американских антропологов. Однако вскоре после прибытия там начинает происходить нечто необъяснимое, и под светом солнца исследователям открывается настоящая тьма...
AppleStoreCountry : Russia
AppleStoreCatalogID : 1480544004
ContentRating : ru-movie|18+|400|

Видео #1
Идентификатор : 1
Формат : AVC
Формат/Информация : Advanced Video Codec
Профиль формата : High@L4.1
Настройки формата : CABAC / 4 Ref Frames
Параметр CABAC формата : Да
Параметр ReFrames формата : 4 кадра
Идентификатор кодека : avc1
Идентификатор кодека/Информация : Advanced Video Coding
Продолжительность : 2 ч. 27 м.
Битрейт : 11,3 Мбит/сек
Ширина : 1920 пикселей
Высота : 960 пикселей
Соотношение сторон : 2,000
Режим частоты кадров : Переменный
Частота кадров : 23,976 (24000/1001) кадра/сек
Минимальная частота кадров : 23,810 кадра/сек
Максимальная частота кадров : 24,390 кадра/сек
Цветовое пространство : YUV
Субдискретизация насыщенности : 4:2:0
Битовая глубина : 8 бит
Тип развёртки : Прогрессивная
Бит/(Пиксели*Кадры) : 0.256
Размер потока : 11,6 Гбайт (89%)
Библиотека кодирования : x264 core 157 r2935 545de2f
Настройки программы : cabac=1 / ref=4 / deblock=1:-3:-3 / analyse=0x3:0x133 / me=umh / subme=10 / psy=1 / psy_rd=1.00:0.00 / mixed_ref=1 / me_range=32 / chroma_me=1 / trellis=2 / 8x8dct=1 / cqm=0 / deadzone=21,11 / fast_pskip=0 / chroma_qp_offset=-2 / threads=12 / lookahead_threads=2 / sliced_threads=0 / nr=0 / decimate=0 / interlaced=0 / bluray_compat=0 / constrained_intra=0 / bframes=8 / b_pyramid=2 / b_adapt=2 / b_bias=0 / direct=3 / weightb=1 / open_gop=0 / weightp=2 / keyint=240 / keyint_min=24 / scenecut=40 / intra_refresh=0 / rc_lookahead=60 / rc=crf / mbtree=0 / crf=17.5 / qcomp=0.75 / qpmin=0 / qpmax=69 / qpstep=4 / vbv_maxrate=62500 / vbv_bufsize=78125 / crf_max=0.0 / nal_hrd=none / filler=0 / ip_ratio=1.40 / pb_ratio=1.30 / aq=2:1.00
Язык : English
Дата кодирования : UTC 2019-10-02 09:50:33
Дата пометки : UTC 2019-10-02 09:58:13
Цветовой диапазон : Limited
Основные цвета : BT.709
Характеристики трансфера : BT.709
Коэффициенты матрицы : BT.709
Menus : 9,10
Codec configuration box : avcC

Видео #2
Идентификатор : 10
Формат : JPEG
Идентификатор кодека : jpeg
Продолжительность : 2 ч. 27 м.
Вид битрейта : Переменный
Битрейт : 846 бит/сек
Ширина : 640 пикселей
Высота : 320 пикселей
Соотношение сторон : 2,000
Режим частоты кадров : Переменный
Частота кадров : 0,002 кадр/сек
Минимальная частота кадров : 0,001 кадр/сек
Максимальная частота кадров : 0,003 кадр/сек
Цветовое пространство : YUV
Субдискретизация насыщенности : 4:2:0
Битовая глубина : 8 бит
Метод сжатия : С потерями
Бит/(Пиксели*Кадры) : 2.065
Размер потока : 826 Кбайт (0%)
Язык : English
Default : Нет
Дата кодирования : UTC 2019-10-02 09:58:33
Дата пометки : UTC 2019-10-02 09:58:33
Menu For : 1
ColorSpace_ICC : RGB

Аудио #1
Идентификатор : 2
Формат : AAC LC
Формат/Информация : Advanced Audio Codec Low Complexity
Идентификатор кодека : mp4a-40-2
Продолжительность : 2 ч. 27 м.
Вид битрейта : Переменный
Битрейт : 164 Кбит/сек
Максимальный битрейт : 255 Кбит/сек
Каналы : 2 канала
Channel layout : L R
Частота : 48,0 КГц
Частота кадров : 46,875 кадров/сек (1024 SPF)
Метод сжатия : С потерями
Размер потока : 172 Мбайт (1%)
Язык : Russian
Default : Да
Alternate group : 1
Дата кодирования : UTC 2019-10-02 09:50:33
Дата пометки : UTC 2019-10-02 09:58:13
Fallback From : 4
tagc : public.main-program-content

Аудио #2
Идентификатор : 3
Формат : AAC LC
Формат/Информация : Advanced Audio Codec Low Complexity
Идентификатор кодека : mp4a-40-2
Продолжительность : 2 ч. 27 м.
Вид битрейта : Переменный
Битрейт : 162 Кбит/сек
Максимальный битрейт : 266 Кбит/сек
Каналы : 2 канала
Channel layout : L R
Частота : 48,0 КГц
Частота кадров : 46,875 кадров/сек (1024 SPF)
Метод сжатия : С потерями
Размер потока : 170 Мбайт (1%)
Язык : English
Default : Нет
Alternate group : 1
Дата кодирования : UTC 2019-10-02 09:50:33
Дата пометки : UTC 2019-10-02 09:58:13
Fallback From : 5
tagc : public.main-program-content

Аудио #3
Идентификатор : 4
Формат : AC-3
Формат/Информация : Audio Coding 3
Коммерческое название : Dolby Digital
Идентификатор кодека : ac-3
Продолжительность : 2 ч. 27 м.
Вид битрейта : Постоянный
Битрейт : 384 Кбит/сек
Каналы : 6 каналов
Channel layout : L R C LFE Ls Rs
Частота : 48,0 КГц
Частота кадров : 31,250 кадров/сек (1536 SPF)
Битовая глубина : 16 бит
Метод сжатия : С потерями
Размер потока : 404 Мбайт (3%)
Язык : Russian
Service kind : Complete Main
Default : Inherited From: 2
Alternate group : 1
Дата кодирования : UTC 2019-10-02 09:50:33
Дата пометки : UTC 2019-10-02 09:58:13
Fallback To : 2
tagc : public.main-program-content

Аудио #4
Идентификатор : 5
Формат : AC-3
Формат/Информация : Audio Coding 3
Коммерческое название : Dolby Digital
Идентификатор кодека : ac-3
Продолжительность : 2 ч. 27 м.
Вид битрейта : Постоянный
Битрейт : 640 Кбит/сек
Каналы : 6 каналов
Channel layout : L R C LFE Ls Rs
Частота : 48,0 КГц
Частота кадров : 31,250 кадров/сек (1536 SPF)
Битовая глубина : 16 бит
Метод сжатия : С потерями
Размер потока : 673 Мбайт (5%)
Язык : English
Service kind : Complete Main
Default : Нет
Alternate group : 1
Дата кодирования : UTC 2019-10-02 09:50:33
Дата пометки : UTC 2019-10-02 09:58:13
Fallback To : 3
tagc : public.main-program-content

Текст #1
Идентификатор : 6
Формат : Timed Text
Режим смешивания : sbtl
Идентификатор кодека : tx3g
Продолжительность : 2 ч. 22 м.
Вид битрейта : Переменный
Битрейт : 64 бит/сек
Размер потока : 66,7 Кбайт (0%)
Язык : Russian
Default : Да
Forced : Нет
Alternate group : 2
Дата кодирования : UTC 2019-10-02 09:50:33
Дата пометки : UTC 2019-10-02 09:58:13
tagc : public.main-program-content

Текст #2
Идентификатор : 7
Формат : Timed Text
Режим смешивания : sbtl
Идентификатор кодека : tx3g
Продолжительность : 2 ч. 13 м.
Вид битрейта : Переменный
Битрейт : 45 бит/сек
Размер потока : 43,7 Кбайт (0%)
Язык : English
Default : Нет
Forced : Нет
Alternate group : 2
Дата кодирования : UTC 2019-10-02 09:50:33
Дата пометки : UTC 2019-10-02 09:58:13
tagc : public.main-program-content

Текст #3
Идентификатор : 8
Формат : Timed Text
Режим смешивания : sbtl
Идентификатор кодека : tx3g
Продолжительность : 2 ч. 26 м.
Вид битрейта : Переменный
Битрейт : 50 бит/сек
Размер потока : 53,4 Кбайт (0%)
Язык : English
Default : Нет
Forced : Нет
Alternate group : 2
Дата кодирования : UTC 2019-10-02 09:50:33
Дата пометки : UTC 2019-10-02 09:58:13
tagc : public.accessibility.transcribes-spoken-dialog

Меню
Идентификатор : 9
Идентификатор кодека : text
Продолжительность : 2 ч. 27 м.
Язык : English
Дата кодирования : UTC 2019-10-02 09:58:13
Дата пометки : UTC 2019-10-02 09:58:13
Menu For : 1
00:00:00.000 : Chapter 1
00:12:34.796 : Chapter 2
00:18:07.003 : Chapter 3
00:25:15.222 : Chapter 4
00:33:35.722 : Chapter 5
00:40:57.038 : Chapter 6
00:49:23.669 : Chapter 7
00:57:14.765 : Chapter 8
01:05:52.824 : Chapter 9
01:12:59.083 : Chapter 10
01:20:37.166 : Chapter 11
01:33:58.716 : Chapter 12
01:41:34.255 : Chapter 13
01:53:50.449 : Chapter 14
02:02:23.044 : Chapter 15
02:14:07.039 : Chapter 16


Name: Солнцестояние
Artist: Ари Астер
Media Kind: Movie
HD Video: 1080p
Genre: Ужасы
Release Date: 2019-07-18T07:00:00Z
Description: День летнего солнцестояния — древний праздник, который во всех культурах окутан мистическим ореолом. В отрезанном от цивилизованного мира шведском поселении раз в 90 лет в этот день проводится уникальный обряд. Именно туда отправляется группа молодых американских антропологов. Однако вскоре после прибытия там начинает происходить нечто необъяснимое, и под светом солнца исследователям открывается настоящая тьма...
Long Description: День летнего солнцестояния — древний праздник, который во всех культурах окутан мистическим ореолом. В отрезанном от цивилизованного мира шведском поселении раз в 90 лет в этот день проводится уникальный обряд. Именно туда отправляется группа молодых американских антропологов. Однако вскоре после прибытия там начинает происходить нечто необъяснимое, и под светом солнца исследователям открывается настоящая тьма...
Rating: ru-movie|18+|400|
Studio: B-Reel Films, Square Peg
Cast: Флоренс Пью, Джек Рейнор, Вильхельм Бломгрен, Уильям Джексон Харпер, Уилл Поултер
Director: Ари Астер
Producers: Патрик Андерссон, Ларс Кнудсен
Screenwriters: Ари Астер
Copyright: © 2019 Volga Film
content ID: 1480544004
iTunes Country: 143469

● Мидсоммар — праздник середины лета (дословно) в Швеции, или праздник летнего солнцестояния. Отмечается в ближайшую после 19 июня субботу.
● Первоначально возрастной рейтинг MPAA был NC-17, но после перемонтажа он стал R. Общий объем вырезанных сцен составил более 30 минут. Позже Ари Астер принял решение выпустить режиссерскую версию, содержащую эти сцены.
● Вдохновением для фильма послужил пережитый режиссером разрыв отношений.
● Перед съёмками фильма режиссер изучал материалы, касающиеся древних обрядов и ритуалов викингов.
● Актёр Джек Рейнор признался, что напился после съёмок сцены секса с его участием.
● На настенных фресках можно увидеть многочисленные подсказки и намёки на дальнейшее развитие событий. На них даже присутствуют изображения ритуалов, описанных в сценарии, но не попавших в окончательную версию фильма.
Скриншоты:




Все одноименные релизы в Клубе
Время раздачи: 24/7 (до появления первых 3-5 скачавших)

Релиз подготовлен для просмотра на Apple TV, iPad, iPhone, iPod Touch.
Для просмотра данного релиза на компьютере с ОС Windows рекомендуется использовать VLC media player
[NNMClub.to]_Midsommar.2019.BDRip.1080p.m4v.torrent
 Торрент:   Зарегистрирован
 
Зарегистрируйтесь и скачайте торрент!
130 KB

Примагнититься
 Зарегистрирован:   02 Окт 2019 13:24:32
 Размер:   13 GB  (
 Рейтинг:   4,7 (Голосов: 14)
 Поблагодарили:   64
 Проверка:   Оформление проверено модератором 03 Окт 2019 12:55:43
Как cкачать  ·  Как раздать  ·  Правильно оформить  ·  Поднять ратио!  

_________________
«Всё против нас, только ветер навстречу…».
🍏Apple iMac 21.5 (mid 2011) / Intel Core i5 2.7 GHz / AMD Radeon HD 6770M 512 Mb / 12GB DDR3 / Apple Trackpad, Apple Keyboard / macOS High Sierra 10.13.6 (17G8030)
Загрузка...
olster1984
Стаж: 6 лет 3 мес.
Сообщений: 6
Ratio: 1,846
1.59%
Для разнообразия отличный фильм. Хотя сюжет не нов.
DAO5
Стаж: 3 года 7 мес.
Сообщений: 704
Ratio: 7,906
Поблагодарили: 452
100%
Явная попытка зашкварить протославянские культы, закошмарив зрителя и дав негативную маркировку подобному.
Весельчак У ®
Модератор Apple
Стаж: 5 лет 10 мес.
Сообщений: 3318
Ratio: 147,664
Поблагодарили: 109557
100%
Откуда: От Москвы недалеко...
ussr.gif
Цитата:
Это очень необычный, но в то же время очень крутой хоррор от молодого постановщика Ари Астера, он кстати до этого сделал мощную «Реинкарнацию»


одна и рецензий, полностью поддерживаю...

_________________
«Всё против нас, только ветер навстречу…».
🍏Apple iMac 21.5 (mid 2011) / Intel Core i5 2.7 GHz / AMD Radeon HD 6770M 512 Mb / 12GB DDR3 / Apple Trackpad, Apple Keyboard / macOS High Sierra 10.13.6 (17G8030)
Показать сообщения:   
Начать новую тему   Ответить на тему    Торрент-трекер NNM-Club -> Аудио и Видео -> Зарубежное видео HD для устройств Apple Часовой пояс: GMT + 3
Страница 1 из 1