Классический форум-трекер
canvas not supported
Нас вместе: 4 079 113

Эбигейл (2019) WEB-DL [1080p] ATV


 
 
RSS
Начать новую тему   Ответить на тему    Торрент-трекер NNM-Club -> Аудио и Видео -> Отечественное видео HD для устройств Apple
Автор Сообщение
Весельчак У ®
Модератор Apple

Online
Стаж: 5 лет 10 мес.
Сообщений: 3361
Ratio: 147,688
Поблагодарили: 110519
100%
Откуда: От Москвы недалеко...
ussr.gif
Эбигейл (2019) WEB-DL [1080p] ATV«В мире всё не то, чем кажется»
Производство: Россия / KD Studios
Жанр: Приключения, фэнтези, семейный

Режиссер: Александр Богуславский
Продюсер: Евгений Мелентьев, Виктор Денисюк, Александр Куринский
Актеры: Тинатин Далакишвили, Эдди Марсан, Артём Ткаченко, Равшана Куркова, Риналь Мухаметов, Глеб Бочков, Марта Тимофеева, Никита Тарасов, Ксения Кутепова, Петар Зекавица

Описание:
Молодая девушка Эбигейл живет в городе, границы которого закрыли много лет назад из-за эпидемии загадочной болезни. Отец Эбби был одним из заболевших — и его забрали, когда ей было шесть лет. Пойдя наперекор властям, чтобы разыскать отца, Эбби узнает о том, что ее город на самом деле полон магии. И в ней самой пробуждаются необыкновенные магические способности…


Возраст: 6+ (зрителям, достигшим 6 лет)
Дата мировой премьеры: 23 августа 2019
Дата российской премьеры: 2 августа 2019, «Двадцатый Век Фокс СНГ»

Продолжительность: 01:46:16
Качество видео: WEB-DL 1080р
Перевод: Не требуется (русский) (iTunes)
Субтитры: Отсутствуют

Видео: H.264, 1912x796 (2.40:1), ~4522 kbps, 23.976 fps
Аудио#1: AAC, 2.0 ch, 164 Kbps - Русский, iTunes
Аудио#2: AC3, 6.0 ch, 384 Kbps - Русский, iTunes

Общее
Полное имя : /Volumes/HDD/Movies/NNMC/Abigail.2019.WEB-DL.1080p.m4v
Формат : MPEG-4
Идентификатор кодека : M4V (M4V /M4A /mp42/isom)
Размер файла : 3,77 Гбайт
Продолжительность : 1 ч. 46 м.
Режим общего битрейта : Переменный
Общий поток : 5078 Кбит/сек
Название фильма : Эбигейл
Исполнитель : Александр Богуславский
Режиссёр : Александр Богуславский
Исполнитель : Тинатин Далакишвили / Eddie Marsan / Артём Ткаченко / Равшана Куркова / Риналь Мухаметов / Глеб Бочков / Марта Тимофеева / Никита Тарасов
Сценарист : Александр Богуславский / Дмитрий Жигалов / Александра Примаченко
Продюсер : Евгений Мелентьев / Виктор Денисюк / Александр Куринский
Студия-производитель : ООО "Кей Ди Студиос"
Жанр : Боевики и приключения
Тип содержимого : Short Film
Описание : Молодая девушка Эбигейл живет в городе, границы которого закрыли много лет назад из-за эпидемии загадочной болезни. Отец Эбби был одним из заболевших — и его забрали, когда ей было шесть лет. Пойдя наперекор властям, чтобы разыскать отца, Эбби узнает о том, что ее город на самом деле полон магии.
Дата записи : UTC 2019-09-26 07:00:00
Дата кодирования : UTC 2019-10-03 06:34:14
Дата пометки : UTC 2019-10-03 06:36:52
Обложка : Yes
LongDescription : Молодая девушка Эбигейл живет в городе, границы которого закрыли много лет назад из-за эпидемии загадочной болезни. Отец Эбби был одним из заболевших — и его забрали, когда ей было шесть лет. Пойдя наперекор властям, чтобы разыскать отца, Эбби узнает о том, что ее город на самом деле полон магии.
AppleStoreCountry : Russia
AppleStoreCatalogID : 1479516745
ContentRating : ru-movie|6+|150|

Видео #1
Идентификатор : 1
Формат : AVC
Формат/Информация : Advanced Video Codec
Профиль формата : High@L4
Настройки формата : CABAC / 5 Ref Frames
Параметр CABAC формата : Да
Параметр ReFrames формата : 5 кадров
Идентификатор кодека : avc1
Идентификатор кодека/Информация : Advanced Video Coding
Продолжительность : 1 ч. 46 м.
Битрейт : 4522 Кбит/сек
Ширина : 1912 пикселей
Высота : 796 пикселей
Соотношение сторон : 2,40:1
Режим частоты кадров : Переменный
Частота кадров : 23,976 (24000/1001) кадра/сек
Минимальная частота кадров : 23,810 кадра/сек
Максимальная частота кадров : 24,390 кадра/сек
Цветовое пространство : YUV
Субдискретизация насыщенности : 4:2:0
Битовая глубина : 8 бит
Тип развёртки : Прогрессивная
Бит/(Пиксели*Кадры) : 0.124
Размер потока : 3,36 Гбайт (89%)
Язык : Russian
Дата кодирования : UTC 2019-10-03 06:34:14
Дата пометки : UTC 2019-10-03 06:36:46
Цветовой диапазон : Limited
Основные цвета : BT.709
Характеристики трансфера : BT.709
Коэффициенты матрицы : BT.709
Menus : 4,5
Codec configuration box : avcC

Видео #2
Идентификатор : 5
Формат : JPEG
Идентификатор кодека : jpeg
Продолжительность : 1 ч. 46 м.
Вид битрейта : Переменный
Битрейт : 454 бит/сек
Ширина : 640 пикселей
Высота : 266 пикселей
Соотношение сторон : 2,40:1
Режим частоты кадров : Переменный
Частота кадров : 0,002 кадр/сек
Минимальная частота кадров : 0,001 кадр/сек
Максимальная частота кадров : 0,005 кадр/сек
Цветовое пространство : YUV
Субдискретизация насыщенности : 4:2:0
Битовая глубина : 8 бит
Метод сжатия : С потерями
Бит/(Пиксели*Кадры) : 1.333
Размер потока : 332 Кбайт (0%)
Язык : Russian
Default : Нет
Дата кодирования : UTC 2019-10-03 06:36:51
Дата пометки : UTC 2019-10-03 06:36:52
Menu For : 1
ColorSpace_ICC : RGB

Аудио #1
Идентификатор : 2
Формат : AAC LC
Формат/Информация : Advanced Audio Codec Low Complexity
Идентификатор кодека : mp4a-40-2
Продолжительность : 1 ч. 46 м.
Вид битрейта : Переменный
Битрейт : 164 Кбит/сек
Максимальный битрейт : 243 Кбит/сек
Каналы : 2 канала
Channel layout : L R
Частота : 48,0 КГц
Частота кадров : 46,875 кадров/сек (1024 SPF)
Метод сжатия : С потерями
Размер потока : 125 Мбайт (3%)
Язык : Russian
Default : Да
Alternate group : 1
Дата кодирования : UTC 2019-10-03 06:34:14
Дата пометки : UTC 2019-10-03 06:36:46
Fallback From : 3
tagc : public.main-program-content

Аудио #2
Идентификатор : 3
Формат : AC-3
Формат/Информация : Audio Coding 3
Коммерческое название : Dolby Digital
Идентификатор кодека : ac-3
Продолжительность : 1 ч. 46 м.
Вид битрейта : Постоянный
Битрейт : 384 Кбит/сек
Каналы : 6 каналов
Channel layout : L R C LFE Ls Rs
Частота : 48,0 КГц
Частота кадров : 31,250 кадров/сек (1536 SPF)
Битовая глубина : 16 бит
Метод сжатия : С потерями
Размер потока : 292 Мбайт (8%)
Язык : Russian
Service kind : Complete Main
Default : Inherited From: 2
Alternate group : 1
Дата кодирования : UTC 2019-10-03 06:34:14
Дата пометки : UTC 2019-10-03 06:36:46
Fallback To : 2
tagc : public.main-program-content

Меню
Идентификатор : 4
Идентификатор кодека : text
Продолжительность : 1 ч. 46 м.
Язык : English
Дата кодирования : UTC 2019-10-03 06:36:47
Дата пометки : UTC 2019-10-03 06:36:47
Menu For : 1
00:00:00.000 : 1
00:03:49.000 : 2
00:13:26.000 : 3
00:22:22.000 : 4
00:30:47.000 : 5
00:39:39.999 : 6
00:50:22.000 : 7
01:00:15.000 : 8
01:10:39.000 : 9
01:21:18.000 : 10
01:30:58.000 : 11
01:42:38.000 : 12


Name: Эбигейл
Artist: Александр Богуславский
Media Kind: Movie
HD Video: 1080p
Genre: Боевики и приключения
Release Date: 2019-09-26T07:00:00Z
Description: Молодая девушка Эбигейл живет в городе, границы которого закрыли много лет назад из-за эпидемии загадочной болезни. Отец Эбби был одним из заболевших — и его забрали, когда ей было шесть лет. Пойдя наперекор властям, чтобы разыскать отца, Эбби узнает о том, что ее город на самом деле полон магии.
Long Description: Молодая девушка Эбигейл живет в городе, границы которого закрыли много лет назад из-за эпидемии загадочной болезни. Отец Эбби был одним из заболевших — и его забрали, когда ей было шесть лет. Пойдя наперекор властям, чтобы разыскать отца, Эбби узнает о том, что ее город на самом деле полон магии.
Rating: ru-movie|6+|150|
Studio: ООО "Кей Ди Студиос"
Cast: Тинатин Далакишвили, Eddie Marsan, Артём Ткаченко, Равшана Куркова, Риналь Мухаметов, Глеб Бочков, Марта Тимофеева, Никита Тарасов
Director: Александр Богуславский
Producers: Евгений Мелентьев, Виктор Денисюк, Александр Куринский
Screenwriters: Александр Богуславский, Дмитрий Жигалов, Александра Примаченко
content ID: 1479516745
iTunes Country: 143469

Скриншоты:


Все одноименные релизы в Клубе
Время раздачи: 24/7 (до появления первых 3-5 скачавших)

Релиз подготовлен для просмотра на Apple TV, iPad, iPhone, iPod Touch.
Для просмотра данного релиза на компьютере с ОС Windows рекомендуется использовать VLC media player
[NNMClub.to]_Abigail.2019.WEB-DL.1080p.m4v.torrent
 Торрент: Золотая раздача  Зарегистрирован
 
Зарегистрируйтесь и скачайте торрент!
37,9 KB
Free Leech
Примагнититься
 Зарегистрирован:   03 Окт 2019 09:44:28
 Размер:   3,77 GB  (
 Рейтинг:   4,5 (Голосов: 20)
 Поблагодарили:   85
 Проверка:   Оформление проверено модератором 03 Окт 2019 12:59:42
Как cкачать  ·  Как раздать  ·  Правильно оформить  ·  Поднять ратио!  

_________________
«Всё против нас, только ветер навстречу…».
🍏Apple iMac 21.5 (mid 2011) / Intel Core i5 2.7 GHz / AMD Radeon HD 6770M 512 Mb / 12GB DDR3 / Apple Trackpad, Apple Keyboard / macOS High Sierra 10.13.6 (17G8030)
Dobryak13
Стаж: 8 лет 10 мес.
Сообщений: 45
Ratio: 1,818
100%
Откуда: kazakhstan
kazakhstan.gif
Бред.
Показать сообщения:   
Начать новую тему   Ответить на тему    Торрент-трекер NNM-Club -> Аудио и Видео -> Отечественное видео HD для устройств Apple Часовой пояс: GMT + 3
Страница 1 из 1