Классический форум-трекер
canvas not supported
Нас вместе: 4 079 059

Ода к радости / Ode to Joy (2019) WEB-DL [1080p] ATV (MVO)


 
 
RSS
Начать новую тему   Ответить на тему    Торрент-трекер NNM-Club -> Аудио и Видео -> Зарубежное видео HD для устройств Apple
Автор Сообщение
Весельчак У ®
Модератор Apple
Стаж: 5 лет 10 мес.
Сообщений: 3303
Ratio: 147,666
Поблагодарили: 108966
100%
Откуда: От Москвы недалеко...
ussr.gif
Ода к радости / Ode to Joy (2019) WEB-DL [1080p] ATV«He's never been happier. And that's the problem»
Производство: США / Mosaic
Жанр: Комедия

Режиссер: Джейсон Уайнер
Продюсер: Майк Фолбо, Ира Гласс, Майкл Ласкер
Актеры: Морена Баккарин, Мелисса Рауш, Мартин Фриман, Джейк Лэси, Шеннон Мари Вудворд, Джейн Куртин, Джеки Сейден, Адам Шапиро, Эллис Рубин, Эд Хербстман

Описание:
Рухнуть в обморок на свадьбе друзей — только бедолага Чарли способен на такое: любые сильные (и особенно положительные!) переживания моментально отправляют его в забытье. Разве это жизнь — в постоянной заботе о том, чтобы «не почувствовать лишнего»? Совсем трудно становится, когда Чарли знакомится с красавицей Франческой, абсолютной девушкой своей мечты. Трудно осуществить мечту, если любовь и радость — то, что тебе запрещено по медицинским показаниям…


Возраст: 18+ (зрителям, достигшим 18 лет. запрещено для детей)
Рейтинг MPAA: R (лицам до 17 лет обязательно присутствие взрослого)
Дата мировой премьеры: 4 апреля 2019

Продолжительность: 01:37:42
Качество видео: WEB-DL 1080р
Перевод: Профессиональный многоголосый (iTunes)
Субтитры: Русские (Forced, full), английские

Видео: H.264, 1920x790 (2.40:1), ~4587 kbps, 23.976 fps
Аудио#1: AAC, 2.0 ch, 160 Kbps - Русский MVO, iTunes
Аудио#2: AAC, 2.0 ch, 160 Kbps - English, Original
Аудио#3: AC3, 6.0 ch, 384 Kbps - Русский MVO, iTunes
Аудио#4: AC3, 6.0 ch, 384 Kbps - English, Original

Общее
Полное имя : /Volumes/HDD/Movies/NNMC/Ode.to.Joy.2019.WEB-DL.1080p.m4v
Формат : MPEG-4
Идентификатор кодека : M4V (M4V /M4A /mp42/isom)
Размер файла : 3,88 Гбайт
Продолжительность : 1 ч. 37 м.
Режим общего битрейта : Переменный
Общий поток : 5679 Кбит/сек
Название фильма : Ода Радости
Исполнитель : Jason Winer
Режиссёр : Jason Winer
Исполнитель : Martin Freeman / Morena Baccarin / Jake Lacy / Melissa Rauch
Сценарист : Max Werner
Продюсер : Jason Winer / Mike Falbo / Ira Glass / Michael Lasker / Jimmy Miller / Alissa Shipp / Pamela Thur
Студия-производитель : Mosaic
Жанр : Комедии
Тип содержимого : Short Film
Описание : Библиотекарь из Бруклина Чарли страдает редким заболеванием — катаплексией. Чаще всего приступы вызывает радость, поэтому главный герой пытается оградиться от чрезмерных, в том числе и положительных, эмоций. За свою жизнь Чарли научился контролировать свои чувства, избегая событий, которые могут привести его к приступу паралича. Но однажды Чарли встречает Франческу, которая влюбляется в него. И жизнь Чарли меняется.
Дата записи : UTC 2019-10-07 07:00:00
Дата кодирования : UTC 2019-10-09 18:33:17
Дата пометки : UTC 2019-10-09 18:35:59
Авторское право : © 2019 Pursuit of Unhappiness The Movie, LLC.
Обложка : Yes
LongDescription : Библиотекарь из Бруклина Чарли страдает редким заболеванием — катаплексией. Чаще всего приступы вызывает радость, поэтому главный герой пытается оградиться от чрезмерных, в том числе и положительных, эмоций. За свою жизнь Чарли научился контролировать свои чувства, избегая событий, которые могут привести его к приступу паралича. Но однажды Чарли встречает Франческу, которая влюбляется в него. И жизнь Чарли меняется.
AppleStoreCountry : Russia
AppleStoreCatalogID : 1479150095
ContentRating : ru-movie|16+|375|

Видео #1
Идентификатор : 1
Формат : AVC
Формат/Информация : Advanced Video Codec
Профиль формата : High@L4
Настройки формата : CABAC / 5 Ref Frames
Параметр CABAC формата : Да
Параметр ReFrames формата : 5 кадров
Идентификатор кодека : avc1
Идентификатор кодека/Информация : Advanced Video Coding
Продолжительность : 1 ч. 37 м.
Битрейт : 4587 Кбит/сек
Ширина : 1920 пикселей
Высота : 790 пикселей
Соотношение сторон : 2,40:1
Режим частоты кадров : Переменный
Частота кадров : 23,976 (23976/1000) кадра/сек
Минимальная частота кадров : 23,810 кадра/сек
Максимальная частота кадров : 24,390 кадра/сек
Цветовое пространство : YUV
Субдискретизация насыщенности : 4:2:0
Битовая глубина : 8 бит
Тип развёртки : Прогрессивная
Бит/(Пиксели*Кадры) : 0.126
Размер потока : 3,13 Гбайт (81%)
Язык : English
Дата кодирования : UTC 2019-10-09 18:33:17
Дата пометки : UTC 2019-10-09 18:35:54
Цветовой диапазон : Limited
Основные цвета : BT.709
Характеристики трансфера : BT.709
Коэффициенты матрицы : BT.709
Menus : 9,10
Codec configuration box : avcC

Видео #2
Идентификатор : 10
Формат : JPEG
Идентификатор кодека : jpeg
Продолжительность : 1 ч. 37 м.
Вид битрейта : Переменный
Битрейт : 261 бит/сек
Ширина : 640 пикселей
Высота : 263 пикселя
Соотношение сторон : 2,40:1
Режим частоты кадров : Переменный
Частота кадров : 0,001 кадр/сек
Минимальная частота кадров : 0,001 кадр/сек
Максимальная частота кадров : 0,003 кадр/сек
Цветовое пространство : YUV
Субдискретизация насыщенности : 4:2:0
Битовая глубина : 8 бит
Метод сжатия : С потерями
Бит/(Пиксели*Кадры) : 1.551
Размер потока : 255 Кбайт (0%)
Язык : English
Default : Нет
Дата кодирования : UTC 2019-10-09 18:35:59
Дата пометки : UTC 2019-10-09 18:35:59
Menu For : 1
ColorSpace_ICC : RGB

Аудио #1
Идентификатор : 2
Формат : AAC LC
Формат/Информация : Advanced Audio Codec Low Complexity
Идентификатор кодека : mp4a-40-2
Продолжительность : 1 ч. 37 м.
Вид битрейта : Переменный
Битрейт : 158 Кбит/сек
Максимальный битрейт : 242 Кбит/сек
Каналы : 2 канала
Channel layout : L R
Частота : 48,0 КГц
Частота кадров : 46,875 кадров/сек (1024 SPF)
Метод сжатия : С потерями
Размер потока : 111 Мбайт (3%)
Язык : Russian
Default : Да
Alternate group : 1
Дата кодирования : UTC 2019-10-09 18:33:17
Дата пометки : UTC 2019-10-09 18:35:54
Fallback From : 4
tagc : public.main-program-content

Аудио #2
Идентификатор : 3
Формат : AAC LC
Формат/Информация : Advanced Audio Codec Low Complexity
Идентификатор кодека : mp4a-40-2
Продолжительность : 1 ч. 37 м.
Вид битрейта : Переменный
Битрейт : 157 Кбит/сек
Максимальный битрейт : 242 Кбит/сек
Каналы : 2 канала
Channel layout : L R
Частота : 48,0 КГц
Частота кадров : 46,875 кадров/сек (1024 SPF)
Метод сжатия : С потерями
Размер потока : 109 Мбайт (3%)
Язык : English
Default : Нет
Alternate group : 1
Дата кодирования : UTC 2019-10-09 18:33:17
Дата пометки : UTC 2019-10-09 18:35:54
Fallback From : 5
tagc : public.main-program-content

Аудио #3
Идентификатор : 4
Формат : AC-3
Формат/Информация : Audio Coding 3
Коммерческое название : Dolby Digital
Идентификатор кодека : ac-3
Продолжительность : 1 ч. 37 м.
Вид битрейта : Постоянный
Битрейт : 384 Кбит/сек
Каналы : 6 каналов
Channel layout : L R C LFE Ls Rs
Частота : 48,0 КГц
Частота кадров : 31,250 кадров/сек (1536 SPF)
Битовая глубина : 16 бит
Метод сжатия : С потерями
Размер потока : 268 Мбайт (7%)
Язык : Russian
Service kind : Complete Main
Default : Inherited From: 2
Alternate group : 1
Дата кодирования : UTC 2019-10-09 18:33:17
Дата пометки : UTC 2019-10-09 18:35:54
Fallback To : 2
tagc : public.main-program-content

Аудио #4
Идентификатор : 5
Формат : AC-3
Формат/Информация : Audio Coding 3
Коммерческое название : Dolby Digital
Идентификатор кодека : ac-3
Продолжительность : 1 ч. 37 м.
Вид битрейта : Постоянный
Битрейт : 384 Кбит/сек
Каналы : 6 каналов
Channel layout : L R C LFE Ls Rs
Частота : 48,0 КГц
Частота кадров : 31,250 кадров/сек (1536 SPF)
Битовая глубина : 16 бит
Метод сжатия : С потерями
Размер потока : 268 Мбайт (7%)
Язык : English
Service kind : Complete Main
Default : Нет
Alternate group : 1
Дата кодирования : UTC 2019-10-09 18:33:17
Дата пометки : UTC 2019-10-09 18:35:54
Fallback To : 3
tagc : public.main-program-content

Текст #1
Идентификатор : 6
Формат : Timed Text
Режим смешивания : sbtl
Идентификатор кодека : tx3g
Продолжительность : 1 ч. 37 м.
Вид битрейта : Переменный
Битрейт : 1 бит/сек
Размер потока : 563 байт (0%)
Язык : Russian
Default : Да
Forced : Нет
Alternate group : 2
Дата кодирования : UTC 2019-10-09 18:33:17
Дата пометки : UTC 2019-10-09 18:35:54
tagc : public.subtitles.forced-only

Текст #2
Идентификатор : 7
Формат : Timed Text
Режим смешивания : sbtl
Идентификатор кодека : tx3g
Продолжительность : 1 ч. 37 м.
Вид битрейта : Переменный
Битрейт : 117 бит/сек
Размер потока : 83,4 Кбайт (0%)
Язык : Russian
Default : Нет
Forced : Нет
Alternate group : 2
Дата кодирования : UTC 2019-10-09 18:33:17
Дата пометки : UTC 2019-10-09 18:35:55
tagc : public.main-program-content

Текст #3
Идентификатор : 8
Формат : Timed Text
Режим смешивания : sbtl
Идентификатор кодека : tx3g
Продолжительность : 1 ч. 30 м.
Вид битрейта : Переменный
Битрейт : 91 бит/сек
Размер потока : 59,8 Кбайт (0%)
Язык : English
Default : Нет
Forced : Нет
Alternate group : 2
Дата кодирования : UTC 2019-10-09 18:33:17
Дата пометки : UTC 2019-10-09 18:35:55
tagc : public.main-program-content

Меню
Идентификатор : 9
Идентификатор кодека : text
Продолжительность : 1 ч. 37 м.
Язык : English
Дата кодирования : UTC 2019-10-09 18:35:55
Дата пометки : UTC 2019-10-09 18:35:55
Вид битрейта : CBR
Menu For : 1
00:00:00.000 : 1
00:15:48.865 : 2
00:36:14.882 : 3
00:48:10.389 : 4
00:56:34.976 : 5
01:10:34.649 : 6
01:20:08.972 : 7
01:31:39.578 : 8
Вид битрейта : Постоянный


Name: Ода Радости
Artist: Jason Winer
Media Kind: Movie
HD Video: 1080p
Genre: Комедии
Release Date: 2019-10-07T07:00:00Z
Description: Библиотекарь из Бруклина Чарли страдает редким заболеванием — катаплексией. Чаще всего приступы вызывает радость, поэтому главный герой пытается оградиться от чрезмерных, в том числе и положительных, эмоций. За свою жизнь Чарли научился контролировать свои чувства, избегая событий, которые могут привести его к приступу паралича. Но однажды Чарли встречает Франческу, которая влюбляется в него. И жизнь Чарли меняется.
Long Description: Библиотекарь из Бруклина Чарли страдает редким заболеванием — катаплексией. Чаще всего приступы вызывает радость, поэтому главный герой пытается оградиться от чрезмерных, в том числе и положительных, эмоций. За свою жизнь Чарли научился контролировать свои чувства, избегая событий, которые могут привести его к приступу паралича. Но однажды Чарли встречает Франческу, которая влюбляется в него. И жизнь Чарли меняется.
Rating: ru-movie|16+|375|
Studio: Mosaic
Cast: Martin Freeman, Morena Baccarin, Jake Lacy, Melissa Rauch
Director: Jason Winer
Producers: Jason Winer, Mike Falbo, Ira Glass, Michael Lasker, Jimmy Miller, Alissa Shipp, Pamela Thur
Screenwriters: Max Werner
Copyright: © 2019 Pursuit of Unhappiness The Movie, LLC.
content ID: 1479150095
iTunes Country: 143469

Скриншоты:


Все одноименные релизы в Клубе
Время раздачи: 24/7 (до появления первых 3-5 скачавших)

Релиз подготовлен для просмотра на Apple TV, iPad, iPhone, iPod Touch.
Для просмотра данного релиза на компьютере с ОС Windows рекомендуется использовать VLC media player
[NNMClub.to]_Ode.to.Joy.2019.WEB-DL.1080p.m4v.torrent
 Торрент:   Зарегистрирован
 
Зарегистрируйтесь и скачайте торрент!
39 KB

Примагнититься
 Зарегистрирован:   09 Окт 2019 21:45:07
 Размер:   3,88 GB  (
 Рейтинг:   4,9 (Голосов: 11)
 Поблагодарили:   44
 Проверка:   Оформление проверено модератором 14 Окт 2019 07:50:18
Как cкачать  ·  Как раздать  ·  Правильно оформить  ·  Поднять ратио!  

_________________
«Всё против нас, только ветер навстречу…».
🍏Apple iMac 21.5 (mid 2011) / Intel Core i5 2.7 GHz / AMD Radeon HD 6770M 512 Mb / 12GB DDR3 / Apple Trackpad, Apple Keyboard / macOS High Sierra 10.13.6 (17G8030)
Загрузка...
bilarti
Стаж: 6 лет 10 мес.
Сообщений: 331
Ratio: 2,742
100%
Актёры прекрасные, а вот фильм к сожалению средненький ИМХО.
uH,D,eeLl,

Online
Стаж: 8 лет 4 мес.
Сообщений: 89
Ratio: 4,337
3.52%
отличный фильм оригинальная задумка!!!
Показать сообщения:   
Начать новую тему   Ответить на тему    Торрент-трекер NNM-Club -> Аудио и Видео -> Зарубежное видео HD для устройств Apple Часовой пояс: GMT + 3
Страница 1 из 1