Классический форум-трекер
canvas not supported
Нас вместе: 4 083 681
Платим за отзывы

Fairy Gone 2 / Пропавшие феи 2 [2019, TV, 9 из 12] WEBRip 720p raw


 
 
RSS
Начать новую тему   Ответить на тему    Торрент-трекер NNM-Club -> Аниме с субтитрами -> Онгоинги
Автор Сообщение
kvaking ®
RG Аниме
Uploader 100+
 
Стаж: 9 лет 3 мес.
Сообщений: 2532
Ratio: 213,58
Раздал: 340,9 TB
Поблагодарили: 16718
100%
Откуда: Осака
roody.gif
フェアリーゴーン 2
Fairy Gone 2
Пропавшие феи 2

Жанр: приключения, боевик, фэнтези
Количество серий: 9 из 12
Продолжительность: 12 серий по 25 мин
Качество видео: WEBRip
Дата премьеры / период выхода: c 07.10.2019

Производство/студия:

Сценарист: Дзюмондзи Ао
Режиссер: Судзуки Кэнъити

Битрейт видео: ~3 352 kb/s
Размер кадра: 1280х720
Аудио: AAC 192 Kbps
Язык озвучки: Японский
Язык субтитров: Английский [Crunchyroll], Русский [YakuSub Studio].

Описание:
Описание на первый сезон.

В мире аниме существуют феи, которые вселяются в тела животных и образуют с ними симбиоз, наделяя животных невероятными силами. А люди научились использовать эту местную особенность экстравагантным способом: они пересаживают органы животных людям, в результате чего прошедший операцию получает способность частично призывать фей и использовать их как оружие. Само собой, подобные «солдаты-феи» получают военное применение, но когда длительная война всё-таки подходит к концу, встаёт вопрос о реинтеграции таких граждан в общество. И для каждого из них находится своё место: кто-то получает правительственную должность, кто-то начинает работать на мафию, кто-то и вовсе становится террористом. Действие сериала начинается через девять лет после завершения войны, а в центре сюжета оказывается Мария — новый рекрут организации «Доротея», занимающейся расследованием преступлений, связанных с феями, и их подавлением.


Ссылки:

Скриншоты:
01. Преступление звуков дождя и наказание белого снега
02. Замок-препятствие
03. Очистка закоулков
04. Громкий смех коршуна
05. Балансируя на песке
06. Танцующая мышь и сломанный рог
07. Печальные голоса и чёрная книга
08. Лес начала
09. Заржавевший воин и неподдающаяся дверь
Код: выделить все
General
Unique ID                      : 42762686734223480751232818965190293738 (0x202BCB3C44FC35992BD3BF62EE8038EA)
Complete name                  : E:\Fairy Gone 2\[Erai-raws] Fairy Gone 2nd Season - 01 [720p].mkv
Format                         : Matroska
Format version                 : Version 4
File size                      : 571 MiB
Duration                       : 23 min 48 s
Overall bit rate               : 3 352 kb/s
Encoded date                   : UTC 2019-10-06 16:23:19
Writing application            : mkvmerge v34.0.0 ('Sight and Seen') 64-bit
Writing library                : libebml v1.3.7 + libmatroska v1.5.0

Video
ID                             : 2
Format                         : AVC
Format/Info                    : Advanced Video Codec
Format profile                 : Main@L3.1
Format settings                : CABAC / 4 Ref Frames
Format settings, CABAC         : Yes
Format settings, Reference fra : 4 frames
Codec ID                       : V_MPEG4/ISO/AVC
Duration                       : 23 min 48 s
Bit rate                       : 3 096 kb/s
Nominal bit rate               : 3 500 kb/s
Width                          : 1 280 pixels
Height                         : 720 pixels
Display aspect ratio           : 16:9
Frame rate mode                : Constant
Frame rate                     : 23.976 (24000/1001) FPS
Color space                    : YUV
Chroma subsampling             : 4:2:0
Bit depth                      : 8 bits
Scan type                      : Progressive
Bits/(Pixel*Frame)             : 0.140
Stream size                    : 527 MiB (92%)
Title                          : Funimation
Writing library                : x264 core 157 r2948 dada181
Encoding settings              : cabac=1 / ref=1 / deblock=1:0:0 / analyse=0x1:0x111 / me=hex / subme=7 / psy=1 / psy_rd=1.00:0.00 / mixed_ref=0 / me_range=16 / chroma_me=1 / trellis=1 / 8x8dct=0 / cqm=0 / deadzone=21,11 / fast_pskip=1 / chroma_qp_offset=-2 / threads=22 / lookahead_threads=3 / sliced_threads=0 / nr=0 / decimate=1 / interlaced=0 / bluray_compat=0 / constrained_intra=0 / bframes=2 / b_pyramid=2 / b_adapt=1 / b_bias=0 / direct=1 / weightb=1 / open_gop=0 / weightp=2 / keyint=48 / keyint_min=4 / scenecut=40 / intra_refresh=0 / rc_lookahead=40 / rc=cbr / mbtree=1 / bitrate=3500 / ratetol=1.0 / qcomp=0.60 / qpmin=0 / qpmax=69 / qpstep=4 / vbv_maxrate=3500 / vbv_bufsize=10500 / nal_hrd=none / filler=0 / ip_ratio=1.40 / aq=1:1.00
Default                        : Yes
Forced                         : No

Audio
ID                             : 3
Format                         : AAC LC
Format/Info                    : Advanced Audio Codec Low Complexity
Codec ID                       : A_AAC-2
Duration                       : 23 min 48 s
Bit rate                       : 253 kb/s
Channel(s)                     : 2 channels
Channel layout                 : L R
Sampling rate                  : 48.0 kHz
Frame rate                     : 46.875 FPS (1024 SPF)
Compression mode               : Lossy
Delay relative to video        : -43 ms
Stream size                    : 43.1 MiB (8%)
Language                       : Japanese
Default                        : Yes
Forced                         : No

Text
ID                             : 1
Format                         : ASS
Codec ID                       : S_TEXT/ASS
Codec ID/Info                  : Advanced Sub Station Alpha
Duration                       : 23 min 38 s
Bit rate                       : 82 b/s
Count of elements              : 269
Compression mode               : Lossless
Stream size                    : 14.3 KiB (0%)
Language                       : English
Default                        : Yes
Forced                         : No
Так же на трекере:
Fairy Gone (первый сезон): HDTV 720p raw.

Время раздачи: 24/7
[NNMClub.to]_Fairy Gone 2.torrent
 Торрент:   Зарегистрирован
 
Зарегистрируйтесь и скачайте торрент!
26,8 KB

Примагнититься
 Зарегистрирован:   02 Дек 2019 07:19:27
 Размер:   5,03 GB  (
 Рейтинг:   5 (Голосов: 11)
 Поблагодарили:   38
 Проверка:   Оформление проверено модератором 02 Дек 2019 11:41:21
Не забывайте поблагодарить релизера, нажав на клавишу Спасибо!
Вам не сложно, а мне приятно. =)
Как cкачать  ·  Как раздать  ·  Правильно оформить  ·  Поднять ратио!  

_________________

[Double-Raws] - Да начнётся война за качество!
Тестер нового формата.
Loading...
ElSwanko
Куратор Аниме
Модератор Музыки
Стаж: 13 лет 2 мес.
Сообщений: 13913
Ratio: 894,028
Поблагодарили: 57130
100%
Откуда: ур-пространство преконтинуума
roody.gif
Да, на работе позавчера как раз фейри закончился на кухне Т_Т

_________________
Правила: Аниме, Манга, OST || Музыка
Помощь: Скриншоты || MediaInfo || auCDtect
kvaking ®
RG Аниме
Uploader 100+
 
Стаж: 9 лет 3 мес.
Сообщений: 2532
Ratio: 213,58
Раздал: 340,9 TB
Поблагодарили: 16718
100%
Откуда: Осака
roody.gif
ElSwanko
Жиза... T_T

_________________

[Double-Raws] - Да начнётся война за качество!
Тестер нового формата.
ElSwanko
Куратор Аниме
Модератор Музыки
Стаж: 13 лет 2 мес.
Сообщений: 13913
Ratio: 894,028
Поблагодарили: 57130
100%
Откуда: ур-пространство преконтинуума
roody.gif
Жизнь жестокая штука, щито поделать, десу ^_^

_________________
Правила: Аниме, Манга, OST || Музыка
Помощь: Скриншоты || MediaInfo || auCDtect
Maxu6a
Стаж: 2 мес. 26 дней
Сообщений: 92
Ratio: 2,421
Раздал: 157 GB
100%
Откуда: brest
belarus.gif
А чего кол-во серий указано 2 если вроде пока только 1? Похоже автор слишком увлекся заменой единичек из первого сезона на двоечки из второго =)

 !  Примечание от ElSwanko:
Спасибо, fixed
kvaking ®
RG Аниме
Uploader 100+
 
Стаж: 9 лет 3 мес.
Сообщений: 2532
Ratio: 213,58
Раздал: 340,9 TB
Поблагодарили: 16718
100%
Откуда: Осака
roody.gif
+2 Дозо! =)

_________________

[Double-Raws] - Да начнётся война за качество!
Тестер нового формата.
kvaking ®
RG Аниме
Uploader 100+
 
Стаж: 9 лет 3 мес.
Сообщений: 2532
Ratio: 213,58
Раздал: 340,9 TB
Поблагодарили: 16718
100%
Откуда: Осака
roody.gif
+3 Продолжаем! =)

_________________

[Double-Raws] - Да начнётся война за качество!
Тестер нового формата.
kvaking ®
RG Аниме
Uploader 100+
 
Стаж: 9 лет 3 мес.
Сообщений: 2532
Ratio: 213,58
Раздал: 340,9 TB
Поблагодарили: 16718
100%
Откуда: Осака
roody.gif
+4-5 Дозо! =)

_________________

[Double-Raws] - Да начнётся война за качество!
Тестер нового формата.
kvaking ®
RG Аниме
Uploader 100+
 
Стаж: 9 лет 3 мес.
Сообщений: 2532
Ratio: 213,58
Раздал: 340,9 TB
Поблагодарили: 16718
100%
Откуда: Осака
roody.gif
+6 Продолжаем! =)

_________________

[Double-Raws] - Да начнётся война за качество!
Тестер нового формата.
kvaking ®
RG Аниме
Uploader 100+
 
Стаж: 9 лет 3 мес.
Сообщений: 2532
Ratio: 213,58
Раздал: 340,9 TB
Поблагодарили: 16718
100%
Откуда: Осака
roody.gif
+7 Дозо! =)

_________________

[Double-Raws] - Да начнётся война за качество!
Тестер нового формата.
kvaking ®
RG Аниме
Uploader 100+
 
Стаж: 9 лет 3 мес.
Сообщений: 2532
Ratio: 213,58
Раздал: 340,9 TB
Поблагодарили: 16718
100%
Откуда: Осака
roody.gif
+8 Продолжаем! =)

_________________

[Double-Raws] - Да начнётся война за качество!
Тестер нового формата.
kvaking ®
RG Аниме
Uploader 100+
 
Стаж: 9 лет 3 мес.
Сообщений: 2532
Ratio: 213,58
Раздал: 340,9 TB
Поблагодарили: 16718
100%
Откуда: Осака
roody.gif
+9 Дозо! =)

_________________

[Double-Raws] - Да начнётся война за качество!
Тестер нового формата.
Показать сообщения:   
Начать новую тему   Ответить на тему    Торрент-трекер NNM-Club -> Аниме с субтитрами -> Онгоинги Часовой пояс: GMT + 3
Страница 1 из 1