Классический форум-трекер
canvas not supported
Нас вместе: 4 079 219

Дорогой папа (2019) WEB-DL [1080p] ATV


 
 
RSS
Начать новую тему   Ответить на тему    Торрент-трекер NNM-Club -> Аудио и Видео -> Отечественное видео HD для устройств Apple
Автор Сообщение
Весельчак У ®
Модератор Apple
Стаж: 5 лет 10 мес.
Сообщений: 3396
Ratio: 147,745
Поблагодарили: 111542
100%
Откуда: От Москвы недалеко...
ussr.gif
Дорогой папа (2019) WEB-DL [1080p] ATV«Богатый тоже плачет»
Производство: Россия / PBB, Renovatio ent.
Жанр: Комедия, Семейный

Режиссер: Михаил Расходников
Продюсер: Владимир Поляков, Георгий Малков, Константин Елкин
Актеры: Владимир Вдовиченков, Валентина Ляпина, Владимир Сычев, Ирина Пегова, Николай Шрайбер, Иева Андреевайте, Игорь Ясулович, Юлия Сулес, Варвара Малкова, Андрей Пермяков

Описание:
Владелец ведущей торговой сети Вадим Дюмин привык добиваться своего любыми способами. Обаяние и продуманный план помогают ему найти китайского инвестора, готового стать партнером в компании Вадима, оформленной когда-то на его маму. Вот только, оказалось, она завещала акции своей внучке, его дочери… Которую Вадим бросил, когда ей было 2 года.
Теперь Вадим должен поехать в свой родной маленький город, найти бывшую жену и дочь и убедить их отказаться от наследства на сумму… где-то полмиллиарда долларов. Вадим уверен, что его обаяние и манипуляции сработают и здесь, не про деньги.


Возраст: 12+ (зрителям, достигшим 12 лет)
Дата российской премьеры: 12 сентября 2019, «Централ Партнершип»

Продолжительность: 01:27:04
Качество видео: WEB-DL 1080р
Перевод: Не требуется, русский (iTunes)
Субтитры: Отсутствуют

Видео: H.264, 1920x800 (2.40:1), ~5176 kbps, 24.000 fps
Аудио#1: AAC, 2.0 ch, 198 Kbps - Русский, iTunes
Аудио#2: AC3, 6.0 ch, 384 Kbps - Русский, iTunes

Общее
Полное имя : /Volumes/HDD/Movies/NNMC/Dorogoy.papa.2019.WEB-DL.1080p.m4v
Формат : MPEG-4
Идентификатор кодека : M4V (M4V /M4A /mp42/isom)
Размер файла : 3,51 Гбайт
Продолжительность : 1 ч. 27 м.
Режим общего битрейта : Переменный
Общий поток : 5765 Кбит/сек
Название фильма : Дорогой папа
Исполнитель : Михаил Расходников
Режиссёр : Михаил Расходников
Исполнитель : Vladimir Vdovichenkov / Валентина Ляпина / Ирина Пегова / Николай Шрайбер / Иева Андреевайте
Сценарист : Тихон Корнев / Павел Руминов / Максим Романцов
Продюсер : Владимир Поляков / Георгий Малков / Константин Елкин
Студия-производитель : ООО "Эмоушен Пикчерз"
Жанр : Комедии
Тип содержимого : Short Film
Описание : Владелец ведущей торговой сети Вадим Дюмин привык добиваться своего любыми способами. Обаяние и продуманный план помогают ему найти китайского инвестора, готового стать партнером в компании Вадима, оформленной когда-то на его маму. Вот только, оказалось, она завещала акции своей внучке, его дочери… Которую Вадим бросил, когда ей было 2 года.Теперь Вадим должен поехать в свой родной маленький город, найти бывшую жену и дочь и убедить их отказаться от наследства на сумму… где-то полмиллиарда долларов. Вадим уверен, что его обаяние и манипуляции сработают и здесь, но в мире дочери его методы не работают, и слово «дорогой» здесь совсем не про деньги.
Дата записи : UTC 2019-10-03 07:00:00
Дата кодирования : UTC 2019-10-12 08:31:09
Дата пометки : UTC 2019-10-12 08:34:36
Обложка : Yes
LongDescription : Владелец ведущей торговой сети Вадим Дюмин привык добиваться своего любыми способами. Обаяние и продуманный план помогают ему найти китайского инвестора, готового стать партнером в компании Вадима, оформленной когда-то на его маму. Вот только, оказалось, она завещала акции своей внучке, его дочери… Которую Вадим бросил, когда ей было 2 года.Теперь Вадим должен поехать в свой родной маленький город, найти бывшую жену и дочь и убедить их отказаться от наследства на сумму… где-то полмиллиарда долларов. Вадим уверен, что его обаяние и манипуляции сработают и здесь, но в мире дочери его методы не работают, и слово «дорогой» здесь совсем не про деньги.
AppleStoreCountry : Russia
AppleStoreCatalogID : 1480926340
ContentRating : ru-movie|12+|200|

Видео
Идентификатор : 1
Формат : AVC
Формат/Информация : Advanced Video Codec
Профиль формата : High@L4
Настройки формата : CABAC / 4 Ref Frames
Параметр CABAC формата : Да
Параметр ReFrames формата : 4 кадра
Идентификатор кодека : avc1
Идентификатор кодека/Информация : Advanced Video Coding
Продолжительность : 1 ч. 27 м.
Битрейт : 5176 Кбит/сек
Ширина : 1920 пикселей
Высота : 800 пикселей
Соотношение сторон : 2,40:1
Режим частоты кадров : Переменный
Частота кадров : 24,000 кадра/сек
Минимальная частота кадров : 23,810 кадра/сек
Максимальная частота кадров : 24,390 кадра/сек
Цветовое пространство : YUV
Субдискретизация насыщенности : 4:2:0
Битовая глубина : 8 бит
Тип развёртки : Прогрессивная
Бит/(Пиксели*Кадры) : 0.140
Размер потока : 3,15 Гбайт (90%)
Язык : English
Дата кодирования : UTC 2019-10-12 08:31:09
Дата пометки : UTC 2019-10-12 08:34:36
Codec configuration box : avcC

Аудио #1
Идентификатор : 2
Формат : AAC LC
Формат/Информация : Advanced Audio Codec Low Complexity
Идентификатор кодека : mp4a-40-2
Продолжительность : 1 ч. 27 м.
Вид битрейта : Переменный
Битрейт : 198 Кбит/сек
Максимальный битрейт : 296 Кбит/сек
Каналы : 2 канала
Channel layout : L R
Частота : 48,0 КГц
Частота кадров : 46,875 кадров/сек (1024 SPF)
Метод сжатия : С потерями
Размер потока : 123 Мбайт (3%)
Язык : Russian
Default : Да
Alternate group : 1
Дата кодирования : UTC 2019-10-12 08:31:09
Дата пометки : UTC 2019-10-12 08:34:36
Fallback From : 3
tagc : public.main-program-content

Аудио #2
Идентификатор : 3
Формат : AC-3
Формат/Информация : Audio Coding 3
Коммерческое название : Dolby Digital
Идентификатор кодека : ac-3
Продолжительность : 1 ч. 27 м.
Вид битрейта : Постоянный
Битрейт : 384 Кбит/сек
Каналы : 6 каналов
Channel layout : L R C LFE Ls Rs
Частота : 48,0 КГц
Частота кадров : 31,250 кадров/сек (1536 SPF)
Битовая глубина : 16 бит
Метод сжатия : С потерями
Размер потока : 239 Мбайт (7%)
Язык : Russian
Service kind : Complete Main
Default : Inherited From: 2
Alternate group : 1
Дата кодирования : UTC 2019-10-12 08:31:09
Дата пометки : UTC 2019-10-12 08:34:36
Fallback To : 2
tagc : public.main-program-content


Name: Дорогой папа
Artist: Михаил Расходников
Media Kind: Movie
HD Video: 1080p
Genre: Комедии
Release Date: 2019-10-03T07:00:00Z
Description: Владелец ведущей торговой сети Вадим Дюмин привык добиваться своего любыми способами. Обаяние и продуманный план помогают ему найти китайского инвестора, готового стать партнером в компании Вадима, оформленной когда-то на его маму. Вот только, оказалось, она завещала акции своей внучке, его дочери… Которую Вадим бросил, когда ей было 2 года.Теперь Вадим должен поехать в свой родной маленький город, найти бывшую жену и дочь и убедить их отказаться от наследства на сумму… где-то полмиллиарда долларов. Вадим уверен, что его обаяние и манипуляции сработают и здесь, но в мире дочери его методы не работают, и слово «дорогой» здесь совсем не про деньги.
Long Description: Владелец ведущей торговой сети Вадим Дюмин привык добиваться своего любыми способами. Обаяние и продуманный план помогают ему найти китайского инвестора, готового стать партнером в компании Вадима, оформленной когда-то на его маму. Вот только, оказалось, она завещала акции своей внучке, его дочери… Которую Вадим бросил, когда ей было 2 года.Теперь Вадим должен поехать в свой родной маленький город, найти бывшую жену и дочь и убедить их отказаться от наследства на сумму… где-то полмиллиарда долларов. Вадим уверен, что его обаяние и манипуляции сработают и здесь, но в мире дочери его методы не работают, и слово «дорогой» здесь совсем не про деньги.
Rating: ru-movie|12+|200|
Studio: ООО "Эмоушен Пикчерз"
Cast: Vladimir Vdovichenkov, Валентина Ляпина, Ирина Пегова, Николай Шрайбер, Иева Андреевайте
Director: Михаил Расходников
Producers: Владимир Поляков, Георгий Малков, Константин Елкин
Screenwriters: Тихон Корнев, Павел Руминов, Максим Романцов
content ID: 1480926340
iTunes Country: 143469

Скриншоты:


Все одноименные релизы в Клубе
Время раздачи: 24/7 (до появления первых 3-5 скачавших)

Релиз подготовлен для просмотра на Apple TV, iPad, iPhone, iPod Touch.
Для просмотра данного релиза на компьютере с ОС Windows рекомендуется использовать VLC media player
[NNMClub.to]_Dorogoy.papa.2019.WEB-DL.1080p.m4v.torrent
 Торрент:   Зарегистрирован
 
Зарегистрируйтесь и скачайте торрент!
35,3 KB

Примагнититься
 Зарегистрирован:   12 Окт 2019 11:57:47
 Размер:   3,51 GB  (
 Рейтинг:    (Голосов: 5)
 Поблагодарили:   27
 Проверка:   Внимание! Оформление не проверено модератором!
Как cкачать  ·  Как раздать  ·  Правильно оформить  ·  Поднять ратио!  

_________________
«Всё против нас, только ветер навстречу…».
🍏Apple iMac 21.5 (mid 2011) / Intel Core i5 2.7 GHz / AMD Radeon HD 6770M 512 Mb / 12GB DDR3 / Apple Trackpad, Apple Keyboard / macOS High Sierra 10.13.6 (17G8030)
Показать сообщения:   
Начать новую тему   Ответить на тему    Торрент-трекер NNM-Club -> Аудио и Видео -> Отечественное видео HD для устройств Apple Часовой пояс: GMT + 3
Страница 1 из 1