Классический форум-трекер
canvas not supported
Нас вместе: 4 079 086

Be-Bop High School / Старшая школа Би-Боп [1999, OVA 7 эп.] DVDRip 480p raw


 
 
RSS
Начать новую тему   Ответить на тему    Торрент-трекер NNM-Club -> Аниме с субтитрами -> Аниме (SD)
Автор Сообщение
OnZa ®
Стаж: 11 лет 9 мес.
Сообщений: 1883
Ratio: 28,525
Поблагодарили: 12719
100%
Откуда: moscow
roody.gif
ビー・バップ・ハイスクール
Be-Bop High School
Старшая школа Би-Боп

Год выпуска: 1990 - 1998
Жанр: комедия, школа, сёнен
Тип: OVA
Продолжительность: (7 эп.), 50 мин
Режиссер: Арисако Тосихико / Arisako Toshihiko
Автор оригинала: Киути Кадзухиро / Kiuchi Kazuhiro
Производство/студия: Toei Animation

Качество видео: DVDRip
Релиз: [Saizen Fansubs & Hokuto no Gun]
Параметры видео: AVC/x264 (High10@L4), 10 bits, 700x478, 23.976 fps, ~1100 kbps

Язык озвучки: Японский
Характеристика звука: AC-3, 2 ch, 48 kHz, 192 kbit/s

Язык субтитров: Русский; Английский (soft)
Перевод: hSa (4-7 эп. БЕЗ СУБТИТРОВ)

Описание:
Для двоих хулиганистых задир Хироси и Тору обычные школьные будни мало связаны с учебой. Кому нужна эта скукота? Завести себе подружку — вот действительно важная цель, с которой никак не сравнится получение образования. Проблемы? Нет, эти парни не знают такого слова. Возникли какие-то вопросы? Решение всегда найдется — ведь пара железных кулаков всегда при них. Они обожают искать приключения на свои пятые точки, и если они не могут найти их, то неприятности всегда найдут их сами. Разве можно стерпеть брошенный на тебя косой взгляд? Конечно же, нет! «Да, этот чувак просто нарывается на драку!» А значит, надо показать ему, и всем сомневающимся заодно, что они связались не с теми парнями. Чего бы это ни стоило!
Код: выделить все

Общее
Уникальный идентификатор                 : 202836977545901321930673232413423177176 (0x9898FB1B81A76029B4A3775A32460DD8)
Полное имя                               : D:\Be-Bop High School (1990)\[Saizen-HnG]_Be-Bop_High_School_-_01v3_[DVD][823B3614].mkv
Формат                                   : Matroska
Версия формата                           : Version 4
Размер файла                             : 495 Мбайт
Продолжительность                        : 51 м. 48 с.
Общий поток                              : 1335 Кбит/сек
Название фильма                          : [Saizen-HnG] Be-Bop High School - 01
Дата кодирования                         : UTC 2015-01-08 19:25:13
Программа кодирования                    : mkvmerge v7.5.0 ('Glass Culture') 64bit built on Jan  4 2015 16:48:44
Библиотека кодирования                   : libebml v1.3.1 + libmatroska v1.4.2
Attachments                              : ArchitectsDaughter.ttf / arial.ttf / arialbd.ttf / Augusta.ttf / AveriaSerif-Bold.ttf / AveriaSerif-Light.ttf / Barme.ttf / bebop.ttf / BellCentennial-NameAndNumber.otf / big_noodle_titling.ttf / Biko_Bold.otf / Biko_Regular.otf / CENTURY.TTF / framd.ttf / framdit.ttf / ThrowMyHandsUpintheAirBold.ttf / tt0857m.ttf / tt0861m.ttf / TT1139M.TTF / TYPEE.TTF

Видео
Идентификатор                            : 1
Формат                                   : AVC
Формат/Информация                        : Advanced Video Codec
Профиль формата                          : High 10@L4
Настройки формата                        : CABAC / 16 Ref Frames
Параметр CABAC формата                   : Да
Параметр RefFrames формата               : 16 кадров
Идентификатор кодека                     : V_MPEG4/ISO/AVC
Продолжительность                        : 51 м. 48 с.
Битрейт                                  : 1132 Кбит/сек
Ширина                                   : 698 пикселей
Высота                                   : 478 пикселей
Соотношение сторон                       : 4:3
Соотношение сторон в оригинале           : 3:2
Режим частоты кадров                     : Постоянный
Частота кадров                           : 23,976 (24000/1001) кадра/сек
Цветовое пространство                    : YUV
Субдискретизация насыщенности            : 4:2:0
Битовая глубина                          : 10 бит
Тип развёртки                            : Прогрессивная
Бит/(Пиксели*Кадры)                      : 0.142
Размер потока                            : 420 Мбайт (85%)
Заголовок                                : Video
Библиотека кодирования                   : x264 core 130 r2273 b3065e6
Настройки программы                      : cabac=1 / ref=16 / deblock=1:0:0 / analyse=0x3:0x133 / me=umh / subme=10 / psy=1 / psy_rd=1.00:0.00 / mixed_ref=1 / me_range=24 / chroma_me=1 / trellis=2 / 8x8dct=1 / cqm=0 / deadzone=21,11 / fast_pskip=0 / chroma_qp_offset=-2 / threads=6 / lookahead_threads=1 / sliced_threads=0 / nr=0 / decimate=1 / interlaced=0 / bluray_compat=0 / constrained_intra=0 / bframes=16 / b_pyramid=2 / b_adapt=2 / b_bias=0 / direct=1 / weightb=1 / open_gop=0 / weightp=2 / keyint=250 / keyint_min=23 / scenecut=40 / intra_refresh=0 / rc=crf / mbtree=0 / crf=17.5 / qcomp=0.80 / qpmin=0 / qpmax=81 / qpstep=4 / ip_ratio=1.40 / pb_ratio=1.30 / aq=1:0.80
Язык                                     : Japanese
Default                                  : Да
Forced                                   : Нет
Цветовой диапазон                        : Limited
Коэффициенты матрицы                     : BT.470 System B/G

Аудио
Идентификатор                            : 2
Формат                                   : AC-3
Формат/Информация                        : Audio Coding 3
Коммерческое название                    : Dolby Digital
Идентификатор кодека                     : A_AC3
Продолжительность                        : 51 м. 48 с.
Вид битрейта                             : Постоянный
Битрейт                                  : 192 Кбит/сек
Каналы                                   : 2 канала
ChannelLayout                            : L R
Частота                                  : 48,0 КГц
Частота кадров                           : 31,250 кадров/сек (1536 SPF)
Метод сжатия                             : С потерями
Размер потока                            : 71,2 Мбайт (14%)
Заголовок                                : Audio
Язык                                     : Japanese
ServiceKind/String                       : Complete Main
Default                                  : Да
Forced                                   : Нет

Текст
Идентификатор                            : 3
Формат                                   : ASS
Идентификатор кодека                     : S_TEXT/ASS
Идентификатор кодека/Информация          : Advanced Sub Station Alpha
Продолжительность                        : 51 м. 43 с.
Битрейт                                  : 1253 бит/сек
ElementCount                             : 4632
Метод сжатия                             : Без потерь
Размер потока                            : 475 Кбайт (0%)
Заголовок                                : English Subtitles
Язык                                     : English
Default                                  : Да
Forced                                   : Нет

Меню #1
00:00:00.000                             : en:Prologue
00:01:31.925                             : en:Opening Song
00:03:37.342                             : en:Part 1
00:15:50.616                             : en:Part 2
00:32:49.593                             : en:Part 3
00:49:16.120                             : en:Ending Song

Меню #2
00:00:00.000                             : en:Prologue
00:01:31.925                             : en:Opening Song
00:03:37.342                             : en:Part 1
00:15:50.616                             : en:Part 2
00:32:49.593                             : en:Part 4
00:49:16.120                             : en:Ending Song

Меню #3
00:00:00.000                             : en:Prologue
00:01:31.925                             : en:Opening Song
00:03:37.342                             : en:Part 1
00:15:50.616                             : en:Part 2
00:32:49.593                             : en:Part 4
00:49:16.161                             : en:Ending Song
MyAnimeList..... World-Art..... AniDB..... ANN..... Anime Planet

Время раздачи: по мере возможности
[NNMClub.to]_Be-Bop High School (1990).torrent
 Торрент:   Зарегистрирован
 
Зарегистрируйтесь и скачайте торрент!
16,5 KB

Примагнититься
 Зарегистрирован:   12 Окт 2019 18:52:13
 Размер:   3,06 GB  (
 Рейтинг:    (Голосов: 5)
 Поблагодарили:   22
 Проверка:   Оформление проверено модератором 12 Окт 2019 19:53:57
Как cкачать  ·  Как раздать  ·  Правильно оформить  ·  Поднять ратио!  
Загрузка...
Показать сообщения:   
Начать новую тему   Ответить на тему    Торрент-трекер NNM-Club -> Аниме с субтитрами -> Аниме (SD) Часовой пояс: GMT + 3
Страница 1 из 1