Классический форум-трекер
canvas not supported
Нас вместе: 4 083 480
Платим за отзывы

The Rolling Stones - Honk (Deluxe Edition) (2019) [FLAC|Lossless|image + .cue] <Classic Rock>


 
 
RSS
Начать новую тему   Ответить на тему    Торрент-трекер NNM-Club -> Rock, Alternative, Punk, Metal -> Rock (Lossless)
Автор Сообщение
Lazyra ®
RG Music
Модератор музыки Electronic
 
Стаж: 8 лет 9 мес.
Сообщений: 4894
Ratio: 1891,554
Раздал: 65,7 TB
Поблагодарили: 108336
100%
Откуда: Владимир
russia.gif
The Rolling Stones - Honk (Deluxe Edition) (2019)



Год: 2019
Жанр: Classic Rock
Продолжительность: 03:16:51
Лейбл: Rolling Stones Records
Каталог №: 773 188-0
Сканы: Комплект
Тип рипа: image + .cue
Кодек: FLAC
Битрейт: Lossless

Треклист:


Треклист:
01. Start Me Up (03:33)
02. Brown Sugar (03:50)
03. Rocks Off (04:33)
04. Miss You (04:49)
05. Tumbling Dice (03:46)
06. Just Your Fool (02:18)
07. Wild Horses (05:43)
08. Fool to Cry (05:06)
09. Angie (04:32)
10. Beast of Burden (04:25)
11. Hot Stuff (05:22)
12. It's Only Rock 'n' Roll (but I Like It) (05:08)
13. Rock and a Hard Place (05:25)
14. Doom and Gloom (03:59)
15. Love Is Strong 903:47)
16. Mixed Emotions (04:39)
17. Don't Stop (03:59)
18. Ride 'Em on Down (02:50)

Продолжительность: 01:17:44
Код: выделить все

Exact Audio Copy V1.3 from 2. September 2016

EAC extraction logfile from 14. September 2019, 16:07

The Rolling Stones / Honk CD 1

Used drive  : HP      DVD Writer 1170d   Adapter: 1  ID: 1

Read mode               : Secure
Utilize accurate stream : Yes
Defeat audio cache      : Yes
Make use of C2 pointers : No

Read offset correction                      : 6
Overread into Lead-In and Lead-Out          : No
Fill up missing offset samples with silence : Yes
Delete leading and trailing silent blocks   : No
Null samples used in CRC calculations       : Yes
Used interface                              : Native Win32 interface for Win NT & 2000

Used output format              : User Defined Encoder
Selected bitrate                : 1024 kBit/s
Quality                         : High
Add ID3 tag                     : No
Command line compressor         : C:\Program Files (x86)\Exact Audio Copy\Flac\flac.exe
Additional command line options : -V -8 -T "Date=%year%" -T "Genre=%genre%" %source%

TOC of the extracted CD

     Track |   Start  |  Length  | Start sector | End sector
    ---------------------------------------------------------
        1  |  0:00.00 |  3:32.65 |         0    |    15964
        2  |  3:32.65 |  3:50.12 |     15965    |    33226
        3  |  7:23.02 |  4:32.54 |     33227    |    53680
        4  | 11:55.56 |  4:48.65 |     53681    |    75345
        5  | 16:44.46 |  3:46.23 |     75346    |    92318
        6  | 20:30.69 |  2:18.24 |     92319    |   102692
        7  | 22:49.18 |  5:42.61 |    102693    |   128403
        8  | 28:32.04 |  5:05.69 |    128404    |   151347
        9  | 33:37.73 |  4:32.33 |    151348    |   171780
       10  | 38:10.31 |  4:25.36 |    171781    |   191691
       11  | 42:35.67 |  5:22.00 |    191692    |   215841
       12  | 47:57.67 |  5:08.13 |    215842    |   238954
       13  | 53:06.05 |  5:24.66 |    238955    |   263320
       14  | 58:30.71 |  3:58.41 |    263321    |   281211
       15  | 62:29.37 |  3:47.11 |    281212    |   298247
       16  | 66:16.48 |  4:38.48 |    298248    |   319145
       17  | 70:55.21 |  3:59.11 |    319146    |   337081
       18  | 74:54.32 |  2:49.52 |    337082    |   349808

Range status and errors

Selected range

     Filename C:\EAC\ungern666\The Rolling Stones - Honk CD 1.wav

     Peak level 100.0 %
     Extraction speed 8.3 X
     Range quality 100.0 %
     Test CRC D26A9857
     Copy CRC D26A9857
     Copy OK

No errors occurred

AccurateRip summary

Track  1  accurately ripped (confidence 33)  [654BF0F7]  (AR v2)
Track  2  accurately ripped (confidence 33)  [C6245BDD]  (AR v2)
Track  3  accurately ripped (confidence 33)  [C6ABF970]  (AR v2)
Track  4  accurately ripped (confidence 33)  [7BC57744]  (AR v2)
Track  5  accurately ripped (confidence 33)  [0C9E930F]  (AR v2)
Track  6  accurately ripped (confidence 33)  [4B1B7A35]  (AR v2)
Track  7  accurately ripped (confidence 33)  [D6A014B8]  (AR v2)
Track  8  accurately ripped (confidence 33)  [23618F6D]  (AR v2)
Track  9  accurately ripped (confidence 33)  [CDB472B0]  (AR v2)
Track 10  accurately ripped (confidence 33)  [E7F4319D]  (AR v2)
Track 11  accurately ripped (confidence 33)  [E7EF3A73]  (AR v2)
Track 12  accurately ripped (confidence 33)  [B0D05F5E]  (AR v2)
Track 13  accurately ripped (confidence 33)  [AC793537]  (AR v2)
Track 14  accurately ripped (confidence 33)  [B44CA061]  (AR v2)
Track 15  accurately ripped (confidence 33)  [A3746EAC]  (AR v2)
Track 16  accurately ripped (confidence 33)  [F5AF9646]  (AR v2)
Track 17  accurately ripped (confidence 33)  [C8912A70]  (AR v2)
Track 18  accurately ripped (confidence 33)  [33111B13]  (AR v2)

All tracks accurately ripped

End of status report

---- CUETools DB Plugin V2.1.6

[CTDB TOCID: TEOhY1RKQoMNHGRRiWphfzsaFqk-] found
Submit result: TEOhY1RKQoMNHGRRiWphfzsaFqk- has been confirmed
Track | CTDB Status
  1   | (198/199) Accurately ripped
  2   | (198/199) Accurately ripped
  3   | (198/199) Accurately ripped
  4   | (198/199) Accurately ripped
  5   | (198/199) Accurately ripped
  6   | (198/199) Accurately ripped
  7   | (198/199) Accurately ripped
  8   | (198/199) Accurately ripped
  9   | (197/199) Accurately ripped, or (1/199) differs in 32 samples @02:38:73,03:22:66
 10   | (198/199) Accurately ripped
 11   | (198/199) Accurately ripped
 12   | (198/199) Accurately ripped
 13   | (198/199) Accurately ripped
 14   | (198/199) Accurately ripped
 15   | (198/199) Accurately ripped
 16   | (198/199) Accurately ripped
 17   | (198/199) Accurately ripped
 18   | (198/199) Accurately ripped

==== Log checksum 59D1BB960A2FAF49A13383A91FB4F7D94370FE32A847A8809860A8CF37C67543 ====



Трек лист:
01. Bitch (03:38)
02. Harlem Shuffle (03:25)
03. Hate to See You Go (03:22)
04. Rough Justice (03:12)
05. Happy (03:06)
06. Doo Doo Doo Doo Doo (Heartbreaker) (03:28)
07. One More Shot (03:03)
08. Respectable (03:08)
09. You Got Me Rocking (03:36)
10. Rain Fall Down (04:54)
11. Dancing with Mr D (04:53)
12. Undercover (of the Night) (04:33)
13. Emotional Rescue (05:40)
14. Waiting on a Friend (04:35)
15. Saint of Me (05:16)
16. Out of Control (04:45)
17. Streets of Love (05:09)
18. Out of Tears (05:28)

Продолжительность: 01:15:13
Код: выделить все

Exact Audio Copy V1.3 from 2. September 2016

EAC extraction logfile from 14. September 2019, 16:28

The Rolling Stones / Honk CD 2

Used drive  : HP      DVD Writer 1170d   Adapter: 1  ID: 1

Read mode               : Secure
Utilize accurate stream : Yes
Defeat audio cache      : Yes
Make use of C2 pointers : No

Read offset correction                      : 6
Overread into Lead-In and Lead-Out          : No
Fill up missing offset samples with silence : Yes
Delete leading and trailing silent blocks   : No
Null samples used in CRC calculations       : Yes
Used interface                              : Native Win32 interface for Win NT & 2000

Used output format              : User Defined Encoder
Selected bitrate                : 1024 kBit/s
Quality                         : High
Add ID3 tag                     : No
Command line compressor         : C:\Program Files (x86)\Exact Audio Copy\Flac\flac.exe
Additional command line options : -V -8 -T "Date=%year%" -T "Genre=%genre%" %source%

TOC of the extracted CD

     Track |   Start  |  Length  | Start sector | End sector
    ---------------------------------------------------------
        1  |  0:00.00 |  3:37.51 |         0    |    16325
        2  |  3:37.51 |  3:25.19 |     16326    |    31719
        3  |  7:02.70 |  3:22.24 |     31720    |    46893
        4  | 10:25.19 |  3:12.20 |     46894    |    61313
        5  | 13:37.39 |  3:05.70 |     61314    |    75258
        6  | 16:43.34 |  3:27.51 |     75259    |    90834
        7  | 20:11.10 |  3:03.08 |     90835    |   104567
        8  | 23:14.18 |  3:08.35 |    104568    |   118702
        9  | 26:22.53 |  3:35.55 |    118703    |   134882
       10  | 29:58.33 |  4:54.22 |    134883    |   156954
       11  | 34:52.55 |  4:53.19 |    156955    |   178948
       12  | 39:45.74 |  4:33.32 |    178949    |   199455
       13  | 44:19.31 |  5:40.36 |    199456    |   224991
       14  | 49:59.67 |  4:35.35 |    224992    |   245651
       15  | 54:35.27 |  5:15.67 |    245652    |   269343
       16  | 59:51.19 |  4:45.37 |    269344    |   290755
       17  | 64:36.56 |  5:09.21 |    290756    |   313951
       18  | 69:46.02 |  5:27.49 |    313952    |   338525

Range status and errors

Selected range

     Filename C:\EAC\ungern666\The Rolling Stones - Honk CD 2.wav

     Peak level 100.0 %
     Extraction speed 7.9 X
     Range quality 99.9 %
     Test CRC A13182CB
     Copy CRC A13182CB
     Copy OK

No errors occurred

AccurateRip summary

Track  1  accurately ripped (confidence 31)  [03ECE21E]  (AR v2)
Track  2  accurately ripped (confidence 31)  [0D6C42D9]  (AR v2)
Track  3  accurately ripped (confidence 31)  [E0794431]  (AR v2)
Track  4  accurately ripped (confidence 31)  [54FFB159]  (AR v2)
Track  5  accurately ripped (confidence 31)  [3DC84E4A]  (AR v2)
Track  6  accurately ripped (confidence 31)  [D26A68D6]  (AR v2)
Track  7  accurately ripped (confidence 31)  [3FA3CED1]  (AR v2)
Track  8  accurately ripped (confidence 31)  [CACE8A37]  (AR v2)
Track  9  accurately ripped (confidence 32)  [B4944F20]  (AR v2)
Track 10  accurately ripped (confidence 32)  [14CBB1BF]  (AR v2)
Track 11  accurately ripped (confidence 32)  [03E7B4B5]  (AR v2)
Track 12  accurately ripped (confidence 32)  [8EED6984]  (AR v2)
Track 13  accurately ripped (confidence 32)  [DA5C0493]  (AR v2)
Track 14  accurately ripped (confidence 32)  [E28D28BF]  (AR v2)
Track 15  accurately ripped (confidence 32)  [4E7E6C65]  (AR v2)
Track 16  accurately ripped (confidence 32)  [AB87210D]  (AR v2)
Track 17  accurately ripped (confidence 32)  [6267F8F9]  (AR v2)
Track 18  accurately ripped (confidence 32)  [391E3661]  (AR v2)

All tracks accurately ripped

End of status report

---- CUETools DB Plugin V2.1.6

[CTDB TOCID: Y5QmDZTOzunnIBw5dVoK._nU1pM-] found
Submit result: Y5QmDZTOzunnIBw5dVoK._nU1pM- has been confirmed
Track | CTDB Status
  1   | (202/203) Accurately ripped
  2   | (202/203) Accurately ripped
  3   | (202/203) Accurately ripped
  4   | (202/203) Accurately ripped
  5   | (202/203) Accurately ripped
  6   | (202/203) Accurately ripped
  7   | (202/203) Accurately ripped
  8   | (202/203) Accurately ripped
  9   | (202/203) Accurately ripped
 10   | (202/203) Accurately ripped
 11   | (202/203) Accurately ripped
 12   | (202/203) Accurately ripped
 13   | (202/203) Accurately ripped
 14   | (202/203) Accurately ripped
 15   | (202/203) Accurately ripped
 16   | (202/203) Accurately ripped
 17   | (202/203) Accurately ripped
 18   | (202/203) Accurately ripped

==== Log checksum 1ED8D8C36313E155FA69F5C2BB6C2AF8D2070C3604E14D32B386EFB685347F54 ====



Трек лист:
01. Get Off of My Cloud (Live At Principality Stadium - 15/06/18) (03:21)
02. Dancing with Mr D (Live At The Gelredome, Arnhem - 15/10/17) (04:37)
03. Beast of Burden (feat. Ed Sheeran) (Live At Arrowhead Stadium, Kansas - 27/6/15) (04:16)
04. She’s a Rainbow (Live At U Arena, Paris - 25/10/17) (03:23)
05. Wild Horses (feat. Florence Welch) (Live At London Stadium - 22/05/18) (04:49)
06. Let’s Spend the Night Together (Live At Manchester Evening News Arena - 05/06/18) (04:05)
07. Dead Flowers (feat. Brad Paisley) (Live At Wells Fargo Center, Philadelphia - 18/06/13) (05:25)
08. Shine a Light (Live At Arena, Amsterdam - 30/09/17) (04:12)
09. Under My Thumb (Live At London Stadium - 22/05/18) (04:31)
10. Bitch (feat. Dave Grohl) (Live At Honda Center, Anaheim - 18/05/13) (05:16)

Продолжительность: 00:43:54
Код: выделить все

Exact Audio Copy V1.3 from 2. September 2016

EAC extraction logfile from 14. September 2019, 16:47

The Rolling Stones / Honk CD 3

Used drive  : HP      DVD Writer 1170d   Adapter: 1  ID: 1

Read mode               : Secure
Utilize accurate stream : Yes
Defeat audio cache      : Yes
Make use of C2 pointers : No

Read offset correction                      : 6
Overread into Lead-In and Lead-Out          : No
Fill up missing offset samples with silence : Yes
Delete leading and trailing silent blocks   : No
Null samples used in CRC calculations       : Yes
Used interface                              : Native Win32 interface for Win NT & 2000

Used output format              : User Defined Encoder
Selected bitrate                : 1024 kBit/s
Quality                         : High
Add ID3 tag                     : No
Command line compressor         : C:\Program Files (x86)\Exact Audio Copy\Flac\flac.exe
Additional command line options : -V -8 -T "Date=%year%" -T "Genre=%genre%" %source%

TOC of the extracted CD

     Track |   Start  |  Length  | Start sector | End sector
    ---------------------------------------------------------
        1  |  0:00.00 |  3:20.50 |         0    |    15049
        2  |  3:20.50 |  4:36.63 |     15050    |    35812
        3  |  7:57.38 |  4:16.30 |     35813    |    55042
        4  | 12:13.68 |  3:23.05 |     55043    |    70272
        5  | 15:36.73 |  4:49.29 |     70273    |    91976
        6  | 20:26.27 |  4:04.70 |     91977    |   110346
        7  | 24:31.22 |  5:24.50 |    110347    |   134696
        8  | 29:55.72 |  4:11.73 |    134697    |   153594
        9  | 34:07.70 |  4:30.59 |    153595    |   173903
       10  | 38:38.54 |  5:15.66 |    173904    |   197594

Range status and errors

Selected range

     Filename C:\EAC\ungern666\The Rolling Stones - Honk CD 3.wav

     Peak level 100.0 %
     Extraction speed 5.4 X
     Range quality 100.0 %
     Test CRC 47A2E906
     Copy CRC 47A2E906
     Copy OK

No errors occurred

AccurateRip summary

Track  1  accurately ripped (confidence 30)  [7C2B3ACF]  (AR v2)
Track  2  accurately ripped (confidence 30)  [2467ABCF]  (AR v2)
Track  3  accurately ripped (confidence 30)  [976310F0]  (AR v2)
Track  4  accurately ripped (confidence 30)  [DBA0720C]  (AR v2)
Track  5  accurately ripped (confidence 30)  [7B0C9ADF]  (AR v2)
Track  6  accurately ripped (confidence 30)  [B956CB5B]  (AR v2)
Track  7  accurately ripped (confidence 30)  [C2E825ED]  (AR v2)
Track  8  accurately ripped (confidence 30)  [73B0F67A]  (AR v2)
Track  9  accurately ripped (confidence 30)  [14E15C58]  (AR v2)
Track 10  accurately ripped (confidence 30)  [F867E5D1]  (AR v2)

All tracks accurately ripped

End of status report

---- CUETools DB Plugin V2.1.6

[CTDB TOCID: 9QgAvHfOgFIMAd2YqG5lKJOE_v4-] found
Submit result: 9QgAvHfOgFIMAd2YqG5lKJOE_v4- has been confirmed
Track | CTDB Status
  1   | (154/155) Accurately ripped
  2   | (154/155) Accurately ripped
  3   | (154/155) Accurately ripped
  4   | (154/155) Accurately ripped
  5   | (154/155) Accurately ripped
  6   | (154/155) Accurately ripped
  7   | (154/155) Accurately ripped
  8   | (154/155) Accurately ripped
  9   | (154/155) Accurately ripped
 10   | (153/155) Accurately ripped

==== Log checksum 59FC0E9EC8A3E81AF6CA6E7430991BA8BD7F6B7EF6847F792F314014F3916578 ====

[NNMClub.to]_The Rolling Stones - Honk - 2019 [FLAC-CD].torrent
 Торрент: Платиновая раздача  Зарегистрирован
 
Скачать


Примагнититься
 Зарегистрирован:   14 Окт 2019 18:14:42
 Размер:   1,34 GB  (
 Рейтинг:   4,8 (Голосов: 14)
 Поблагодарили:   86
 Проверка:   Оформление проверено модератором 14 Окт 2019 18:18:13
Как cкачать  ·  Как раздать  ·  Правильно оформить  ·  Поднять ратио!  
Loading...
Jovannie
Стаж: 3 года 9 мес.
Сообщений: 41
Ratio: 5,403
100%
pirates.png
Хороший сборничек, забираю!
Frostynn
Стаж: 9 лет 4 мес.
Сообщений: 195
Ratio: 18,187
100%
senegal.gif
Встаньте на раздачу, я поддержу.

_________________
Человек и мир вокруг него,состоят из того что он об этом знает.
Man and the world around him are from what he knows about it.
Н.А.Баринов
Показать сообщения:   
Начать новую тему   Ответить на тему    Торрент-трекер NNM-Club -> Rock, Alternative, Punk, Metal -> Rock (Lossless) Часовой пояс: GMT + 3
Страница 1 из 1