Классический форум-трекер
canvas not supported
Нас вместе: 4 093 853

Nanatsu no Taizai: Kamigami no Gekirin / The Seven Deadly Sins: Wrath of the Gods / Семь смертных грехов: Гнев богов [2019, TV, 9 из 24] WEB-DL 1080p Rus


 
 
RSS
Начать новую тему   Ответить на тему    Торрент-трекер NNM-Club -> Аниме с озвучкой -> Онгоинги с озвучкой
Автор Сообщение
Ampho_DnB ®
RG Аниме
Uploader 100+
 
Стаж: 8 лет 1 мес.
Сообщений: 3804
Ratio: 355,903
Поблагодарили: 88125
100%
Откуда: Душанбе
roody.gif
Nanatsu no Taizai: Kamigami no Gekirin / The Seven Deadly Sins: Wrath of the Gods
Семь смертных грехов: Гнев богов

Жанр: приключения, комедия, фэнтези
Тип: TV-сериал
Продолжительность: 9 из 24 эпизодов по 25 минут
Выпуск: c 09.10.2019
Автор: Судзуки Накаба
Снято по манге: Nanatsu no Taizai
Режиссер: Нисидзава Сусуму
Производство: Studio DEEN
Информационные ссылки: AniDB || World Art || MAL || ANN
Релиз подготовлен группой SHIZA Project
  • Тип озвучки: Многоголосая, закадровая

Описание:
«Семь Смертных Грехов». Давным-давно так называли семь могущественных рыцарей, обвинявшихся в сговоре, целью которого было свергнуть короля Британии. Воины были казнены благородным орденом Священных Рыцарей, однако ходят слухи, что «Семь Грехов» всё ещё живы. Десять лет спустя Священные Рыцари устроили государственный переворот и вероломно убили короля, установив собственную тиранию в стране. Элизабет, третья дочь короля, отправляется на поиски «Семи Смертных Грехов», дабы, заручившись их поддержкой, вернуть в страну закон и справедливость. Итак, путешествие начинается...
Качество: WEB-DLRip | Энкод: Erai-raws
Язык озвучки: Японский и Русский
Формат: MKV
Видео: x264, 1920x1080, ~8 253 kbps, 23.976 fps
Аудио: AAC, 128 kbps, 48.0 kHz, 2 ch
Аудио: AAC, 168 kbps, 48.0 kHz, 2 ch
Субтитры: ASS, Встроенные, Надписи
01. Свет, изгоняющий тьму
02. Воспоминания о священной войне
03. Да будет свет
04. Десять заповедей против четырёх архангелов
05. Вихрь эмоций
06. Мы зовём его любовью
07. Вперёд, на сбор Смертных Грехов!
08. Кукла молит о любви
09. Проклятые возлюбленные
General
Unique ID : 284169570704264998222119715179459182997 (0xD5C9118C8334D446254A78F7DE5B0195)
Complete name : Nanatsu no Taizai - Kamigami no Gekirin [SHIZA Project]\[SHIZA Project] Nanatsu no Taizai - Kamigami no Gekirin - 01 [1080p].mkv
Format : Matroska
Format version : Version 4
File size : 1.44 GiB
Duration : 24 min 10 s
Overall bit rate : 8 551 kb/s
Encoded date : UTC 2019-11-05 19:53:20
Writing application : mkvmerge v39.0.0 ('In The Waiting Line') 64-bit
Writing library : libebml v1.3.9 + libmatroska v1.5.2

Video
ID : 1
Format : AVC
Format/Info : Advanced Video Codec
Format profile : High@L4
Format settings : CABAC / 4 Ref Frames
Format settings, CABAC : Yes
Format settings, Reference : 4 frames
Codec ID : V_MPEG4/ISO/AVC
Duration : 24 min 9 s
Bit rate mode : Constant
Bit rate : 8 253 kb/s
Nominal bit rate : 10 000 kb/s
Width : 1 920 pixels
Height : 1 080 pixels
Display aspect ratio : 16:9
Frame rate mode : Constant
Frame rate : 23.976 (24000/1001) FPS
Color space : YUV
Chroma subsampling : 4:2:0
Bit depth : 8 bits
Scan type : Progressive
Bits/(Pixel*Frame) : 0.166
Stream size : 1.39 GiB (97%)
Language : Japanese
Default : Yes
Forced : No
Color range : Limited
Color primaries : BT.709
Transfer characteristics : BT.709
Matrix coefficients : BT.709

Audio #1
ID : 2
Format : AAC LC
Format/Info : Advanced Audio Codec Low Complexity
Codec ID : A_AAC-2
Duration : 24 min 10 s
Bit rate : 168 kb/s
Channel(s) : 2 channels
Channel layout : L R
Sampling rate : 48.0 kHz
Frame rate : 46.875 FPS (1024 SPF)
Compression mode : Lossy
Stream size : 29.0 MiB (2%)
Language : Russian
Default : Yes
Forced : No

Audio #2
ID : 3
Format : AAC LC
Format/Info : Advanced Audio Codec Low Complexity
Codec ID : A_AAC-2
Duration : 24 min 10 s
Bit rate : 128 kb/s
Channel(s) : 2 channels
Channel layout : L R
Sampling rate : 48.0 kHz
Frame rate : 46.875 FPS (1024 SPF)
Compression mode : Lossy
Stream size : 22.1 MiB (1%)
Language : Japanese
Default : No
Forced : No

Text
ID : 4
Format : ASS
Codec ID : S_TEXT/ASS
Codec ID/Info : Advanced Sub Station Alpha
Duration : 23 min 14 s
Bit rate : 11 b/s
Count of elements : 18
Compression mode : Lossless
Stream size : 2.01 KiB (0%)
Title : Надписи
Language : Russian
Default : Yes
Forced : No


Время раздачи: До первых сидов
[NNMClub.to]_Nanatsu no Taizai - Kamigami no Gekirin [SHIZA Project].torrent
 Торрент: Платиновая раздача  Зарегистрирован
 
Скачать


Примагнититься
 Зарегистрирован:   28 Дек 2019 11:04:38
 Размер:   12,4 GB  (
 Рейтинг:   5 (Голосов: 11)
 Поблагодарили:   24
 Проверка:   Оформление проверено модератором 28 Дек 2019 20:00:42
Как cкачать  ·  Как раздать  ·  Правильно оформить  ·  Поднять ратио!  
Ampho_DnB ®
RG Аниме
Uploader 100+
 
Стаж: 8 лет 1 мес.
Сообщений: 3804
Ratio: 355,903
Поблагодарили: 88125
100%
Откуда: Душанбе
roody.gif
Торрент обновлен. Добавлены 2-4 серии.
Ampho_DnB ®
RG Аниме
Uploader 100+
 
Стаж: 8 лет 1 мес.
Сообщений: 3804
Ratio: 355,903
Поблагодарили: 88125
100%
Откуда: Душанбе
roody.gif
Торрент обновлен. Добавлены 5-9 серии.
eyeonix
Стаж: 3 года 3 мес.
Сообщений: 1
Ratio: 2,868
52.38%
Че там когда продолжение?
Ampho_DnB ®
RG Аниме
Uploader 100+
 
Стаж: 8 лет 1 мес.
Сообщений: 3804
Ratio: 355,903
Поблагодарили: 88125
100%
Откуда: Душанбе
roody.gif
eyeonix писал(а): Перейти к сообщению
Че там когда продолжение?

Пока добавлять нечего, озвучки следующих серий нет.
Показать сообщения:   
Начать новую тему   Ответить на тему    Торрент-трекер NNM-Club -> Аниме с озвучкой -> Онгоинги с озвучкой Часовой пояс: GMT + 3
Страница 1 из 1