Классический форум-трекер
canvas not supported
Нас вместе: 4 093 450

Король / The King (2019) WEB-DL [1080p] ATV


 
 
RSS
Начать новую тему   Ответить на тему    Торрент-трекер NNM-Club -> Архив торрентов -> Архив 4Apple
Автор Сообщение
Весельчак У ®
Модератор Apple
Стаж: 6 лет 2 мес.
Сообщений: 4794
Ratio: 140,411
Поблагодарили: 156127
95.48%
Откуда: От Москвы недалеко...
ussr.gif
Король / The King (2019) WEB-DL [1080p] ATV
Производство: Великобритания, Венгрия, Австралия / Netflix, Plan B Entertainment, Porchlight Films
Жанр: Драма, мелодрама, военный, биография, история

Режиссер: Дэвид Мишо
Продюсер: Джоэл Эдгертон, Деде Гарднер, Джереми Клейнер
Актеры: Тимоти Шаламе, Джоэл Эдгертон, Роберт Паттинсон, Бен Мендельсон, Шон Харрис, Лили-Роуз Депп, Том Глинн-Карни, Томасин МакКензи, Дин-Чарльз Чепмен, Тара Фитцджеральд

Описание:
История молодого английского короля Генриха V. Взойдя на престол в мрачные времена Столетней войны, он становится одним из величайших полководцев своей эпохи.


Рейтинг MPAA: R (лицам до 17 лет обязательно присутствие взрослого)
Дата мировой премьеры: 2 сентября 2019

Продолжительность: 02:20:30
Качество видео: WEB-DL 1080р
Перевод: Дублированный (Пифагор)
Субтитры: Русские (forced, full), английские (forced, full, SDH)

Видео: H.264, 1920x1080 (16:9), ~5519 kbps, 24.000 fps
Аудио#1: AAC, 2.0 ch, 192 Kbps - Русский DUB, Пифагор
Аудио#2: AAC, 2.0 ch, 192 Kbps - English, Original

Общее
Полное имя : /Volumes/HDD/Movies/NNMC/The.King.2019.WEB-DL.1080p.m4v
Формат : MPEG-4
Идентификатор кодека : M4V (M4V /M4A /mp42/isom)
Размер файла : 5,81 Гбайт
Продолжительность : 2 ч. 20 м.
Режим общего битрейта : Переменный
Общий поток : 5918 Кбит/сек
Название фильма : Король
Исполнитель : David Michôd
Композитор : Nicholas Britell
Режиссёр : David Michôd
Исполнитель : Timothée Chalamet / Joel Edgerton / Sean Harris / Robert Pattinson / Ben Mendelsohn / Lily-Rose Depp / Tom Glynn-Carney / Thomasin McKenzie / Dean-Charles Chapman / Edward Ashley / Thibault de Montalembert / Andrew Havill / Steven Elder / Philip Rosch / Ivan Kaye / Nicholas Wittman / Cedric Cirotteau / Roderick Hill / Alex Reed / Jeremy Chevillotte / Tom Lawrence / Thomas Fyans / Tommy Gorman / Lucas Hansen / Peter Sztojanov Jr. / Chris Ecob / Tom Lacroix / Colin Thompson / Árpád Antolik / Oscar Bennett / Phil Hodges / Tim Wildman / Joshua Grant / Phillip Tolley / Harry Trevaldwyn / Zoë Scott / Hal Chase / Christopher Patrick Nolan / Gyula Mesterházy / Harry Chase / Thanh-Huy Phan / Stephen Fewell / John Taylor / Mattia Paradiso / Vincent Latorre
Сценарист : William Shakespeare / Joel Edgerton / David Michôd
Продюсер : Brad Pitt / Joel Edgerton / Dede Gardner / Liz Watts / David Michôd / Jeremy Kleiner
Студия-производитель : Plan B Entertainment, Porchlight Films, Blue-Tongue Films
Жанр : драма, история, военный
Тип содержимого : Short Film
Описание : 15-й век. Своенравный принц Хэл трансформируется в одного из самых могущественных правителей Англии — короля Генриха V.
Дата записи : UTC 2019-10-03 12:00:00
Дата кодирования : UTC 2019-11-01 18:55:51
Дата пометки : UTC 2019-11-01 18:59:23
Обложка : Yes
LongDescription : 15-й век. Своенравный принц Хэл трансформируется в одного из самых могущественных правителей Англии — короля Генриха V.
ContentRating : mpaa|R|400|

Видео
Идентификатор : 1
Формат : AVC
Формат/Информация : Advanced Video Codec
Профиль формата : Main@L4
Настройки формата : CABAC / 3 Ref Frames
Параметр CABAC формата : Да
Параметр ReFrames формата : 3 кадра
Идентификатор кодека : avc1
Идентификатор кодека/Информация : Advanced Video Coding
Продолжительность : 2 ч. 20 м.
Вид битрейта : Переменный
Битрейт : 5519 Кбит/сек
Номинальный битрейт : 5800 Кбит/сек
Максимальный битрейт : 8700 Кбит/сек
Ширина : 1920 пикселей
Высота : 1080 пикселей
Соотношение сторон : 16:9
Режим частоты кадров : Переменный
Частота кадров : 24,000 кадра/сек
Минимальная частота кадров : 23,810 кадра/сек
Максимальная частота кадров : 24,390 кадра/сек
Цветовое пространство : YUV
Субдискретизация насыщенности : 4:2:0
Битовая глубина : 8 бит
Тип развёртки : Прогрессивная
Бит/(Пиксели*Кадры) : 0.111
Размер потока : 5,42 Гбайт (93%)
Библиотека кодирования : x264 core 148 r2715 7e75228
Настройки программы : cabac=1 / ref=3 / deblock=1:0:0 / analyse=0x1:0x111 / me=umh / subme=10 / psy=1 / psy_rd=1.00:0.00 / mixed_ref=1 / me_range=24 / chroma_me=1 / trellis=2 / 8x8dct=0 / cqm=0 / deadzone=21,11 / fast_pskip=1 / chroma_qp_offset=-2 / threads=8 / lookahead_threads=1 / sliced_threads=0 / nr=0 / decimate=1 / interlaced=0 / bluray_compat=0 / stitchable=1 / constrained_intra=0 / bframes=2 / b_pyramid=0 / b_adapt=2 / b_bias=0 / direct=3 / weightb=1 / open_gop=0 / weightp=2 / keyint=250 / keyint_min=24 / scenecut=0 / intra_refresh=0 / rc_lookahead=48 / rc=2pass / mbtree=1 / bitrate=5800 / ratetol=1.0 / qcomp=0.50 / qpmin=6 / qpmax=51 / qpstep=4 / cplxblur=20.0 / qblur=0.5 / vbv_maxrate=8700 / vbv_bufsize=11600 / nal_hrd=vbr / filler=0 / ip_ratio=1.40 / aq=1:1.00
Язык : English
Дата кодирования : UTC 2019-11-01 18:55:51
Дата пометки : UTC 2019-11-01 18:59:22
Codec configuration box : avcC

Аудио #1
Идентификатор : 2
Формат : AAC LC
Формат/Информация : Advanced Audio Codec Low Complexity
Идентификатор кодека : mp4a-40-2
Продолжительность : 2 ч. 20 м.
Продолжительность оригинала : 2 ч. 20 м.
Вид битрейта : Переменный
Битрейт : 192 Кбит/сек
Максимальный битрейт : 314 Кбит/сек
Каналы : 2 канала
Channel layout : L R
Частота : 48,0 КГц
Частота кадров : 46,875 кадров/сек (1024 SPF)
Метод сжатия : С потерями
Размер потока : 197 Мбайт (3%)
Размер потока оригинала : 197 Мбайт (3%)
Язык : Russian
Default : Да
Alternate group : 1
Дата кодирования : UTC 2019-11-01 18:55:51
Дата пометки : UTC 2019-11-01 18:58:33
tagc : public.main-program-content

Аудио #2
Идентификатор : 3
Формат : AAC LC
Формат/Информация : Advanced Audio Codec Low Complexity
Идентификатор кодека : mp4a-40-2
Продолжительность : 2 ч. 20 м.
Продолжительность оригинала : 2 ч. 20 м.
Вид битрейта : Переменный
Битрейт : 192 Кбит/сек
Максимальный битрейт : 304 Кбит/сек
Каналы : 2 канала
Channel layout : L R
Частота : 48,0 КГц
Частота кадров : 46,875 кадров/сек (1024 SPF)
Метод сжатия : С потерями
Размер потока : 196 Мбайт (3%)
Размер потока оригинала : 196 Мбайт (3%)
Язык : English
Default : Нет
Alternate group : 1
Дата кодирования : UTC 2019-11-01 18:55:51
Дата пометки : UTC 2019-11-01 18:58:32
tagc : public.main-program-content

Текст #1
Идентификатор : 4
Формат : Timed Text
Режим смешивания : sbtl
Идентификатор кодека : tx3g
Продолжительность : 2 ч. 19 м.
Вид битрейта : Переменный
Битрейт : 2 бит/сек
Размер потока : 1,74 Кбайт (0%)
Язык : Russian
Default : Да
Forced : Нет
Alternate group : 2
Дата кодирования : UTC 2019-11-01 18:55:51
Дата пометки : UTC 2019-11-01 18:59:22
tagc : public.subtitles.forced-only

Текст #2
Идентификатор : 5
Формат : Timed Text
Режим смешивания : sbtl
Идентификатор кодека : tx3g
Продолжительность : 2 ч. 19 м.
Вид битрейта : Переменный
Битрейт : 64 бит/сек
Размер потока : 65,4 Кбайт (0%)
Язык : Russian
Default : Нет
Forced : Нет
Alternate group : 2
Дата кодирования : UTC 2019-11-01 18:55:51
Дата пометки : UTC 2019-11-01 18:59:22
tagc : public.main-program-content

Текст #3
Идентификатор : 6
Формат : Timed Text
Режим смешивания : sbtl
Идентификатор кодека : tx3g
Продолжительность : 2 ч. 0 м.
Вид битрейта : Переменный
Битрейт : 1 бит/сек
Размер потока : 1,07 Кбайт (0%)
Язык : English
Default : Нет
Forced : Нет
Alternate group : 2
Дата кодирования : UTC 2019-11-01 18:55:51
Дата пометки : UTC 2019-11-01 18:59:22
tagc : public.subtitles.forced-only

Текст #4
Идентификатор : 7
Формат : Timed Text
Режим смешивания : sbtl
Идентификатор кодека : tx3g
Продолжительность : 2 ч. 11 м.
Вид битрейта : Переменный
Битрейт : 47 бит/сек
Размер потока : 44,8 Кбайт (0%)
Язык : English
Default : Нет
Forced : Нет
Alternate group : 2
Дата кодирования : UTC 2019-11-01 18:55:51
Дата пометки : UTC 2019-11-01 18:59:22
tagc : public.main-program-content

Текст #5
Идентификатор : 8
Формат : Timed Text
Режим смешивания : sbtl
Идентификатор кодека : tx3g
Продолжительность : 2 ч. 11 м.
Вид битрейта : Переменный
Битрейт : 57 бит/сек
Размер потока : 55,0 Кбайт (0%)
Язык : English
Default : Нет
Forced : Нет
Alternate group : 2
Дата кодирования : UTC 2019-11-01 18:55:51
Дата пометки : UTC 2019-11-01 18:59:23
tagc : public.accessibility.transcribes-spoken-dialog


Name: Король
Artist: David Michôd
Media Kind: Movie
HD Video: 1080p
Genre: драма, история, военный
Release Date: 2019-10-03T12:00:00Z
Description: 15-й век. Своенравный принц Хэл трансформируется в одного из самых могущественных правителей Англии — короля Генриха V.
Long Description: 15-й век. Своенравный принц Хэл трансформируется в одного из самых могущественных правителей Англии — короля Генриха V.
Rating: mpaa|R|400|
Studio: Plan B Entertainment, Porchlight Films, Blue-Tongue Films
Cast: Timothée Chalamet, Joel Edgerton, Sean Harris, Robert Pattinson, Ben Mendelsohn, Lily-Rose Depp, Tom Glynn-Carney, Thomasin McKenzie, Dean-Charles Chapman, Edward Ashley, Thibault de Montalembert, Andrew Havill, Steven Elder, Philip Rosch, Ivan Kaye, Nicholas Wittman, Cedric Cirotteau, Roderick Hill, Alex Reed, Jeremy Chevillotte, Tom Lawrence, Thomas Fyans, Tommy Gorman, Lucas Hansen, Peter Sztojanov Jr., Chris Ecob, Tom Lacroix, Colin Thompson, Árpád Antolik, Oscar Bennett, Phil Hodges, Tim Wildman, Joshua Grant, Phillip Tolley, Harry Trevaldwyn, Zoë Scott, Hal Chase, Christopher Patrick Nolan, Gyula Mesterházy, Harry Chase, Thanh-Huy Phan, Stephen Fewell, John Taylor, Mattia Paradiso, Vincent Latorre
Director: David Michôd
Producers: Brad Pitt, Joel Edgerton, Dede Gardner, Liz Watts, David Michôd, Jeremy Kleiner
Screenwriters: William Shakespeare, Joel Edgerton, David Michôd
Composer: Nicholas Britell

Скриншоты:


Все одноименные релизы в Клубе
Время раздачи: 24/7 (до появления первых 3-5 скачавших)

Релиз подготовлен для просмотра на Apple TV, iPad, iPhone, iPod Touch.
Для просмотра данного релиза на компьютере с ОС Windows рекомендуется использовать VLC media player
[NNMClub.to]_The.King.2019.WEB-DL.1080p.m4v.torrent
 Торрент: Платиновая раздача  Зарегистрирован
 
Скачать


Примагнититься
 Зарегистрирован:   01 Ноя 2019 22:11:01
 Размер:   5,81 GB  (
 Рейтинг:   4,8 (Голосов: 19)
 Поблагодарили:   89
 Проверка:   Оформление проверено модератором 02 Ноя 2019 11:30:43
Как cкачать  ·  Как раздать  ·  Правильно оформить  ·  Поднять ратио!  

_________________
«Всё против нас, только ветер навстречу…».
🍏Apple iMac 21.5 (mid 2011) / Intel Core i5 2.7 GHz / AMD Radeon HD 6770M 512 Mb / 12GB DDR3 / Apple Trackpad, Apple Keyboard / macOS High Sierra 10.13.6 (17G8030)
garri2z
Стаж: 3 года 9 мес.
Сообщений: 39
Ratio: 8,106
100%
Фильм заделан унылым и без режиссёра.. Откуда такой рейтинг не понял ?!
VictorDUA
Стаж: 7 лет 8 мес.
Сообщений: 74
Ratio: 2,375
0%
Фильм великолепный. Простой, жесткий без "одноногихлезбиянокнегритянок".
Актер (даже оба) отлично играют. Озвучка голосов очень удачна. Прямо глоток свежего воздуха. Рекомендую.
fuddled
Стаж: 1 год 6 мес.
Сообщений: 55
Ratio: 0,009
0.19%
Фильм на удивление отличный. Харизматичные персонажи.

Французский предводитель особенно доставляет ухаха. Как маньяк выглядит и говорит.
Топик был перенесен из форума Зарубежное видео HD для устройств Apple в форум Архив 4Apple

Причина переноса: http://nnmclub.to/forum/viewtopic.php?t=1335880

Исправил релиз - напиши ЛС denver7979, дав ссылку на релиз.
Если нет ответа 24 часа - нажми на кнопку "Обратить внимание модераторов".
Показать сообщения:   
Начать новую тему   Ответить на тему    Торрент-трекер NNM-Club -> Архив торрентов -> Архив 4Apple Часовой пояс: GMT + 3
Страница 1 из 1