Классический форум-трекер
canvas not supported
Нас вместе: 4 083 785
Платим за отзывы

Ирландец / The Irishman (2019) WEB-DL [1080p] ATV


 
 
RSS
Начать новую тему   Ответить на тему    Торрент-трекер NNM-Club -> Аудио и Видео -> Зарубежное видео HD для устройств Apple
Автор Сообщение
Весельчак У ®
Модератор Apple
Стаж: 6 лет
Сообщений: 4014
Ratio: 144,519
Поблагодарили: 133038
97.79%
Откуда: От Москвы недалеко...
ussr.gif
Ирландец / The Irishman (2019) WEB-DL [1080p] ATV«His story changed history»
Производство: США / Fabrica de Cine, STX Entertainment, Sikelia Productions, Tribeca Productions
Жанр: Драма, криминал, биография

Режиссер: Мартин Скорсезе
Продюсер: Трой Аллен, Джералд Чамалс, Роберт Де Ниро
Актеры: Роберт Де Ниро, Анна Пэкуин, Аль Пачино, Джо Пеши, Алекса Палладино, Джесси Племонс, Харви Кейтель, Бобби Каннавале, Стивен Грэм, Джек Хьюстон

Описание:
История о Фрэнке Ширэне по прозвищу Ирландец, которому приписывают убийство 25 гангстеров, включая самого Джимми Хоффу.


Рейтинг MPAA: R (лицам до 17 лет обязательно присутствие взрослого)
Дата мировой премьеры: 27 сентября 2019

Продолжительность: 03:29:27
Качество видео: WEB-DL 1080р
Перевод: Дублированный (Пифагор)
Субтитры: Русские (forced, full), английские (forced, full, SDH)

Видео: H.264, 1920x1080 (16:9), ~6797 kbps, 23.976 fps
Аудио#1: AAC, 2.0 ch, 173 Kbps - Русский DUB, Пифагор
Аудио#2: AAC, 2.0 ch, 175 Kbps - English, Original
Аудио#3: AC3, 6.0 ch, 640 Kbps - Русский DUB, Пифагор
Аудио#4: AC3, 6.0 ch, 640 Kbps - English, Original

Общее
Полное имя : /Volumes/HDD/Movies/NNMC/The.Irishman.2019.WEB-DL.1080p.m4v
Формат : MPEG-4
Идентификатор кодека : M4V (M4V /M4A /mp42/isom)
Размер файла : 12,3 Гбайт
Продолжительность : 3 ч. 29 м.
Режим общего битрейта : Переменный
Общий поток : 8434 Кбит/сек
Название фильма : Ирландец
Исполнитель : Martin Scorsese
Режиссёр : Martin Scorsese
Исполнитель : Robert De Niro / Al Pacino / Joe Pesci / Harvey Keitel / Jesse Plemons / Ray Romano / Bobby Cannavale / Anna Paquin / Stephen Graham / Kathrine Narducci / J.C. MacKenzie / Craig Vincent / Gary Basaraba / Jack Huston / Domenick Lombardozzi / India Ennenga / Joseph Russo / Aly Mang / John Cenatiempo / Larry Romano / Sebastian Maniscalco / Rebecca Faulkenberry / Stephanie Kurtzuba / Robert Funaro / Veronica Alicino / Jeremy Luke / Natasha Romanova / Doris McCarthy / Louis Cancelmi / George Katt / John Scurti / Liz Celeste / Welker White / Kevin O'Rourke / Bo Dietl / Ashley North / Claudette Lalí / Kevin Kane / Alex Ziwak / Kenneth Carrella / Jennifer Mudge / Jessica VanOss / Paul Borghese / Frank Modica / Kelly P. Williams / Mike Massimino / Josephine Velez / James Lorinz / Erika Smith / Salvatore DiSanto / Saskia Slaaf / Jim Coniglione / Brent Costantino / Danny A. Abeckaser / Scotty Atkins / Arthur Hiou / Tom Rhoads / Lauren Aparicio / Robert C. Kirk / Jessica Carollo / Gino Cafarelli / David Wenzel / Patrick Gallo / Jarrod LaBine / Clark Carmichael / Siena Marino / Ron Castellano / Joseph Oliveira / Vincent Riviezzo / Anne Horak / Thomas Bencivenga / Bill Timoney / Frances Mignano / Frank Amoruso / Kerry McGann / Samuel Difiore / Thomas E. Sullivan / James Ciccone / Rob Tunstall / Melody Krell / Anthony Welch / Dominick LaRuffa Jr. / Scott Eliasoph / Erick Zamora / Cliff Moylan / Matteo Borgomanero / Richard V. Licata / Franco Quartuccio / Al Linea / Patrick Borriello / Gregory Cioffi / John Antorino / Jamie Mattus / Cilda Shaur / Gage Maynard / Emilie Cantante / Gina Lerario / Steve Garfanti / Kevin D. McGee / John Polce / Jason Liebman / Thomas D. Weaver / Michael Romeo Ruocco / Matthew F. O’Connor / Rebecca Merle / John Cashin / Tommy Bayiokos / Albert Kobrovsky / Steven Van Zandt / Marin Ireland / Action Bronson / Paul Herman / Dascha Polanco / Paul Ben-Victor
Сценарист : Steven Zaillian / Charles Brandt
Продюсер : Robert De Niro / Martin Scorsese / Jane Rosenthal / Irwin Winkler / Randall Emmett / Emma Tillinger Koskoff / Troy Allen / Gastón Pavlovich
Исполнительный продюсер : Richard Baratta, Jai Stefan, Niels Juul, Berry Welsh
Студия-производитель : Tribeca Productions, Sikelia Productions, Fábrica de Cine, STX Entertainment
Жанр : криминал, история
Тип содержимого : Short Film
Дата записи : UTC 2019-11-01 12:00:00
Дата кодирования : UTC 2019-11-27 13:31:47
Дата пометки : UTC 2019-11-27 13:38:57
Обложка : Yes
LongDescription : Основанный на книге «Я слышал, ты красишь дома», проект расскажет о Фрэнке Ширэне по прозвищу Ирландец, которому приписывают убийство 25 гангстеров, включая самого Джимми Хоффу.
ContentRating : mpaa|Unrated|???|

Видео
Идентификатор : 1
Формат : AVC
Формат/Информация : Advanced Video Codec
Профиль формата : High@L4
Настройки формата : CABAC / 4 Ref Frames
Параметр CABAC формата : Да
Параметр ReFrames формата : 4 кадра
Идентификатор кодека : avc1
Идентификатор кодека/Информация : Advanced Video Coding
Продолжительность : 3 ч. 29 м.
Вид битрейта : Переменный
Битрейт : 6797 Кбит/сек
Максимальный битрейт : 20,0 Мбит/сек
Ширина : 1920 пикселей
Высота : 1080 пикселей
Соотношение сторон : 16:9
Режим частоты кадров : Переменный
Частота кадров : 24,000 кадра/сек
Минимальная частота кадров : 23,810 кадра/сек
Максимальная частота кадров : 24,390 кадра/сек
Цветовое пространство : YUV
Субдискретизация насыщенности : 4:2:0
Битовая глубина : 8 бит
Тип развёртки : Прогрессивная
Бит/(Пиксели*Кадры) : 0.137
Размер потока : 9,94 Гбайт (81%)
Библиотека кодирования : x264 core 148 r2715 7e75228
Настройки программы : cabac=1 / ref=4 / deblock=1:0:0 / analyse=0x3:0x111 / me=umh / subme=10 / psy=1 / psy_rd=1.00:0.00 / mixed_ref=1 / me_range=120 / chroma_me=1 / trellis=2 / 8x8dct=1 / cqm=0 / deadzone=21,11 / fast_pskip=1 / chroma_qp_offset=-2 / threads=8 / lookahead_threads=2 / sliced_threads=0 / nr=0 / decimate=1 / interlaced=0 / bluray_compat=0 / stitchable=1 / constrained_intra=0 / bframes=16 / b_pyramid=2 / b_adapt=2 / b_bias=0 / direct=3 / weightb=1 / open_gop=0 / weightp=2 / keyint=240 / keyint_min=121 / scenecut=0 / intra_refresh=0 / rc_lookahead=240 / rc=crf / mbtree=1 / crf=16.0 / qcomp=0.50 / qpmin=6 / qpmax=51 / qpstep=4 / vbv_maxrate=20000 / vbv_bufsize=25000 / crf_max=0.0 / nal_hrd=vbr / filler=0 / ip_ratio=1.40 / aq=1:0.80
Язык : English
Дата кодирования : UTC 2019-11-27 13:31:47
Дата пометки : UTC 2019-11-27 13:35:11
Codec configuration box : avcC

Аудио #1
Идентификатор : 2
Формат : AAC LC
Формат/Информация : Advanced Audio Codec Low Complexity
Идентификатор кодека : mp4a-40-2
Продолжительность : 3 ч. 29 м.
Продолжительность оригинала : 3 ч. 29 м.
Вид битрейта : Переменный
Битрейт : 173 Кбит/сек
Максимальный битрейт : 307 Кбит/сек
Каналы : 2 канала
Channel layout : L R
Частота : 48,0 КГц
Частота кадров : 46,875 кадров/сек (1024 SPF)
Метод сжатия : С потерями
Размер потока : 259 Мбайт (2%)
Размер потока оригинала : 259 Мбайт (2%)
Язык : Russian
Default : Да
Alternate group : 1
Дата кодирования : UTC 2019-11-27 13:31:47
Дата пометки : UTC 2019-11-27 13:38:55
Fallback From : 4
tagc : public.main-program-content

Аудио #2
Идентификатор : 3
Формат : AAC LC
Формат/Информация : Advanced Audio Codec Low Complexity
Идентификатор кодека : mp4a-40-2
Продолжительность : 3 ч. 29 м.
Продолжительность оригинала : 3 ч. 29 м.
Вид битрейта : Переменный
Битрейт : 175 Кбит/сек
Максимальный битрейт : 329 Кбит/сек
Каналы : 2 канала
Channel layout : L R
Частота : 48,0 КГц
Частота кадров : 46,875 кадров/сек (1024 SPF)
Метод сжатия : С потерями
Размер потока : 262 Мбайт (2%)
Размер потока оригинала : 262 Мбайт (2%)
Язык : English
Default : Нет
Alternate group : 1
Дата кодирования : UTC 2019-11-27 13:31:47
Дата пометки : UTC 2019-11-27 13:38:53
Fallback From : 5
tagc : public.main-program-content

Аудио #3
Идентификатор : 4
Формат : AC-3
Формат/Информация : Audio Coding 3
Коммерческое название : Dolby Digital
Идентификатор кодека : ac-3
Продолжительность : 3 ч. 29 м.
Вид битрейта : Постоянный
Битрейт : 640 Кбит/сек
Каналы : 6 каналов
Channel layout : L R C LFE Ls Rs
Частота : 48,0 КГц
Частота кадров : 31,250 кадров/сек (1536 SPF)
Метод сжатия : С потерями
Размер потока : 959 Мбайт (8%)
Язык : Russian
Service kind : Complete Main
Default : Inherited From: 2
Alternate group : 1
Дата кодирования : UTC 2019-11-27 13:31:47
Дата пометки : UTC 2019-11-27 13:38:54
Fallback To : 2
tagc : public.main-program-content

Аудио #4
Идентификатор : 5
Формат : AC-3
Формат/Информация : Audio Coding 3
Коммерческое название : Dolby Digital
Идентификатор кодека : ac-3
Продолжительность : 3 ч. 29 м.
Вид битрейта : Постоянный
Битрейт : 640 Кбит/сек
Каналы : 6 каналов
Channel layout : L R C LFE Ls Rs
Частота : 48,0 КГц
Частота кадров : 31,250 кадров/сек (1536 SPF)
Метод сжатия : С потерями
Размер потока : 959 Мбайт (8%)
Язык : English
Service kind : Complete Main
Default : Нет
Alternate group : 1
Дата кодирования : UTC 2019-11-27 13:31:47
Дата пометки : UTC 2019-11-27 13:38:52
Fallback To : 3
tagc : public.main-program-content

Текст #1
Идентификатор : 6
Формат : Timed Text
Режим смешивания : sbtl
Идентификатор кодека : tx3g
Продолжительность : 3 ч. 28 м.
Вид битрейта : Переменный
Битрейт : 12 бит/сек
Размер потока : 18,1 Кбайт (0%)
Язык : Russian
Default : Да
Forced : Нет
Alternate group : 2
Дата кодирования : UTC 2019-11-27 13:31:47
Дата пометки : UTC 2019-11-27 13:35:11
tagc : public.subtitles.forced-only

Текст #2
Идентификатор : 7
Формат : Timed Text
Режим смешивания : sbtl
Идентификатор кодека : tx3g
Продолжительность : 3 ч. 28 м.
Вид битрейта : Переменный
Битрейт : 109 бит/сек
Размер потока : 167 Кбайт (0%)
Язык : Russian
Default : Нет
Forced : Нет
Alternate group : 2
Дата кодирования : UTC 2019-11-27 13:31:47
Дата пометки : UTC 2019-11-27 13:35:13
tagc : public.main-program-content

Текст #3
Идентификатор : 8
Формат : Timed Text
Режим смешивания : sbtl
Идентификатор кодека : tx3g
Продолжительность : 18 м. 9 с.
Вид битрейта : Переменный
Битрейт : 3 бит/сек
Размер потока : 409 байт (0%)
Язык : English
Default : Нет
Forced : Нет
Alternate group : 2
Дата кодирования : UTC 2019-11-27 13:31:47
Дата пометки : UTC 2019-11-27 13:35:11
tagc : public.subtitles.forced-only

Текст #4
Идентификатор : 9
Формат : Timed Text
Режим смешивания : sbtl
Идентификатор кодека : tx3g
Продолжительность : 3 ч. 18 м.
Вид битрейта : Переменный
Битрейт : 81 бит/сек
Размер потока : 118 Кбайт (0%)
Язык : English
Default : Нет
Forced : Нет
Alternate group : 2
Дата кодирования : UTC 2019-11-27 13:31:47
Дата пометки : UTC 2019-11-27 13:35:13
tagc : public.main-program-content

Текст #5
Идентификатор : 10
Формат : Timed Text
Режим смешивания : sbtl
Идентификатор кодека : tx3g
Продолжительность : 3 ч. 21 м.
Вид битрейта : Переменный
Битрейт : 105 бит/сек
Размер потока : 155 Кбайт (0%)
Язык : English
Default : Нет
Forced : Нет
Alternate group : 2
Дата кодирования : UTC 2019-11-27 13:31:47
Дата пометки : UTC 2019-11-27 13:35:13
tagc : public.accessibility.transcribes-spoken-dialog


Name: Ирландец
Artist: Martin Scorsese
Media Kind: Movie
HD Video: 1080p
Genre: криминал, история
Release Date: 2019-11-01T12:00:00Z
Long Description: Основанный на книге «Я слышал, ты красишь дома», проект расскажет о Фрэнке Ширэне по прозвищу Ирландец, которому приписывают убийство 25 гангстеров, включая самого Джимми Хоффу.
Rating: mpaa|Unrated|???|
Studio: Tribeca Productions, Sikelia Productions, Fábrica de Cine, STX Entertainment
Cast: Robert De Niro, Al Pacino, Joe Pesci, Harvey Keitel, Jesse Plemons, Ray Romano, Bobby Cannavale, Anna Paquin, Stephen Graham, Kathrine Narducci, J.C. MacKenzie, Craig Vincent, Gary Basaraba, Jack Huston, Domenick Lombardozzi, India Ennenga, Joseph Russo, Aly Mang, John Cenatiempo, Larry Romano, Sebastian Maniscalco, Rebecca Faulkenberry, Stephanie Kurtzuba, Robert Funaro, Veronica Alicino, Jeremy Luke, Natasha Romanova, Doris McCarthy, Louis Cancelmi, George Katt, John Scurti, Liz Celeste, Welker White, Kevin O'Rourke, Bo Dietl, Ashley North, Claudette Lalí, Kevin Kane, Alex Ziwak, Kenneth Carrella, Jennifer Mudge, Jessica VanOss, Paul Borghese, Frank Modica, Kelly P. Williams, Mike Massimino, Josephine Velez, James Lorinz, Erika Smith, Salvatore DiSanto, Saskia Slaaf, Jim Coniglione, Brent Costantino, Danny A. Abeckaser, Scotty Atkins, Arthur Hiou, Tom Rhoads, Lauren Aparicio, Robert C. Kirk, Jessica Carollo, Gino Cafarelli, David Wenzel, Patrick Gallo, Jarrod LaBine, Clark Carmichael, Siena Marino, Ron Castellano, Joseph Oliveira, Vincent Riviezzo, Anne Horak, Thomas Bencivenga, Bill Timoney, Frances Mignano, Frank Amoruso, Kerry McGann, Samuel Difiore, Thomas E. Sullivan, James Ciccone, Rob Tunstall, Melody Krell, Anthony Welch, Dominick LaRuffa Jr., Scott Eliasoph, Erick Zamora, Cliff Moylan, Matteo Borgomanero, Richard V. Licata, Franco Quartuccio, Al Linea, Patrick Borriello, Gregory Cioffi, John Antorino, Jamie Mattus, Cilda Shaur, Gage Maynard, Emilie Cantante, Gina Lerario, Steve Garfanti, Kevin D. McGee, John Polce, Jason Liebman, Thomas D. Weaver, Michael Romeo Ruocco, Matthew F. O’Connor, Rebecca Merle, John Cashin, Tommy Bayiokos, Albert Kobrovsky, Steven Van Zandt, Marin Ireland, Action Bronson, Paul Herman, Dascha Polanco, Paul Ben-Victor
Director: Martin Scorsese
Producers: Robert De Niro, Martin Scorsese, Jane Rosenthal, Irwin Winkler, Randall Emmett, Emma Tillinger Koskoff, Troy Allen, Gastón Pavlovich
Executive Producer: Richard Baratta, Jai Stefan, Niels Juul, Berry Welsh
Screenwriters: Steven Zaillian, Charles Brandt

Скриншоты:


Все одноименные релизы в Клубе
Время раздачи: 24/7 (до появления первых 3-5 скачавших)

Релиз подготовлен для просмотра на Apple TV, iPad, iPhone, iPod Touch.
Для просмотра данного релиза на компьютере с ОС Windows рекомендуется использовать VLC media player
[NNMClub.to]_The.Irishman.2019.WEB-DL.1080p.m4v.torrent
 Торрент:   Зарегистрирован
 
Зарегистрируйтесь и скачайте торрент!
124 KB

Примагнититься
 Зарегистрирован:   27 Ноя 2019 16:56:24
 Размер:   12,3 GB  (
 Рейтинг:   4,8 (Голосов: 53)
 Поблагодарили:   229
 Проверка:   Оформление проверено модератором 27 Ноя 2019 17:14:53
Как cкачать  ·  Как раздать  ·  Правильно оформить  ·  Поднять ратио!  

_________________
«Всё против нас, только ветер навстречу…».
🍏Apple iMac 21.5 (mid 2011) / Intel Core i5 2.7 GHz / AMD Radeon HD 6770M 512 Mb / 12GB DDR3 / Apple Trackpad, Apple Keyboard / macOS High Sierra 10.13.6 (17G8030)
Loading...
Yuridar
 
Стаж: 4 года 10 мес.
Сообщений: 416
Ratio: 7,933
Раздал: 2,578 TB
Поблагодарили: 3321
100%
iran.gif
Вот такое кино о мафии - очень правильное. Довольно героизировать, романтизировать и оправдывать мафиози (всё-таки это просто бандиты, и деяния их нечисты, то есть нечестивы). Пора показать суровую правду, какая бы нелицеприятная она бы ни была: за всё надо платить, и цена за содеянное может оказаться велика, а наказание жестоко... О нет
Цитата:
Сыр не бывает бесплатным,- помни: если ты вкушаешь этот сыр, и тебе кажется, что весь мир у тебя в кармане, и ты весь в шоколаде, оглянись - возможно ты уже находишься внутри мышеловки, куда сам себя загнал... :шок:
(Yuridar)

_________________
Я против несправедливого, безумного мира. Но я его пленник. Если я начну навязывать всем мой образ жизни, меня точно убьют. Но не лишайте меня свободы выражать мои мысли.
(Хосе Мухика)
Показать сообщения:   
Начать новую тему   Ответить на тему    Торрент-трекер NNM-Club -> Аудио и Видео -> Зарубежное видео HD для устройств Apple Часовой пояс: GMT + 3
Страница 1 из 1