Классический форум-трекер
canvas not supported
Нас вместе: 4 103 354

Эверест / Abominable (2019) WEB-DL [1080p] ATV


 
 
RSS
Начать новую тему   Ответить на тему    Торрент-трекер NNM-Club -> Архив торрентов -> Архив 4Apple
Автор Сообщение
Весельчак У ®
Модератор Apple
Стаж: 6 лет 4 мес.
Сообщений: 5315
Ratio: 149,664
Поблагодарили: 172983
94.13%
Откуда: От Москвы недалеко...
ussr.gif
Эверест / Abominable (2019) WEB-DL [1080p] ATV«Поверь в волшебство»
Производство: Китай, США / DreamWorks Animation, Pearl Studio
Жанр: Мультфильм, фэнтези, комедия, приключения, семейный

Режиссер: Джилл Калтон, Тодд Вилдерман
Продюсер: Сюзанн Бёрги, Пейлин Чоу, Дейв Полски
Актеры: Хлоя Беннет, Альберт Цай, Тензинг Норгай Трэйнор, Джозеф Иццо, Эдди Иззард, Сара Полсон, Цай Чинь, Мишель Вонг, Рич Дитль, Джеймс Хонг

Описание:
Путешествие на самую высокую точку мира? Что может быть круче! Так решает Лу, когда случайно находит огромное, но очень милое чудовище посреди шумного мегаполиса. Пусть их преследуют ученые из сверхсекретной лаборатории, зато её новый друг умеет смешить и творить чудеса. Лу уверена, что поможет дружелюбному йети вернуться домой - на Эверест.


Возраст: 6+ (зрителям, достигшим 6 лет)
Рейтинг MPAA: PG (рекомендуется присутствие родителей)
Дата мировой премьеры: 7 сентября 2019
Дата российской премьеры: 3 октября 2019, «UPI»

Продолжительность: 01:37:13
Качество видео: WEB-DL 1080р
Перевод: Дублированный (iTunes)
Субтитры: Русские (forced, хардсаб)

Видео: H.264, 1916x1032 (1,85:1), ~5106 kbps, 23.976 fps
Аудио#1: AAC, 2.0 ch, 197 Kbps - Русский DUB, iTunes
Аудио#2: AC3, 6.0 ch, 384 Kbps - Русский DUB, iTunes

Общее
Полное имя : /Volumes/HDD/Movies/NNMC/Abominable.2019.WEB-DL.1080p.m4v
Формат : MPEG-4
Идентификатор кодека : M4V (M4V /M4A /mp42/isom)
Размер файла : 3,87 Гбайт
Продолжительность : 1 ч. 37 м.
Режим общего битрейта : Переменный
Общий поток : 5694 Кбит/сек
Название фильма : Эверест (2019)
Исполнитель : Jill Culton
Режиссёр : Jill Culton
Исполнитель : Vasilisa Eldarova / Filipp Lebedev / Vladimir Voytuk / Anatoliy Pashnin / Елена Шульман / Yaroslava Turyleva
Сценарист : Jill Culton
Продюсер : Peilin Chou / Suzanne Buirgy
Студия-производитель : Universal Pictures
Жанр : Для всей семьи
Тип содержимого : Short Film
Дата записи : UTC 2019-10-03 07:00:00
Дата кодирования : UTC 2019-11-27 22:03:49
Дата пометки : UTC 2019-11-27 22:06:44
Авторское право : © 2019 DreamWorks Animation LLC.
Обложка : Yes
LongDescription : Путешествие на самую высокую точку мира? Что может быть круче! Так решает Лу, когда случайно находит огромное, но очень милое чудовище посреди шумного мегаполиса. Пусть их преследуют ученые из сверхсекретной лаборатории, зато её новый друг умеет смешить и творить чудеса. Лу уверена, что она поможет дружелюбному йети вернуться домой -- на Эверест.
AppleStoreCountry : Russia
AppleStoreCatalogID : 1481211057
ContentRating : ru-movie|6+|150|

Видео #1
Идентификатор : 1
Формат : AVC
Формат/Информация : Advanced Video Codec
Профиль формата : High@L4
Настройки формата : CABAC / 4 Ref Frames
Параметр CABAC формата : Да
Параметр ReFrames формата : 4 кадра
Идентификатор кодека : avc1
Идентификатор кодека/Информация : Advanced Video Coding
Продолжительность : 1 ч. 37 м.
Битрейт : 5106 Кбит/сек
Ширина : 1916 пикселей
Высота : 1032 пикселя
Соотношение сторон : 1,85:1
Режим частоты кадров : Переменный
Частота кадров : 23,976 (23976/1000) кадра/сек
Минимальная частота кадров : 23,810 кадра/сек
Максимальная частота кадров : 24,390 кадра/сек
Цветовое пространство : YUV
Субдискретизация насыщенности : 4:2:0
Битовая глубина : 8 бит
Тип развёртки : Прогрессивная
Бит/(Пиксели*Кадры) : 0.108
Размер потока : 3,47 Гбайт (90%)
Язык : English
Дата кодирования : UTC 2019-11-27 22:03:49
Дата пометки : UTC 2019-11-27 22:06:33
Цветовой диапазон : Limited
Основные цвета : BT.709
Характеристики трансфера : BT.709
Коэффициенты матрицы : BT.709
Menus : 4,5
Codec configuration box : avcC

Видео #2
Идентификатор : 5
Формат : JPEG
Идентификатор кодека : jpeg
Продолжительность : 1 ч. 37 м.
Вид битрейта : Переменный
Битрейт : 1112 бит/сек
Ширина : 640 пикселей
Высота : 344 пикселя
Соотношение сторон : 1,85:1
Режим частоты кадров : Переменный
Частота кадров : 0,003 кадр/сек
Минимальная частота кадров : 0,002 кадр/сек
Максимальная частота кадров : 0,007 кадр/сек
Цветовое пространство : YUV
Субдискретизация насыщенности : 4:2:0
Битовая глубина : 8 бит
Метод сжатия : С потерями
Бит/(Пиксели*Кадры) : 1.684
Размер потока : 905 Кбайт (0%)
Язык : English
Default : Нет
Дата кодирования : UTC 2019-11-27 22:06:41
Дата пометки : UTC 2019-11-27 22:06:43
Menu For : 1
ColorSpace_ICC : RGB

Аудио #1
Идентификатор : 2
Формат : AAC LC
Формат/Информация : Advanced Audio Codec Low Complexity
Идентификатор кодека : mp4a-40-2
Продолжительность : 1 ч. 37 м.
Вид битрейта : Переменный
Битрейт : 197 Кбит/сек
Максимальный битрейт : 309 Кбит/сек
Каналы : 2 канала
Channel layout : L R
Частота : 48,0 КГц
Частота кадров : 46,875 кадров/сек (1024 SPF)
Метод сжатия : С потерями
Размер потока : 137 Мбайт (3%)
Язык : Russian
Default : Да
Alternate group : 1
Дата кодирования : UTC 2019-11-27 22:03:49
Дата пометки : UTC 2019-11-27 22:06:33
Fallback From : 3
tagc : public.main-program-content

Аудио #2
Идентификатор : 3
Формат : AC-3
Формат/Информация : Audio Coding 3
Коммерческое название : Dolby Digital
Идентификатор кодека : ac-3
Продолжительность : 1 ч. 37 м.
Вид битрейта : Постоянный
Битрейт : 384 Кбит/сек
Каналы : 6 каналов
Channel layout : L R C LFE Ls Rs
Частота : 48,0 КГц
Частота кадров : 31,250 кадров/сек (1536 SPF)
Метод сжатия : С потерями
Размер потока : 267 Мбайт (7%)
Язык : Russian
Service kind : Complete Main
Default : Inherited From: 2
Alternate group : 1
Дата кодирования : UTC 2019-11-27 22:03:49
Дата пометки : UTC 2019-11-27 22:06:33
Fallback To : 2
tagc : public.main-program-content

Меню
Идентификатор : 4
Идентификатор кодека : text
Продолжительность : 1 ч. 37 м.
Язык : English
Дата кодирования : UTC 2019-11-27 22:06:33
Дата пометки : UTC 2019-11-27 22:06:33
Menu For : 1
00:00:00.000 : 1
00:04:12.836 : 2
00:09:11.885 : 3
00:13:43.239 : 4
00:16:14.598 : 5
00:21:35.752 : 6
00:25:03.459 : 7
00:29:31.435 : 8
00:33:58.452 : 9
00:36:44.783 : 10
00:41:54.009 : 11
00:46:31.703 : 12
00:50:43.329 : 13
00:56:32.553 : 14
01:01:41.528 : 15
01:06:34.195 : 16
01:11:45.422 : 17
01:15:27.352 : 18
01:20:42.542 : 19
01:26:45.404 : 20


Name: Эверест (2019)
Artist: Jill Culton
Media Kind: Movie
HD Video: 1080p
Genre: Для всей семьи
Release Date: 2019-10-03T07:00:00Z
Long Description: Путешествие на самую высокую точку мира? Что может быть круче! Так решает Лу, когда случайно находит огромное, но очень милое чудовище посреди шумного мегаполиса. Пусть их преследуют ученые из сверхсекретной лаборатории, зато её новый друг умеет смешить и творить чудеса. Лу уверена, что она поможет дружелюбному йети вернуться домой -- на Эверест.
Rating: ru-movie|6+|150|
Studio: Universal Pictures
Cast: Vasilisa Eldarova, Filipp Lebedev, Vladimir Voytuk, Anatoliy Pashnin, Елена Шульман, Yaroslava Turyleva
Director: Jill Culton
Producers: Peilin Chou, Suzanne Buirgy
Screenwriters: Jill Culton
Copyright: © 2019 DreamWorks Animation LLC.
content ID: 1481211057
iTunes Country: 143469

Скриншоты:


Все одноименные релизы в Клубе
Время раздачи: 24/7 (до появления первых 3-5 скачавших)

Релиз подготовлен для просмотра на Apple TV, iPad, iPhone, iPod Touch.
Для просмотра данного релиза на компьютере с ОС Windows рекомендуется использовать VLC media player
[NNMClub.to]_Abominable.2019.WEB-DL.1080p.m4v.torrent
 Торрент: Платиновая раздача  Зарегистрирован
 
Скачать


Примагнититься
 Зарегистрирован:   28 Ноя 2019 01:24:56
 Размер:   3,87 GB  (
 Рейтинг:   4,9 (Голосов: 28)
 Поблагодарили:   159
 Проверка:   Оформление проверено модератором 28 Ноя 2019 02:12:38
Как cкачать  ·  Как раздать  ·  Правильно оформить  ·  Поднять ратио!  

_________________
«Всё против нас, только ветер навстречу…».
🍏Apple iMac 21.5 (mid 2011) / Intel Core i5 2.7 GHz / AMD Radeon HD 6770M 512 Mb / 12GB DDR3 / Apple Trackpad, Apple Keyboard / macOS High Sierra 10.13.6 (17G12034)
DKurnikov
Стаж: 7 лет 2 мес.
Сообщений: 113
Ratio: 3,483
20.34%
Огненный мультик, всем советую!
WhItE DoG
Стаж: 9 лет 3 мес.
Сообщений: 27
Ratio: 13,796
25.25%
russia.gif
Хороший мультфильм, спасибо!

_________________
При зависании компьютера- выдернуть шнур, выдавить стекло!
Топик был перенесен из форума Зарубежное видео HD для устройств Apple в форум Архив 4Apple

Причина переноса: https://nnmclub.ro/forum/viewtopic.php?p=10399638#10399638

Исправил релиз - напиши ЛС denver7979, дав ссылку на релиз.
Если нет ответа 24 часа - нажми на кнопку "Обратить внимание модераторов".
Snow1993
Стаж: 7 лет 2 мес.
Сообщений: 10
Ratio: 14,536
Раздал: 2,602 TB
100%
russia.gif
Отличный мультик! Очень добрый, визуально красивый, смотреть приятно!!! Я в восторге!
Показать сообщения:   
Начать новую тему   Ответить на тему    Торрент-трекер NNM-Club -> Архив торрентов -> Архив 4Apple Часовой пояс: GMT + 3
Страница 1 из 1