Классический форум-трекер
canvas not supported
Нас вместе: 4 094 212

Я иду искать / Ready or Not (2019) BDRip [720p] ATV


 
 
RSS
Начать новую тему   Ответить на тему    Торрент-трекер NNM-Club -> Аудио и Видео -> Зарубежное видео HD для устройств Apple
Автор Сообщение
Весельчак У ®
Модератор Apple
Стаж: 6 лет 2 мес.
Сообщений: 4845
Ratio: 140,31
Поблагодарили: 157515
95.51%
Откуда: От Москвы недалеко...
ussr.gif
Я иду искать / Ready or Not (2019) BDRip [720p] ATV«The Game Begins»
Производство: США / Mythology Entertainment, Vinson Films
Жанр: Триллер, комедия, ужасы

Режиссер: Мэттью Беттинелли, Тайлер Джиллетт
Продюсер: Брэдли Дж. Фишер, Уильям Шерак, Джеймс Вандербилт
Актеры: Самара Уивинг, Адам Броди, Марк О`Брайэн, Генри Черни, Энди МакДауэлл, Мелани Скрофано, Кристиан Бруун, Никки Гуаданьи, Элиз Левеске, Джон Ралстон

Описание:
Молодая невеста — теперь часть семьи своего новоиспеченного мужа, богатого, но эксцентричного рода, чтящего вековые традиции. Кто бы мог подумать, что первая брачная ночь превратится в смертельную игру с новообретёнными родственниками, в которой девушке нужно будет очень постараться, чтобы дожить до рассвета.


Возраст: 18+ (зрителям, достигшим 18 лет. запрещено для детей)
Рейтинг MPAA: R (лицам до 17 лет обязательно присутствие взрослого)
Дата мировой премьеры: 27 июля 2019
Дата российской премьеры: 29 августа 2019, «Двадцатый Век Фокс СНГ»

Продолжительность: 01:35:22
Качество видео: BDRip 720p
Перевод: Дублированный (iTunes)
Субтитры: Русские (forced, full), украинские (full), английские

Видео: H.264, 1280x536 (2.40:1), ~ 6498 kbps, 23.976 fps
Аудио#1: AAC, 2.0 ch, 230 Kbps - Русский DUB, iTunes
Аудио#2: AAC, 2.0 ch, 221 Kbps - Український DUB, iTunes
Аудио#3: AAC, 2.0 ch, 230 Kbps - English, Original
Аудио#4: AC3, 6.0 ch, 384 Kbps - Русский DUB, iTunes
Аудио#5: AC3, 6.0 ch, 640 Kbps - English, Original

Общее
Полное имя : /Volumes/HDD/Movies/NNMC/Ready.or.Not.2019.BDRip.720p.m4v
Формат : MPEG-4
Идентификатор кодека : M4V (M4V /M4A /mp42/isom)
Размер файла : 5,47 Гбайт
Продолжительность : 1 ч. 35 м.
Режим общего битрейта : Переменный
Общий поток : 8216 Кбит/сек
Название фильма : Ready or Not
Исполнитель : Matt Bettinelli-Olpin & Tyler Gillett
Режиссёр : Matt Bettinelli-Olpin & Tyler Gillett
Исполнитель : Samara Weaving / Adam Brody / Mark O'Brien / Henry Czerny / Andie MacDowell
Сценарист : Guy Busick / Christopher Murphy
Продюсер : Tripp Vinson / James Vanderbilt / William Sherak / Bradley J. Fischer
Студия-производитель : Fox Searchlight
Жанр : Ужасы
Тип содержимого : Short Film
Дата записи : UTC 2019-09-27 07:00:00
Дата кодирования : UTC 2019-11-28 22:04:32
Дата пометки : UTC 2019-11-28 22:09:24
Авторское право : © 2019 Twentieth Century Fox Film Corporation.
Обложка : Yes
LongDescription : READY OR NOT follows a young bride (Samara Weaving) as she joins her new husband's (Mark O'Brien) rich, eccentric family (Adam Brody, Henry Czerny, Andie MacDowell) in a time-honored tradition that turns into a lethal game with everyone fighting for their survival.
HDVideo : Yes
AppleStoreCountry : Russia
AppleStoreCatalogID : 1475863687
ContentRating : ru-movie|18+|400|

Видео #1
Идентификатор : 1
Формат : AVC
Формат/Информация : Advanced Video Codec
Профиль формата : High@L4.1
Настройки формата : CABAC / 12 Ref Frames
Параметр CABAC формата : Да
Параметр ReFrames формата : 12 кадров
Идентификатор кодека : avc1
Идентификатор кодека/Информация : Advanced Video Coding
Продолжительность : 1 ч. 35 м.
Битрейт : 6498 Кбит/сек
Ширина : 1280 пикселей
Высота : 536 пикселей
Соотношение сторон : 2,40:1
Режим частоты кадров : Переменный
Частота кадров : 23,976 (24000/1001) кадра/сек
Минимальная частота кадров : 23,810 кадра/сек
Максимальная частота кадров : 24,390 кадра/сек
Цветовое пространство : YUV
Субдискретизация насыщенности : 4:2:0
Битовая глубина : 8 бит
Тип развёртки : Прогрессивная
Бит/(Пиксели*Кадры) : 0.395
Размер потока : 4,33 Гбайт (79%)
Библиотека кодирования : x264 core 157 r2970+47 cae74a0 t_mod_New [0-bit@all X86_64]
Настройки программы : cabac=1 / ref=12 / deblock=1:-3:-3 / analyse=0x3:0x133 / me=umh / subme=10 / psy=1 / fade_compensate=0.00 / psy_rd=1.00:0.00 / mixed_ref=1 / me_range=32 / chroma_me=1 / trellis=2 / 8x8dct=1 / cqm=0 / deadzone=21,11 / fast_pskip=0 / chroma_qp_offset=-2 / threads=24 / lookahead_threads=4 / sliced_threads=0 / nr=0 / decimate=0 / interlaced=0 / bluray_compat=0 / constrained_intra=0 / fgo=0 / bframes=8 / b_pyramid=2 / b_adapt=2 / b_bias=0 / direct=3 / weightb=1 / open_gop=0 / weightp=2 / keyint=250 / keyint_min=23 / scenecut=40 / intra_refresh=0 / rc=crf / mbtree=0 / crf=15.6000 / qcomp=0.60 / qpmin=0:0:0 / qpmax=69:69:69 / qpstep=4 / ip_ratio=1.30 / pb_ratio=1.20 / aq=3:0.85 / aq-sensitivity=10.00 / aq-factor=1.00:1.00:1.00 / aq2=0 / aq3=0
Язык : English
Дата кодирования : UTC 2019-11-28 22:04:32
Дата пометки : UTC 2019-11-28 22:09:01
Menus : 11,12
Codec configuration box : avcC

Видео #2
Идентификатор : 12
Формат : JPEG
Идентификатор кодека : jpeg
Продолжительность : 1 ч. 35 м.
Вид битрейта : Переменный
Битрейт : 1304 бит/сек
Ширина : 640 пикселей
Высота : 268 пикселей
Соотношение сторон : 2,40:1
Режим частоты кадров : Переменный
Частота кадров : 0,006 кадр/сек
Минимальная частота кадров : 0,003 кадр/сек
Максимальная частота кадров : 0,012 кадр/сек
Цветовое пространство : YUV
Субдискретизация насыщенности : 4:2:0
Битовая глубина : 8 бит
Метод сжатия : С потерями
Бит/(Пиксели*Кадры) : 1.267
Размер потока : 849 Кбайт (0%)
Язык : English
Default : Нет
Дата кодирования : UTC 2019-11-28 22:09:21
Дата пометки : UTC 2019-11-28 22:09:23
Menu For : 1
ColorSpace_ICC : RGB

Аудио #1
Идентификатор : 2
Формат : AAC LC
Формат/Информация : Advanced Audio Codec Low Complexity
Идентификатор кодека : mp4a-40-2
Продолжительность : 1 ч. 35 м.
Вид битрейта : Переменный
Битрейт : 230 Кбит/сек
Максимальный битрейт : 401 Кбит/сек
Каналы : 2 канала
Channel layout : L R
Частота : 48,0 КГц
Частота кадров : 46,875 кадров/сек (1024 SPF)
Метод сжатия : С потерями
Размер потока : 157 Мбайт (3%)
Язык : Russian
Default : Да
Alternate group : 1
Дата кодирования : UTC 2019-11-28 22:04:32
Дата пометки : UTC 2019-11-28 22:09:01
Fallback From : 5
tagc : public.main-program-content

Аудио #2
Идентификатор : 3
Формат : AAC LC
Формат/Информация : Advanced Audio Codec Low Complexity
Идентификатор кодека : mp4a-40-2
Продолжительность : 1 ч. 35 м.
Вид битрейта : Переменный
Битрейт : 221 Кбит/сек
Максимальный битрейт : 354 Кбит/сек
Каналы : 2 канала
Channel layout : L R
Частота : 48,0 КГц
Частота кадров : 46,875 кадров/сек (1024 SPF)
Метод сжатия : С потерями
Размер потока : 150 Мбайт (3%)
Язык : Ukrainian
Default : Нет
Alternate group : 1
Дата кодирования : UTC 2019-11-28 22:04:32
Дата пометки : UTC 2019-11-28 22:09:01
tagc : public.main-program-content

Аудио #3
Идентификатор : 4
Формат : AAC LC
Формат/Информация : Advanced Audio Codec Low Complexity
Идентификатор кодека : mp4a-40-2
Продолжительность : 1 ч. 35 м.
Вид битрейта : Переменный
Битрейт : 230 Кбит/сек
Максимальный битрейт : 437 Кбит/сек
Каналы : 2 канала
Channel layout : L R
Частота : 48,0 КГц
Частота кадров : 46,875 кадров/сек (1024 SPF)
Метод сжатия : С потерями
Размер потока : 157 Мбайт (3%)
Язык : English
Default : Нет
Alternate group : 1
Дата кодирования : UTC 2019-11-28 22:04:32
Дата пометки : UTC 2019-11-28 22:09:01
Fallback From : 6
tagc : public.main-program-content

Аудио #4
Идентификатор : 5
Формат : AC-3
Формат/Информация : Audio Coding 3
Коммерческое название : Dolby Digital
Идентификатор кодека : ac-3
Продолжительность : 1 ч. 35 м.
Вид битрейта : Постоянный
Битрейт : 384 Кбит/сек
Каналы : 6 каналов
Channel layout : L R C LFE Ls Rs
Частота : 48,0 КГц
Частота кадров : 31,250 кадров/сек (1536 SPF)
Метод сжатия : С потерями
Размер потока : 262 Мбайт (5%)
Язык : Russian
Service kind : Complete Main
Default : Inherited From: 2
Alternate group : 1
Дата кодирования : UTC 2019-11-28 22:04:32
Дата пометки : UTC 2019-11-28 22:09:01
Fallback To : 2
tagc : public.main-program-content

Аудио #5
Идентификатор : 6
Формат : AC-3
Формат/Информация : Audio Coding 3
Коммерческое название : Dolby Digital
Идентификатор кодека : ac-3
Продолжительность : 1 ч. 35 м.
Вид битрейта : Постоянный
Битрейт : 640 Кбит/сек
Каналы : 6 каналов
Channel layout : L R C LFE Ls Rs
Частота : 48,0 КГц
Частота кадров : 31,250 кадров/сек (1536 SPF)
Метод сжатия : С потерями
Размер потока : 437 Мбайт (8%)
Язык : English
Service kind : Complete Main
Default : Нет
Alternate group : 1
Дата кодирования : UTC 2019-11-28 22:04:32
Дата пометки : UTC 2019-11-28 22:09:01
Fallback To : 4
tagc : public.main-program-content

Текст #1
Идентификатор : 7
Формат : Timed Text
Режим смешивания : sbtl
Идентификатор кодека : tx3g
Продолжительность : 1 ч. 35 м.
Вид битрейта : Переменный
Битрейт : 6 бит/сек
Размер потока : 3,99 Кбайт (0%)
Язык : Russian
Default : Да
Forced : Нет
Alternate group : 2
Дата кодирования : UTC 2019-11-28 22:04:32
Дата пометки : UTC 2019-11-28 22:09:01
tagc : public.subtitles.forced-only

Текст #2
Идентификатор : 8
Формат : Timed Text
Режим смешивания : sbtl
Идентификатор кодека : tx3g
Продолжительность : 1 ч. 35 м.
Вид битрейта : Переменный
Битрейт : 83 бит/сек
Размер потока : 58,1 Кбайт (0%)
Язык : Russian
Default : Нет
Forced : Нет
Alternate group : 2
Дата кодирования : UTC 2019-11-28 22:04:32
Дата пометки : UTC 2019-11-28 22:09:01
tagc : public.main-program-content

Текст #3
Идентификатор : 9
Формат : Timed Text
Режим смешивания : sbtl
Идентификатор кодека : tx3g
Продолжительность : 1 ч. 35 м.
Вид битрейта : Переменный
Битрейт : 72 бит/сек
Размер потока : 50,0 Кбайт (0%)
Язык : Ukrainian
Default : Нет
Forced : Нет
Alternate group : 2
Дата кодирования : UTC 2019-11-28 22:04:32
Дата пометки : UTC 2019-11-28 22:09:01
tagc : public.main-program-content

Текст #4
Идентификатор : 10
Формат : Timed Text
Режим смешивания : sbtl
Идентификатор кодека : tx3g
Продолжительность : 1 ч. 35 м.
Вид битрейта : Переменный
Битрейт : 53 бит/сек
Размер потока : 36,8 Кбайт (0%)
Язык : English
Default : Нет
Forced : Нет
Alternate group : 2
Дата кодирования : UTC 2019-11-28 22:04:32
Дата пометки : UTC 2019-11-28 22:09:01
tagc : public.main-program-content

Меню
Идентификатор : 11
Идентификатор кодека : text
Продолжительность : 1 ч. 35 м.
Язык : English
Дата кодирования : UTC 2019-11-28 22:09:02
Дата пометки : UTC 2019-11-28 22:09:02
Вид битрейта : CBR
Menu For : 1
00:00:00.000 : Chapter 01
00:03:11.817 : Chapter 02
00:06:49.534 : Chapter 03
00:09:27.776 : Chapter 04
00:12:27.038 : Chapter 05
00:16:24.150 : Chapter 06
00:21:57.941 : Chapter 07
00:25:21.061 : Chapter 08
00:28:00.262 : Chapter 09
00:31:21.922 : Chapter 10
00:34:46.459 : Chapter 11
00:36:08.625 : Chapter 12
00:38:23.760 : Chapter 13
00:41:55.930 : Chapter 14
00:45:40.363 : Chapter 15
00:48:03.047 : Chapter 16
00:51:50.441 : Chapter 17
00:54:05.075 : Chapter 18
00:57:05.088 : Chapter 19
00:59:52.714 : Chapter 20
01:01:37.903 : Chapter 21
01:04:01.671 : Chapter 22
01:07:31.422 : Chapter 23
01:09:25.828 : Chapter 24
01:11:48.304 : Chapter 25
01:15:59.722 : Chapter 26
01:18:34.585 : Chapter 27
01:21:39.645 : Chapter 28
01:24:07.291 : Chapter 29
01:27:48.013 : Chapter 30
01:29:22.315 : Chapter 31
01:30:49.152 : Chapter 32
Вид битрейта : Постоянный


Name: Ready or Not
Artist: Matt Bettinelli-Olpin & Tyler Gillett
Media Kind: Movie
HD Video: 720p
Genre: Ужасы
Release Date: 2019-09-27T07:00:00Z
Long Description: READY OR NOT follows a young bride (Samara Weaving) as she joins her new husband's (Mark O'Brien) rich, eccentric family (Adam Brody, Henry Czerny, Andie MacDowell) in a time-honored tradition that turns into a lethal game with everyone fighting for their survival.
Rating: ru-movie|18+|400|
Studio: Fox Searchlight
Cast: Samara Weaving, Adam Brody, Mark O'Brien, Henry Czerny, Andie MacDowell
Director: Matt Bettinelli-Olpin & Tyler Gillett
Producers: Tripp Vinson, James Vanderbilt, William Sherak, Bradley J. Fischer
Screenwriters: Guy Busick, Christopher Murphy
Copyright: © 2019 Twentieth Century Fox Film Corporation.
content ID: 1475863687
iTunes Country: 143469

Скриншоты:


Все одноименные релизы в Клубе
Время раздачи: 24/7 (до появления первых 3-5 скачавших)

Релиз подготовлен для просмотра на Apple TV, iPad, iPhone, iPod Touch.
Для просмотра данного релиза на компьютере с ОС Windows рекомендуется использовать VLC media player
[NNMClub.to]_Ready.or.Not.2019.BDRip.720p.m4v.torrent
 Торрент: Платиновая раздача  Зарегистрирован
 
Скачать


Примагнититься
 Зарегистрирован:   29 Ноя 2019 01:17:54
 Размер:   5,47 GB  (
 Рейтинг:   4,7 (Голосов: 10)
 Поблагодарили:   50
 Проверка:   Оформление проверено модератором 29 Ноя 2019 01:25:37
Как cкачать  ·  Как раздать  ·  Правильно оформить  ·  Поднять ратио!  

_________________
«Всё против нас, только ветер навстречу…».
🍏Apple iMac 21.5 (mid 2011) / Intel Core i5 2.7 GHz / AMD Radeon HD 6770M 512 Mb / 12GB DDR3 / Apple Trackpad, Apple Keyboard / macOS High Sierra 10.13.6 (17G8030)
Показать сообщения:   
Начать новую тему   Ответить на тему    Торрент-трекер NNM-Club -> Аудио и Видео -> Зарубежное видео HD для устройств Apple Часовой пояс: GMT + 3
Страница 1 из 1