Классический форум-трекер
canvas not supported
Нас вместе: 4 084 215
Платим за отзывы

Следи за дорогой / Adopt a Highway (2019) WEB-DL [1080p] (MVO) ATV


 
 
RSS
Начать новую тему   Ответить на тему    Торрент-трекер NNM-Club -> Аудио и Видео -> Зарубежное видео HD для устройств Apple
Автор Сообщение
Весельчак У ®
Модератор Apple
Стаж: 6 лет
Сообщений: 4107
Ratio: 142,872
Поблагодарили: 135755
96.9%
Откуда: От Москвы недалеко...
ussr.gif
Следи за дорогой / Adopt a Highway (2019) WEB-DL [1080p] ATV
Производство: США / Divide/Conquer, Blumhouse Productions, Under the Influence
Жанр: Драма

Режиссер: Логан Маршалл-Грин
Продюсер: Джейсон Блум, Грег Гилрет, Итан Хоук
Актеры: Итэн Хоук, Крис Салливан, Кристофер Хейердал, Илэйн Хендрикс, Энн-Мари Джонсон, Бетти Гэбриел, Мо, Нат Муни, Дон Норвуд, Милона Джексон, Крис Уильямс, Дайан Маршалл-Грин, Джереми Харрис, Хорхе Диас, Лони Лав

Описание:
Рассел вышел на свободу, отсидев 20 лет в тюрьме. Он пытается приспособиться к жизни, работая в закусочной и проживая в маленькой убогой квартире. Однажды ночью в мусорном баке он находит младенца и решает заботиться о нем.


Дата мировой премьеры: 10 марта 2019

Продолжительность: 01:21:17
Качество видео: WEB-DL 1080р
Перевод: Профессиональный двухголосый (Voice Project Studio)
Присутствует ненормативная лексика!
Субтитры: Русские (FOCS), английские

Видео: H.264, 1920x1072 (16:9), ~5209 kbps, 23.976 fps
Аудио#1: AAC, 2.0 ch, 197 Kbps - Русский MVO, Voice Project Studio (без цензуры)
Аудио#2: AAC, 2.0 ch, 185 Kbps - English, Original
Аудио#3: AC3, 6.0 ch, 384 Kbps - English, Original

Общее
Полное имя : /Volumes/HDD/Movies/NNMC/Adopt.A.Highway.2019.WEB-DL.1080p.m4v
Формат : MPEG-4
Идентификатор кодека : M4V (M4V /M4A /mp42/isom)
Размер файла : 3,40 Гбайт
Продолжительность : 1 ч. 21 м.
Режим общего битрейта : Переменный
Общий поток : 5984 Кбит/сек
Название фильма : Следи за дорогой
Исполнитель : Logan Marshall-Green
Композитор : Jason Isbell
Режиссёр : Logan Marshall-Green
Исполнитель : Ethan Hawke / Elaine Hendrix / Diane Gaeta / Betty Gabriel / Mo McRae / Chris Sullivan / Nate Mooney / Christopher Heyerdahl / Anne-Marie Johnson
Сценарист : Logan Marshall-Green
Продюсер : Ethan Hawke / Jason Blum / Adam Hendricks / John H. Lang / Greg Gilreath / Ryan Hawke
Исполнительный продюсер : Couper Samuelson, Donald Tang, Zac Locke
Студия-производитель : Blumhouse Productions, Divide / Conquer
Жанр : драма
Тип содержимого : Short Film
Дата записи : UTC 2019-11-01 12:00:00
Дата кодирования : UTC 2019-12-01 11:41:22
Дата пометки : UTC 2019-12-01 11:44:13
Обложка : Yes
LongDescription : Рассел вышел на свободу, отсидев 20 лет в тюрьме. Он пытается приспособиться к жизни, работая в закусочной и проживая в маленькой убогой квартире. Однажды ночью в мусорном баке он находит младенца и решает заботиться о нем.
ContentRating : mpaa|Unrated|???|

Видео #1
Идентификатор : 1
Формат : AVC
Формат/Информация : Advanced Video Codec
Профиль формата : High@L4
Настройки формата : CABAC / 4 Ref Frames
Параметр CABAC формата : Да
Параметр ReFrames формата : 4 кадра
Идентификатор кодека : avc1
Идентификатор кодека/Информация : Advanced Video Coding
Продолжительность : 1 ч. 21 м.
Битрейт : 5209 Кбит/сек
Ширина : 1912 пикселей
Высота : 1072 пикселя
Соотношение сторон : 16:9
Режим частоты кадров : Переменный
Частота кадров : 23,976 (24000/1001) кадра/сек
Минимальная частота кадров : 23,810 кадра/сек
Максимальная частота кадров : 24,390 кадра/сек
Цветовое пространство : YUV
Субдискретизация насыщенности : 4:2:0
Битовая глубина : 8 бит
Тип развёртки : Прогрессивная
Бит/(Пиксели*Кадры) : 0.106
Размер потока : 2,96 Гбайт (87%)
Язык : English
Дата кодирования : UTC 2019-12-01 11:41:22
Дата пометки : UTC 2019-12-01 11:44:07
Цветовой диапазон : Limited
Основные цвета : BT.709
Характеристики трансфера : BT.709
Коэффициенты матрицы : BT.709
Menus : 7,8
Codec configuration box : avcC

Видео #2
Идентификатор : 8
Формат : JPEG
Идентификатор кодека : jpeg
Продолжительность : 1 ч. 21 м.
Вид битрейта : Переменный
Битрейт : 621 бит/сек
Ширина : 640 пикселей
Высота : 358 пикселей
Соотношение сторон : 16:9
Режим частоты кадров : Переменный
Частота кадров : 0,002 кадр/сек
Минимальная частота кадров : 0,001 кадр/сек
Максимальная частота кадров : 0,003 кадр/сек
Цветовое пространство : YUV
Субдискретизация насыщенности : 4:2:0
Битовая глубина : 8 бит
Метод сжатия : С потерями
Бит/(Пиксели*Кадры) : 1.355
Размер потока : 341 Кбайт (0%)
Язык : English
Default : Нет
Дата кодирования : UTC 2019-12-01 11:44:12
Дата пометки : UTC 2019-12-01 11:44:12
Menu For : 1
ColorSpace_ICC : RGB

Аудио #1
Идентификатор : 2
Формат : AAC LC
Формат/Информация : Advanced Audio Codec Low Complexity
Идентификатор кодека : mp4a-40-2
Продолжительность : 1 ч. 21 м.
Вид битрейта : Переменный
Битрейт : 197 Кбит/сек
Максимальный битрейт : 302 Кбит/сек
Каналы : 2 канала
Channel layout : L R
Частота : 48,0 КГц
Частота кадров : 46,875 кадров/сек (1024 SPF)
Метод сжатия : С потерями
Размер потока : 114 Мбайт (3%)
Язык : Russian
Default : Да
Alternate group : 1
Дата кодирования : UTC 2019-12-01 11:41:22
Дата пометки : UTC 2019-12-01 11:44:07
tagc : public.main-program-content

Аудио #2
Идентификатор : 3
Формат : AAC LC
Формат/Информация : Advanced Audio Codec Low Complexity
Идентификатор кодека : mp4a-40-2
Продолжительность : 1 ч. 21 м.
Вид битрейта : Переменный
Битрейт : 185 Кбит/сек
Максимальный битрейт : 271 Кбит/сек
Каналы : 2 канала
Channel layout : L R
Частота : 48,0 КГц
Частота кадров : 46,875 кадров/сек (1024 SPF)
Метод сжатия : С потерями
Размер потока : 108 Мбайт (3%)
Язык : English
Default : Нет
Alternate group : 1
Дата кодирования : UTC 2019-12-01 11:41:22
Дата пометки : UTC 2019-12-01 11:44:07
Fallback From : 4
tagc : public.main-program-content

Аудио #3
Идентификатор : 4
Формат : AC-3
Формат/Информация : Audio Coding 3
Коммерческое название : Dolby Digital
Идентификатор кодека : ac-3
Продолжительность : 1 ч. 21 м.
Вид битрейта : Постоянный
Битрейт : 384 Кбит/сек
Каналы : 6 каналов
Channel layout : L R C LFE Ls Rs
Частота : 48,0 КГц
Частота кадров : 31,250 кадров/сек (1536 SPF)
Метод сжатия : С потерями
Размер потока : 223 Мбайт (6%)
Язык : English
Service kind : Complete Main
Default : Нет
Alternate group : 1
Дата кодирования : UTC 2019-12-01 11:41:22
Дата пометки : UTC 2019-12-01 11:44:07
Fallback To : 3
tagc : public.main-program-content

Текст #1
Идентификатор : 5
Формат : Timed Text
Режим смешивания : sbtl
Идентификатор кодека : tx3g
Продолжительность : 1 ч. 16 м.
Вид битрейта : Переменный
Битрейт : 78 бит/сек
Размер потока : 43,8 Кбайт (0%)
Язык : Russian
Default : Да
Forced : Нет
Alternate group : 2
Дата кодирования : UTC 2019-12-01 11:41:22
Дата пометки : UTC 2019-12-01 11:44:07
tagc : public.main-program-content

Текст #2
Идентификатор : 6
Формат : Timed Text
Режим смешивания : sbtl
Идентификатор кодека : tx3g
Продолжительность : 1 ч. 20 м.
Вид битрейта : Переменный
Битрейт : 79 бит/сек
Размер потока : 47,0 Кбайт (0%)
Язык : English
Default : Нет
Forced : Нет
Alternate group : 2
Дата кодирования : UTC 2019-12-01 11:41:22
Дата пометки : UTC 2019-12-01 11:44:07
tagc : public.main-program-content

Меню
Идентификатор : 7
Идентификатор кодека : text
Продолжительность : 1 ч. 21 м.
Язык : English
Дата кодирования : UTC 2019-12-01 11:44:07
Дата пометки : UTC 2019-12-01 11:44:07
Вид битрейта : CBR
Menu For : 1
00:00:00.000 : 1
00:10:32.798 : 2
00:21:06.515 : 3
00:30:49.305 : 4
00:38:27.680 : 5
00:49:31.009 : 6
01:01:23.805 : 7
01:09:05.683 : 8
01:16:22.703 : 9
Вид битрейта : Постоянный


Name: Следи за дорогой
Artist: Logan Marshall-Green
Media Kind: Movie
HD Video: 1080p
Genre: драма
Release Date: 2019-11-01T12:00:00Z
Long Description: Рассел вышел на свободу, отсидев 20 лет в тюрьме. Он пытается приспособиться к жизни, работая в закусочной и проживая в маленькой убогой квартире. Однажды ночью в мусорном баке он находит младенца и решает заботиться о нем.
Rating: mpaa|Unrated|???|
Studio: Blumhouse Productions, Divide / Conquer
Cast: Ethan Hawke, Elaine Hendrix, Diane Gaeta, Betty Gabriel, Mo McRae, Chris Sullivan, Nate Mooney, Christopher Heyerdahl, Anne-Marie Johnson
Director: Logan Marshall-Green
Producers: Ethan Hawke, Jason Blum, Adam Hendricks, John H. Lang, Greg Gilreath, Ryan Hawke
Executive Producer: Couper Samuelson, Donald Tang, Zac Locke
Screenwriters: Logan Marshall-Green
Composer: Jason Isbell

Скриншоты:


Все одноименные релизы в Клубе
Время раздачи: 24/7 (до появления первых 3-5 скачавших)

Релиз подготовлен для просмотра на Apple TV, iPad, iPhone, iPod Touch.
Для просмотра данного релиза на компьютере с ОС Windows рекомендуется использовать VLC media player
[NNMClub.to]_Adopt.A.Highway.2019.WEB-DL.1080p.m4v.torrent
 Торрент:   Зарегистрирован
 
Зарегистрируйтесь и скачайте торрент!
34,2 KB

Примагнититься
 Зарегистрирован:   01 Дек 2019 14:55:11
 Размер:   3,4 GB  (
 Рейтинг:    (Голосов: 4)
 Поблагодарили:   44
 Проверка:   Оформление проверено модератором 01 Дек 2019 17:45:00
Как cкачать  ·  Как раздать  ·  Правильно оформить  ·  Поднять ратио!  

_________________
«Всё против нас, только ветер навстречу…».
🍏Apple iMac 21.5 (mid 2011) / Intel Core i5 2.7 GHz / AMD Radeon HD 6770M 512 Mb / 12GB DDR3 / Apple Trackpad, Apple Keyboard / macOS High Sierra 10.13.6 (17G8030)
Loading...
Весельчак У ®
Модератор Apple
Стаж: 6 лет
Сообщений: 4107
Ratio: 142,872
Поблагодарили: 135755
96.9%
Откуда: От Москвы недалеко...
ussr.gif
Присутствует ненормативная лексика!

_________________
«Всё против нас, только ветер навстречу…».
🍏Apple iMac 21.5 (mid 2011) / Intel Core i5 2.7 GHz / AMD Radeon HD 6770M 512 Mb / 12GB DDR3 / Apple Trackpad, Apple Keyboard / macOS High Sierra 10.13.6 (17G8030)
Sergey1vip
Стаж: 9 лет 5 мес.
Сообщений: 7
Ratio: 14,425
Поблагодарили: 1
100%
Спасибо, хороший фильм!
Показать сообщения:   
Начать новую тему   Ответить на тему    Торрент-трекер NNM-Club -> Аудио и Видео -> Зарубежное видео HD для устройств Apple Часовой пояс: GMT + 3
Страница 1 из 1