Классический форум-трекер
canvas not supported
Нас вместе: 4 083 491
Платим за отзывы

Рэмбо: Последняя кровь / Rambo: Last Blood (2019) WEB-DL [720p] ATV


 
 
RSS
Начать новую тему   Ответить на тему    Торрент-трекер NNM-Club -> Аудио и Видео -> Зарубежное видео HD для устройств Apple
Автор Сообщение
Весельчак У ®
Модератор Apple
Стаж: 6 лет
Сообщений: 4046
Ratio: 144,183
Поблагодарили: 134025
97.6%
Откуда: От Москвы недалеко...
ussr.gif
Рэмбо: Последняя кровь / Rambo: Last Blood (2019) WEB-DL [720p] ATV«Настоящий герой бьётся до конца»
Производство: США, Испания, Болгария / Balboa Productions, Campbell Grobman Films, Dadi Film Group
Жанр: Боевик, триллер, приключения

Режиссер: Адриан Грюнберг
Продюсер: Ави Лернер, Ярив Лернер, Стивен Пол
Актеры: Сильвестр Сталлоне, Пас Вега, Ивет Монреаль, Луис Мэндилор, Оскар Хаенада, Шила Шах, Серхио Перис-Менчета, Джессика Мэдсен, Хоакин Косио, Адриана Барраса

Описание:
Он хранил секреты всю жизнь, но пришло время взглянуть в глаза прошлому. В последний раз собраться и стать безжалостной машиной для убийства. Рэмбо снова встанет на смертельно опасный путь — путь мести, который ему придется пройти до конца.


Возраст: 18+ (зрителям, достигшим 18 лет. запрещено для детей)
Рейтинг MPAA: R (лицам до 17 лет обязательно присутствие взрослого)
Дата мировой премьеры: 18 сентября 2019
Дата российской премьеры: 19 сентября 2019

Релиз от: TeamHD
Продолжительность: 01:40:30
Качество видео: WEB-DL 720p
Перевод: Дублированный (iTunes)
Субтитры: Отсутствуют

Видео: H.264, 1280x532 (2.40:1), ~4076 kbps, 23.976 fps
Аудио#1: AAC, 2.0 ch, 198 Kbps - Русский DUB, iTunes
Аудио#2: AC3, 6.0 ch, 384 Kbps - Русский DUB, iTunes

Общее
Полное имя : /Volumes/HDD/Movies/NNMC/Rambo.Last.Blood.2019.WEB-DL.720p.m4v
Формат : MPEG-4
Идентификатор кодека : M4V (M4V /M4A /mp42/isom)
Размер файла : 3,27 Гбайт
Продолжительность : 1 ч. 40 м.
Режим общего битрейта : Переменный
Общий поток : 4665 Кбит/сек
Название фильма : Рэмбо: Последняя кровь
Исполнитель : Адриан Грюнберг
Режиссёр : Адриан Грюнберг
Исполнитель : Sylvester Stallone / Пас Вега / Серхио Перис-Менчета / Адриана Барраса / Ивет Монреаль
Сценарист : Sylvester Stallone / Мэттью Сирюльник / Dan Gordon
Продюсер : Ави Лернер / Ярив Лернер
Студия-производитель : Lionsgate, Millennium Films, Campbell Grobman Films
Жанр : Боевики и приключения
Тип содержимого : Short Film
Дата записи : UTC 2019-09-19 07:00:00
Дата кодирования : UTC 2019-12-02 20:47:44
Дата пометки : UTC 2019-12-02 20:50:01
Обложка : Yes
LongDescription : Он хранил секреты всю жизнь, но пришло время взглянуть в глаза прошлому. В последний раз собраться и стать безжалостной машиной для убийства. Рэмбо снова встанет на смертельно опасный путь - путь мести, который ему придется пройти до конца.
HDVideo : Yes
AppleStoreCountry : Russia
AppleStoreCatalogID : 1485481715
ContentRating : ru-movie|18+|400|

Видео #1
Идентификатор : 1
Формат : AVC
Формат/Информация : Advanced Video Codec
Профиль формата : Main@L3.1
Настройки формата : 2 Ref Frames
Параметр CABAC формата : Нет
Параметр ReFrames формата : 2 кадра
Идентификатор кодека : avc1
Идентификатор кодека/Информация : Advanced Video Coding
Продолжительность : 1 ч. 40 м.
Битрейт : 4076 Кбит/сек
Ширина : 1280 пикселей
Высота : 532 пикселя
Соотношение сторон : 2,40:1
Режим частоты кадров : Переменный
Частота кадров : 23,976 (24000/1001) кадра/сек
Минимальная частота кадров : 23,810 кадра/сек
Максимальная частота кадров : 24,390 кадра/сек
Цветовое пространство : YUV
Субдискретизация насыщенности : 4:2:0
Битовая глубина : 8 бит
Тип развёртки : Прогрессивная
Бит/(Пиксели*Кадры) : 0.250
Размер потока : 2,86 Гбайт (87%)
Язык : English
Дата кодирования : UTC 2019-12-02 20:47:44
Дата пометки : UTC 2019-12-02 20:49:57
Цветовой диапазон : Limited
Основные цвета : BT.709
Характеристики трансфера : BT.709
Коэффициенты матрицы : BT.709
Menus : 4,5
Codec configuration box : avcC

Видео #2
Идентификатор : 5
Формат : JPEG
Идентификатор кодека : jpeg
Продолжительность : 1 ч. 40 м.
Вид битрейта : Переменный
Битрейт : 477 бит/сек
Ширина : 640 пикселей
Высота : 266 пикселей
Соотношение сторон : 2,40:1
Режим частоты кадров : Переменный
Частота кадров : 0,002 кадр/сек
Минимальная частота кадров : 0,001 кадр/сек
Максимальная частота кадров : 0,005 кадр/сек
Цветовое пространство : YUV
Субдискретизация насыщенности : 4:2:0
Битовая глубина : 8 бит
Метод сжатия : С потерями
Бит/(Пиксели*Кадры) : 1.401
Размер потока : 320 Кбайт (0%)
Язык : English
Default : Нет
Дата кодирования : UTC 2019-12-02 20:50:01
Дата пометки : UTC 2019-12-02 20:50:01
Menu For : 1
ColorSpace_ICC : RGB

Аудио #1
Идентификатор : 2
Формат : AAC LC
Формат/Информация : Advanced Audio Codec Low Complexity
Идентификатор кодека : mp4a-40-2
Продолжительность : 1 ч. 40 м.
Вид битрейта : Переменный
Битрейт : 198 Кбит/сек
Максимальный битрейт : 307 Кбит/сек
Каналы : 2 канала
Channel layout : L R
Частота : 48,0 КГц
Частота кадров : 46,875 кадров/сек (1024 SPF)
Метод сжатия : С потерями
Размер потока : 143 Мбайт (4%)
Язык : Russian
Default : Да
Alternate group : 1
Дата кодирования : UTC 2019-12-02 20:47:44
Дата пометки : UTC 2019-12-02 20:49:57
Fallback From : 3
tagc : public.main-program-content

Аудио #2
Идентификатор : 3
Формат : AC-3
Формат/Информация : Audio Coding 3
Коммерческое название : Dolby Digital
Идентификатор кодека : ac-3
Продолжительность : 1 ч. 40 м.
Вид битрейта : Постоянный
Битрейт : 384 Кбит/сек
Каналы : 6 каналов
Channel layout : L R C LFE Ls Rs
Частота : 48,0 КГц
Частота кадров : 31,250 кадров/сек (1536 SPF)
Метод сжатия : С потерями
Размер потока : 276 Мбайт (8%)
Язык : Russian
Service kind : Complete Main
Default : Inherited From: 2
Alternate group : 1
Дата кодирования : UTC 2019-12-02 20:47:44
Дата пометки : UTC 2019-12-02 20:49:57
Fallback To : 2
tagc : public.main-program-content

Меню
Идентификатор : 4
Идентификатор кодека : text
Продолжительность : 1 ч. 40 м.
Язык : English
Дата кодирования : UTC 2019-12-02 20:49:58
Дата пометки : UTC 2019-12-02 20:49:58
Menu For : 1
00:00:00.000 : 1
00:03:35.000 : 2
00:11:29.000 : 3
00:21:09.000 : 4
00:30:02.000 : 5
00:40:52.000 : 6
00:53:04.000 : 7
01:04:49.000 : 8
01:14:38.000 : 9
01:25:35.000 : 10
01:30:39.000 : 11


Name: Рэмбо: Последняя кровь
Artist: Адриан Грюнберг
Media Kind: Movie
HD Video: 720p
Genre: Боевики и приключения
Release Date: 2019-09-19T07:00:00Z
Long Description: Он хранил секреты всю жизнь, но пришло время взглянуть в глаза прошлому. В последний раз собраться и стать безжалостной машиной для убийства. Рэмбо снова встанет на смертельно опасный путь - путь мести, который ему придется пройти до конца.
Rating: ru-movie|18+|400|
Studio: Lionsgate, Millennium Films, Campbell Grobman Films
Cast: Sylvester Stallone, Пас Вега, Серхио Перис-Менчета, Адриана Барраса, Ивет Монреаль
Director: Адриан Грюнберг
Producers: Ави Лернер, Ярив Лернер
Screenwriters: Sylvester Stallone, Мэттью Сирюльник, Dan Gordon
content ID: 1485481715
iTunes Country: 143469

Скриншоты:


Все одноименные релизы в Клубе
Время раздачи: 24/7 (до появления первых 3-5 скачавших)

Релиз подготовлен для просмотра на Apple TV, iPad, iPhone, iPod Touch.
Для просмотра данного релиза на компьютере с ОС Windows рекомендуется использовать VLC media player
[NNMClub.to]_Rambo.Last.Blood.2019.WEB-DL.720p.m4v.torrent
 Торрент: Серебряная раздча  Зарегистрирован
 
Зарегистрируйтесь и скачайте торрент!
33 KB
Free Leech
Примагнититься
 Зарегистрирован:   03 Дек 2019 00:03:12
 Размер:   3,27 GB  (
 Рейтинг:   4,2 (Голосов: 17)
 Поблагодарили:   98
 Проверка:   Оформление проверено модератором 03 Дек 2019 02:46:16
Как cкачать  ·  Как раздать  ·  Правильно оформить  ·  Поднять ратио!  

_________________
«Всё против нас, только ветер навстречу…».
🍏Apple iMac 21.5 (mid 2011) / Intel Core i5 2.7 GHz / AMD Radeon HD 6770M 512 Mb / 12GB DDR3 / Apple Trackpad, Apple Keyboard / macOS High Sierra 10.13.6 (17G8030)
Loading...
Показать сообщения:   
Начать новую тему   Ответить на тему    Торрент-трекер NNM-Club -> Аудио и Видео -> Зарубежное видео HD для устройств Apple Часовой пояс: GMT + 3
Страница 1 из 1