Классический форум-трекер
canvas not supported
Нас вместе: 4 094 214

Арахисовый сокол / The Peanut Butter Falcon (2019) BDRip [1080p] ATV


 
 
RSS
Начать новую тему   Ответить на тему    Торрент-трекер NNM-Club -> Аудио и Видео -> Зарубежное видео HD для устройств Apple
Автор Сообщение
Весельчак У ®
Модератор Apple
Стаж: 6 лет 2 мес.
Сообщений: 4845
Ratio: 140,313
Поблагодарили: 157518
95.41%
Откуда: От Москвы недалеко...
ussr.gif
Арахисовый сокол / The Peanut Butter Falcon (2019) BDRip [1080p] ATV
Производство: США / Armory Films, 1993, Lucky Treehouse
Жанр: Драма, комедия, приключения

Режиссер: Тайлер Нилсон, Майк Шварц
Продюсер: Альберт Бергер, Кристофер Лемоул, Лие Сарки
Актеры: Шайа ЛаБаф, Дакота Джонсон, Зак Готтзаген, Джон Хоукс, Томас Хейден Чёрч, Брюс Дерн, Джон Бернтал, Джэйк Робертс, Мик Фоли

Описание:
Большое путешествие начинается с шага, а легендарное — с полета. Вылетев в окно, герой очутился в мире, где чего-то не хватало. Его новому другу — крупной суммы денег. Паре головорезов — головы друга. Молодой медсестре — любви. А ему — путешествий на плоту, погонь, пылающих костров и немного арахисового масла.


Возраст: 12+ (зрителям, достигшим 12 лет)
Рейтинг MPAA: PG-13 (детям до 13 лет просмотр нежелателен)
Дата мировой премьеры: 9 марта 2019
Дата российской премьеры: 24 октября 2019

Продолжительность: 01:36:57
Качество видео: BDRip 1080р
Перевод: Дублированный (iTunes)
Субтитры: Русские (Full), английские (Full, SDH)

Видео: H.264, 1920x804 (2.40:1), ~8000 kbps, 23.976 fps
Аудио#1: AAC, 2.0 ch, 330 Kbps - Русский DUB, iTunes
Аудио#2: AAC, 2.0 ch, 353 Kbps - English Original
Аудио#3: AC3, 6.0 ch, 384 Kbps - Русский DUB, iTunes
Аудио#4: AC3, 6.0 ch, 640 Kbps - English, Original

Общее
Полное имя : /Volumes/HDD/Movies/NNMC/The.Peanut.Butter.Falcon.2019.BDRip.1080p.m4v
Формат : MPEG-4
Профиль формата : Base Media / Version 2
Идентификатор кодека : mp42 (isom/iso2/avc1/mp41)
Размер файла : 6,57 Гбайт
Продолжительность : 1 ч. 36 м.
Режим общего битрейта : Переменный
Общий поток : 9709 Кбит/сек
Название фильма : Арахисовый сокол
Исполнитель : Тайлер Нилсон & Майк Шварц
Режиссёр : Тайлер Нилсон & Майк Шварц
Исполнитель : Shia LaBeouf / Дакота Джонсон / Зак Готтзаген / Джон Хоукс / Thomas Haden Church / Брюс Дерн / Джон Бернтал / Джэйк Робертс / Мик Фоли
Сценарист : Тайлер Нилсон / Майк Шварц
Продюсер : Альберт Бергер / Кристофер Лемоул / Лие Сарки / Дэвид Тис / Рон Йеркса
Студия-производитель : Armory Films, 1993, Lucky Treehouse, Nut Bucket Films, Tvacom Film and Tv
Жанр : Драма
Тип содержимого : Short Film
Дата записи : UTC 2019-10-24 07:00:00
Дата кодирования : UTC 2019-12-09 14:07:13
Дата пометки : UTC 2019-12-10 11:00:28
Программа кодирования : HandBrake 1.3.0 2019110900
Авторское право : © 2019, Capella Film
Обложка : Yes
LongDescription : Большое путешествие начинается с шага, а легендарное — с полета. Вылетев в окно, герой очутился в мире, где чего-то не хватало. Его новому другу — крупной суммы денег. Паре головорезов — головы друга. Молодой медсестре — любви. А ему — путешествий на плоту, погонь, пылающих костров и немного арахисового масла.
AppleStoreCountry : Russia
AppleStoreCatalogID : 1484055973
ContentRating : ru-movie|12+|200|

Видео #1
Идентификатор : 1
Формат : AVC
Формат/Информация : Advanced Video Codec
Профиль формата : High@L4.1
Настройки формата : CABAC / 5 Ref Frames
Параметр CABAC формата : Да
Параметр ReFrames формата : 5 кадров
Идентификатор кодека : avc1
Идентификатор кодека/Информация : Advanced Video Coding
Продолжительность : 1 ч. 36 м.
Битрейт : 8000 Кбит/сек
Ширина : 1920 пикселей
Высота : 804 пикселя
Соотношение сторон : 2,40:1
Режим частоты кадров : Переменный
Частота кадров : 23,976 (24000/1001) кадра/сек
Минимальная частота кадров : 23,974 кадра/сек
Максимальная частота кадров : 23,981 кадра/сек
Цветовое пространство : YUV
Субдискретизация насыщенности : 4:2:0
Битовая глубина : 8 бит
Тип развёртки : Прогрессивная
Бит/(Пиксели*Кадры) : 0.216
Размер потока : 5,41 Гбайт (82%)
Библиотека кодирования : x264 core 157 r2935 545de2f
Настройки программы : cabac=1 / ref=5 / deblock=1:-1:-1 / analyse=0x3:0x133 / me=umh / subme=10 / psy=1 / psy_rd=1.00:0.15 / mixed_ref=1 / me_range=24 / chroma_me=1 / trellis=2 / 8x8dct=1 / cqm=0 / deadzone=21,11 / fast_pskip=1 / chroma_qp_offset=-3 / threads=6 / lookahead_threads=1 / sliced_threads=0 / nr=0 / decimate=1 / interlaced=0 / bluray_compat=0 / constrained_intra=0 / bframes=8 / b_pyramid=2 / b_adapt=2 / b_bias=0 / direct=3 / weightb=1 / open_gop=0 / weightp=2 / keyint=240 / keyint_min=24 / scenecut=40 / intra_refresh=0 / rc_lookahead=60 / rc=2pass / mbtree=1 / bitrate=8000 / ratetol=1.0 / qcomp=0.60 / qpmin=0 / qpmax=69 / qpstep=4 / cplxblur=20.0 / qblur=0.5 / vbv_maxrate=62500 / vbv_bufsize=78125 / nal_hrd=none / filler=0 / ip_ratio=1.40 / aq=1:1.00
Язык : English
Дата кодирования : UTC 2019-12-09 14:07:13
Дата пометки : UTC 2019-12-09 14:07:13
Цветовой диапазон : Limited
Основные цвета : BT.709
Характеристики трансфера : BT.709
Коэффициенты матрицы : BT.709
Menus : 9,10
Codec configuration box : avcC

Видео #2
Идентификатор : 10
Формат : JPEG
Идентификатор кодека : jpeg
Продолжительность : 1 ч. 36 м.
Вид битрейта : Переменный
Битрейт : 583 бит/сек
Ширина : 640 пикселей
Высота : 268 пикселей
Соотношение сторон : 2,40:1
Режим частоты кадров : Переменный
Частота кадров : 0,002 кадр/сек
Минимальная частота кадров : 0,002 кадр/сек
Максимальная частота кадров : 0,003 кадр/сек
Цветовое пространство : YUV
Субдискретизация насыщенности : 4:2:0
Битовая глубина : 8 бит
Метод сжатия : С потерями
Бит/(Пиксели*Кадры) : 1.700
Размер потока : 427 Кбайт (0%)
Язык : English
Default : Нет
Дата кодирования : UTC 2019-12-10 11:00:27
Дата пометки : UTC 2019-12-10 11:00:27
Menu For : 1
ColorSpace_ICC : RGB

Аудио #1
Идентификатор : 2
Формат : AAC LC
Формат/Информация : Advanced Audio Codec Low Complexity
Идентификатор кодека : mp4a-40-2
Продолжительность : 1 ч. 36 м.
Вид битрейта : Переменный
Битрейт : 330 Кбит/сек
Максимальный битрейт : 498 Кбит/сек
Каналы : 2 канала
Channel layout : L R
Частота : 48,0 КГц
Частота кадров : 46,875 кадров/сек (1024 SPF)
Метод сжатия : С потерями
Размер потока : 229 Мбайт (3%)
Заголовок : [DUB]iTunes
Язык : Russian
Default : Да
Alternate group : 1
Дата кодирования : UTC 2019-12-09 14:07:13
Дата пометки : UTC 2019-12-09 14:07:13
Fallback From : 4
Menus : 9
tagc : public.main-program-content

Аудио #2
Идентификатор : 3
Формат : AAC LC
Формат/Информация : Advanced Audio Codec Low Complexity
Идентификатор кодека : mp4a-40-2
Продолжительность : 1 ч. 36 м.
Вид битрейта : Переменный
Битрейт : 353 Кбит/сек
Максимальный битрейт : 503 Кбит/сек
Каналы : 2 канала
Channel layout : L R
Частота : 48,0 КГц
Частота кадров : 46,875 кадров/сек (1024 SPF)
Метод сжатия : С потерями
Размер потока : 243 Мбайт (4%)
Заголовок : Original
Язык : English
Default : Нет
Alternate group : 1
Дата кодирования : UTC 2019-12-09 14:07:13
Дата пометки : UTC 2019-12-09 14:07:13
Fallback From : 5
Menus : 9
tagc : public.main-program-content

Аудио #3
Идентификатор : 4
Формат : AC-3
Формат/Информация : Audio Coding 3
Коммерческое название : Dolby Digital
Идентификатор кодека : ac-3
Продолжительность : 1 ч. 36 м.
Вид битрейта : Постоянный
Битрейт : 384 Кбит/сек
Каналы : 6 каналов
Channel layout : L R C LFE Ls Rs
Частота : 48,0 КГц
Частота кадров : 31,250 кадров/сек (1536 SPF)
Метод сжатия : С потерями
Размер потока : 266 Мбайт (4%)
Заголовок : [DUB]iTunes
Язык : Russian
Service kind : Complete Main
Default : Inherited From: 2
Alternate group : 1
Дата кодирования : UTC 2019-12-09 14:07:13
Дата пометки : UTC 2019-12-09 14:07:13
Fallback To : 2
tagc : public.main-program-content

Аудио #4
Идентификатор : 5
Формат : AC-3
Формат/Информация : Audio Coding 3
Коммерческое название : Dolby Digital
Идентификатор кодека : ac-3
Продолжительность : 1 ч. 36 м.
Вид битрейта : Постоянный
Битрейт : 640 Кбит/сек
Каналы : 6 каналов
Channel layout : L R C LFE Ls Rs
Частота : 48,0 КГц
Частота кадров : 31,250 кадров/сек (1536 SPF)
Метод сжатия : С потерями
Размер потока : 444 Мбайт (7%)
Заголовок : Original
Язык : English
Service kind : Complete Main
Default : Нет
Alternate group : 1
Дата кодирования : UTC 2019-12-09 14:07:13
Дата пометки : UTC 2019-12-09 14:07:13
Fallback To : 3
tagc : public.main-program-content

Текст #1
Идентификатор : 6
Формат : Timed Text
Режим смешивания : sbtl
Идентификатор кодека : tx3g
Продолжительность : 1 ч. 31 м.
Вид битрейта : Переменный
Битрейт : 144 бит/сек
Размер потока : 96,3 Кбайт (0%)
Заголовок : Full [MENINSUB]
Язык : Russian
Default : Да
Forced : Нет
Alternate group : 2
Дата кодирования : UTC 2019-12-09 14:07:13
Дата пометки : UTC 2019-12-09 14:07:13
Menus : 9
tagc : public.main-program-content

Текст #2
Идентификатор : 7
Формат : Timed Text
Режим смешивания : sbtl
Идентификатор кодека : tx3g
Продолжительность : 1 ч. 36 м.
Вид битрейта : Переменный
Битрейт : 120 бит/сек
Размер потока : 84,7 Кбайт (0%)
Заголовок : Full
Язык : English
Default : Нет
Forced : Нет
Alternate group : 2
Дата кодирования : UTC 2019-12-09 14:07:13
Дата пометки : UTC 2019-12-09 14:07:13
Menus : 9
tagc : public.main-program-content

Текст #3
Идентификатор : 8
Формат : Timed Text
Режим смешивания : sbtl
Идентификатор кодека : tx3g
Продолжительность : 1 ч. 36 м.
Вид битрейта : Переменный
Битрейт : 133 бит/сек
Размер потока : 94,0 Кбайт (0%)
Заголовок : SDH
Язык : English
Default : Нет
Forced : Нет
Alternate group : 2
Дата кодирования : UTC 2019-12-09 14:07:13
Дата пометки : UTC 2019-12-09 14:07:13
Menus : 9
tagc : public.accessibility.transcribes-spoken-dialog

Меню
Идентификатор : 9
Идентификатор кодека : text
Продолжительность : 1 ч. 36 м.
Язык : English
Дата кодирования : UTC 2019-12-09 14:07:13
Дата пометки : UTC 2019-12-09 14:07:13
Menu For : 1,2,3,6,7,8
00:00:00.000 : Chapter 1
00:08:14.244 : Chapter 2
00:17:54.073 : Chapter 3
00:25:26.191 : Chapter 4
00:32:30.949 : Chapter 5
00:42:37.555 : Chapter 6
00:50:34.907 : Chapter 7
00:58:02.270 : Chapter 8
01:04:19.856 : Chapter 9
01:13:20.396 : Chapter 10
01:21:12.618 : Chapter 11
01:31:09.464 : Chapter 12


Name: Арахисовый сокол
Artist: Тайлер Нилсон & Майк Шварц
Media Kind: Movie
HD Video: 1080p
Genre: Драма
Release Date: 2019-10-24T07:00:00Z
Long Description: Большое путешествие начинается с шага, а легендарное — с полета. Вылетев в окно, герой очутился в мире, где чего-то не хватало. Его новому другу — крупной суммы денег. Паре головорезов — головы друга. Молодой медсестре — любви. А ему — путешествий на плоту, погонь, пылающих костров и немного арахисового масла.
Rating: ru-movie|12+|200|
Studio: Armory Films, 1993, Lucky Treehouse, Nut Bucket Films, Tvacom Film and Tv
Cast: Shia LaBeouf, Дакота Джонсон, Зак Готтзаген, Джон Хоукс, Thomas Haden Church, Брюс Дерн, Джон Бернтал, Джэйк Робертс, Мик Фоли
Director: Тайлер Нилсон & Майк Шварц
Producers: Альберт Бергер, Кристофер Лемоул, Лие Сарки, Дэвид Тис, Рон Йеркса
Screenwriters: Тайлер Нилсон, Майк Шварц
Copyright: © 2019, Capella Film
Encoding Tool: HandBrake 1.3.0 2019110900
content ID: 1484055973
iTunes Country: 143469


x264 [info]: frame I:1077 Avg QP:14.37 size:207075
x264 [info]: frame P:29381 Avg QP:17.15 size: 74457
x264 [info]: frame B:109010 Avg QP:18.90 size: 31155
x264 [info]: consecutive B-frames: 1.9% 3.2% 6.8% 15.4% 14.1% 48.1% 5.5% 1.5% 3.5%
x264 [info]: mb I I16..4: 18.3% 61.3% 20.4%
x264 [info]: mb P I16..4: 3.1% 20.6% 2.4% P16..4: 35.5% 16.9% 10.7% 0.6% 0.3% skip: 9.9%
x264 [info]: mb B I16..4: 0.6% 3.6% 0.4% B16..8: 37.5% 10.6% 2.2% direct:11.4% skip:33.6% L0:47.2% L1:40.8% BI:12.0%
x264 [info]: 8x8 transform intra:77.0% inter:60.3%
x264 [info]: direct mvs spatial:97.9% temporal:2.1%
x264 [info]: coded y,uvDC,uvAC intra: 83.7% 60.7% 25.2% inter: 35.6% 25.9% 2.2%
x264 [info]: i16 v,h,dc,p: 28% 16% 21% 35%
x264 [info]: i8 v,h,dc,ddl,ddr,vr,hd,vl,hu: 12% 12% 15% 8% 10% 10% 11% 10% 12%
x264 [info]: i4 v,h,dc,ddl,ddr,vr,hd,vl,hu: 25% 14% 9% 6% 9% 9% 10% 8% 10%
x264 [info]: i8c dc,h,v,p: 48% 23% 21% 8%
x264 [info]: Weighted P-Frames: Y:2.6% UV:1.5%
x264 [info]: ref P L0: 45.7% 9.6% 23.5% 10.7% 10.2% 0.3% 0.0%
x264 [info]: ref B L0: 72.3% 18.6% 7.3% 1.9%
x264 [info]: ref B L1: 93.0% 7.0%
x264 [info]: kb/s:7986.01
Скриншоты:


Все одноименные релизы в Клубе
Время раздачи: 24/7 (до появления первых 3-5 скачавших)

Релиз подготовлен для просмотра на Apple TV, iPad, iPhone, iPod Touch.
Для просмотра данного релиза на компьютере с ОС Windows рекомендуется использовать VLC media player
[NNMClub.to]_The.Peanut.Butter.Falcon.2019.BDRip.1080p.m4v.torrent
 Торрент: Платиновая раздача  Зарегистрирован
 
Скачать


Примагнититься
 Зарегистрирован:   10 Дек 2019 14:29:51
 Размер:   6,57 GB  (
 Рейтинг:   4,6 (Голосов: 19)
 Поблагодарили:   78
 Проверка:   Оформление проверено модератором 10 Дек 2019 14:40:37
Как cкачать  ·  Как раздать  ·  Правильно оформить  ·  Поднять ратио!  

_________________
«Всё против нас, только ветер навстречу…».
🍏Apple iMac 21.5 (mid 2011) / Intel Core i5 2.7 GHz / AMD Radeon HD 6770M 512 Mb / 12GB DDR3 / Apple Trackpad, Apple Keyboard / macOS High Sierra 10.13.6 (17G8030)
rogala51
Стаж: 5 лет 10 мес.
Сообщений: 1006
Ratio: 3,948
100%
usa.gif
Удалил.

_________________
Негр заходит в бар с огромным попугаем на плече. Ого, говорит бармен, где ты такого взял? В Африке, отвечает попугай.
Качаемся
Стаж: 2 года 8 мес.
Сообщений: 25
Ratio: 1,958
13.24%
Очень классное кино. Душевный добрый хороший фильм.
BellaViliya
Стаж: 2 мес. 7 дней
Сообщений: 4
Ratio: 2,659
99.17%
ussr.gif
Добрый семейный фильм.
Показать сообщения:   
Начать новую тему   Ответить на тему    Торрент-трекер NNM-Club -> Аудио и Видео -> Зарубежное видео HD для устройств Apple Часовой пояс: GMT + 3
Страница 1 из 1