Классический форум-трекер
canvas not supported
Нас вместе: 4 093 599

Новые приключения Лесси / The New Lassie (48 серий из 48) (1989-1992) TVRip


 
 
RSS
Начать новую тему   Ответить на тему    Торрент-трекер NNM-Club -> Видео -> Зарубежные Фильмы для детей
Автор Сообщение
dima97350019 ®
Стаж: 10 лет 9 мес.
Сообщений: 55
Ratio: 181,369
Поблагодарили: 3971
100%
Откуда: СССР
Новые приключения Лесси / The New Lassie (48 серий из 48) (1989-1992) TVRip
Жанр: Семейный, Приключения

Режиссер: Зигмунд Неуфелд мл., Дэннис Доннелли, Кори Аллен
Актеры: Уилл Ниппер, Ди Уолдж Стоун, Кристофер Стоун, Венди Кокс, Джон Провост

Описание:
Продолжение знаменитого сериала. Нынешняя Лесси - потомок Лесси из оригинального сериала. Теперь ее владельцы - семья МакКаллохов: 11-летний Уилл, его старшая сестра Мэган, и их родители - Крис и Ди. Лесси появляется в семье МакКаллохов благодаря Стиву, сводному брату Криса (его играет Джон Провост, исполнитель роли Тимми Мартина в оригинальном сериале). Как всегда, Лесси и ее хозяевам предстоит поучаствовать во многих приключениях, не раз выручая друг друга.



Продолжительность: 48 серий по 21 мин.
Перевод: Многоголосый закадровый
Язык: Русский

Видеокодек: DivX
Битрейт видео: ~1000 Кбит/с
Размер кадра: 640x480
Качество видео: TVRip
Аудиокодек: MP3
Битрейт аудио: 2 ch, ~160 Кбит/с
Код: выделить все
Общее
Полное имя                               : Новые приключения Лесси\New_Lassie_03.avi
Формат                                   : AVI
Формат/Информация                        : Audio Video Interleave
Размер файла                             : 159 Мбайт
Продолжительность                        : 20 м. 44 с.
Общий поток                              : 1073 Кбит/сек
Библиотека кодирования                   : VirtualDub build 23648/release

Видео
Идентификатор                            : 0
Формат                                   : MPEG-4 Visual
Настройки формата                        : BVOP1
Параметр BVOP формата                    : 1
Параметр QPel формата                    : Нет
Параметр GMC формата                     : Без точки перехода
Параметр матрицы формата                 : Default (H.263)
Режим смешивания                         : Сжатый битовый поток
Идентификатор кодека                     : DX50
Идентификатор кодека/Подсказка           : DivX 5
Продолжительность                        : 20 м. 44 с.
Битрейт                                  : 904 Кбит/сек
Ширина                                   : 640 пикселей
Высота                                   : 480 пикселей
Соотношение сторон                       : 4:3
Частота кадров                           : 25,000 кадров/сек
Цветовое пространство                    : YUV
Субдискретизация насыщенности            : 4:2:0
Битовая глубина                          : 8 бит
Тип развёртки                            : Прогрессивная
Метод сжатия                             : С потерями
Бит/(Пиксели*Кадры)                      : 0.118
Размер потока                            : 134 Мбайт (84%)
Библиотека кодирования                   : DivX 6.8.2 (UTC 2008-05-17)

Аудио
Идентификатор                            : 1
Формат                                   : MPEG Audio
Версия формата                           : Version 1
Профиль формата                          : Layer 3
Настройки формата                        : Joint stereo / MS Stereo
Идентификатор кодека                     : 55
Идентификатор кодека/Подсказка           : MP3
Продолжительность                        : 20 м. 43 с.
Вид битрейта                             : Постоянный
Битрейт                                  : 160 Кбит/сек
Каналы                                   : 2 канала
Частота                                  : 48,0 КГц
Метод сжатия                             : С потерями
Размер потока                            : 23,7 Мбайт (15%)
Выравнивание                             : Соединение по промежуткам
Продолжительность промежутка             : 40  мс. (1,00 видеокадр)
Время предзагрузки промежутка            : 504  мс.
Библиотека кодирования                   : LAME3.97ªªªªªEG”
Скриншоты:


Время раздачи: 24/7

http://ru.wikipedia.org/wiki/Лесси_(персонаж) почитайте- интересно =)
[NNM-Club.ru] Novyie priklyucheniya Lessi.torrent
 Торрент: Платиновая раздача  Зарегистрирован
 
Скачать


Примагнититься
 Зарегистрирован:   19 Ноя 2019 09:38:19
 Размер:   8,11 GB  (
 Рейтинг:   4,8 (Голосов: 44)
 Поблагодарили:   193
 Проверка:   Оформление проверено модератором 19 Ноя 2019 09:58:50
Как cкачать  ·  Как раздать  ·  Правильно оформить  ·  Поднять ратио!  
sentinel2727
Стаж: 13 лет
Сообщений: 4368
Ratio: 99,095
Поблагодарили: 31238
100%
Откуда: Odessa
ukraine.gif
dima97350019 спасибо
Золото до 1 сентября

смотрим рубрику В ДНИ ШКОЛЬНЫХ КАНИКУЛ
Kalex
Администратор
Стаж: 12 лет 5 мес.
Сообщений: 33817
Ratio: 114,402
Поблагодарили: 13736
100%
nnm-club.gif
помню автралийский сериал в детстве, хороший был, надеюсь и этот хорош :)

_________________
NNMClub и IPv6/Teredo
... если преступников недостаточно, их надо создавать. Кому нужна нация, состоящая сплошь из законопослушных граждан? Какая от нее польза? А вот издайте законы, которые нельзя ни соблюдать, ни проводить в жизнь, ни объективно трактовать, и вы получите нацию нарушителей, а значит, сможете заработать на преступлениях... /Айн Рэнд, «Атлант расправил плечи»/
dima97350019 ®
Стаж: 10 лет 9 мес.
Сообщений: 55
Ratio: 181,369
Поблагодарили: 3971
100%
Откуда: СССР
Раздачу открыл. Удачи!!!
Вереск
Стаж: 11 лет 6 мес.
Сообщений: 1946
Ratio: 10,127
44.81%
Откуда: Леотерра
После многочисленных диснеевских ситкомов радуются глаза этой замечательной картине, где нет пошлого юмора, забитых клише и штампов. Семья Маккалоу одна из лучших в истории кинематографа!
t102
Стаж: 12 лет
Сообщений: 13
Ratio: 5,277
17.5%
Откуда: Санкт-Петербург
russia.gif
Новые приключения Лесси... А почему они новые? Есть еще какие-то? Типа старые )) Что-то я везде видел только новые )
albertgrek
Стаж: 9 лет 2 мес.
Сообщений: 4
Ratio: 2,256
33.33%
greece.gif
super!!!!
Spook*
Стаж: 10 лет 2 мес.
Сообщений: 29
Ratio: 27,04
100%
russia.gif
Эх, потрясающие фильмы детства. =) Передающие ощущения любви, доброты, верности и самоотверженности. Побуждающие к поискам и приключениям. Детворе надо посмотреть обязательно! :да:
anrico
Стаж: 9 лет 5 мес.
Сообщений: 202
Ratio: 26,305
Раздал: 4,281 TB
Поблагодарили: 6695
100%
russia.gif
И пенсионеры смотрели-бы с удовольствием, но ....сидов- 5, личеров- 0 (((
NorthOn
 
Админ
Стаж: 13 лет 6 мес.
Сообщений: 13309
Ratio: 1096,266
Поблагодарили: 14452
100%
nnm-club.gif
Торрент обновлен в рамках акции Включаем DHT в древних раздачах
Теперь вам нужно его скачать и открыть в торрент-клиенте, указав в качестве места сохранения раздаваемый файл или папку.

_________________
Либо я найду путь, либо проложу его...
Показать сообщения:   
Начать новую тему   Ответить на тему    Торрент-трекер NNM-Club -> Видео -> Зарубежные Фильмы для детей Часовой пояс: GMT + 3
Страница 1 из 1