Классический форум-трекер
canvas not supported
Нас вместе: 4 093 214

Джокер / Joker (2019) BDRip [1080p] ATV


 
 
RSS
Начать новую тему   Ответить на тему    Торрент-трекер NNM-Club -> Аудио и Видео -> Зарубежное видео HD для устройств Apple
Автор Сообщение
Весельчак У ®
Модератор Apple
Стаж: 6 лет 2 мес.
Сообщений: 4769
Ratio: 140,252
Поблагодарили: 155420
95.35%
Откуда: От Москвы недалеко...
ussr.gif
Джокер / Joker (2019) BDRip [1080p] ATV«Сделай счастливое лицо»
Производство: США, Канада / Warner Bros., Village Roadshow Pictures, DC Entertainment, DC Comics, 22 & Indiana Pictures
Жанр: Триллер, драма, криминал

Режиссер: Тодд Филлипс
Продюсер: Брэдли Купер, Тодд Филлипс, Эмма Тиллинджер Коскофф
Актеры: Хоакин Феникс, Роберт Де Ниро, Зази Битц, Джоли Чань, Марк Мэрон, Фрэнсис Конрой, Мэри Кейт Малат, Ши Уигхэм, Брайан Коллен, Бретт Каллен, Билл Кэмп

Описание:
Готэм, начало 1980-х годов. Комик Артур Флек живет с больной матерью, которая с детства учит его «ходить с улыбкой». Пытаясь нести в мир хорошее и дарить людям радость, Артур сталкивается с человеческой жестокостью и постепенно приходит к выводу, что этот мир получит от него не добрую улыбку, а ухмылку злодея Джокера.


Возраст: 18+ (зрителям, достигшим 18 лет. запрещено для детей)
Рейтинг MPAA: R (лицам до 17 лет обязательно присутствие взрослого)
Дата мировой премьеры: 31 августа 2019
Дата российской премьеры: 3 октября 2019, «Каро-Премьер»

Продолжительность: 02:01:47
Качество видео: BDRip 1080р
Перевод: Дублированный, профессиональный многоголосый, любительский многоголосый, авторский одноголосый
Субтитры: Русские (forced, full Enigma, full iTunes), английские (full, SDH)
Присутствует ненормативная лексика!

Видео: H.264, 1920x1038 (1,85:1), ~10,6 Mbps, 23.976 fps
Аудио#1: AAC, 2.0 ch, 182 Kbps - Русский DUB, Online Cin.
Аудио#2: AAC, 2.0 ch, 229 Kbps - Русский MVO, HDRezka Studio
Аудио#3: AAC, 2.0 ch, 230 Kbps - Русский MVO, Mallorn Studio (без цензуры)
Аудио#4: AAC, 2.0 ch, 182 Kbps - Русский AVO, BadBajo
Аудио#5: AAC, 2.0 ch, 229 Kbps - Русский AVO, М.Чадов (без цензуры)
Аудио#6: AAC, 2.0 ch, 219 Kbps - Український DUB, Postmodern Line
Аудио#7: AAC, 2.0 ch, 232 Kbps - English Original
Аудио#8: AC3, 6.0 ch, 384 Kbps - Русский AVO, М.Чадов (без цензуры)
Аудио#9: AC3, 6.0 ch, 640 Kbps - English Original

Общее
Полное имя : /Volumes/HDD/Movies/NNMC/Joker.2019.BDRip.1080p.m4v
Формат : MPEG-4
Идентификатор кодека : M4V (M4V /M4A /mp42/isom)
Размер файла : 11,2 Гбайт
Продолжительность : 2 ч. 1 м.
Режим общего битрейта : Переменный
Общий поток : 13,2 Мбит/сек
Название фильма : Джокер
Исполнитель : Todd Phillips
Режиссёр : Todd Phillips
Исполнитель : Joaquin Phoenix / Robert De Niro / Zazie Beetz / Frances Conroy / Brett Cullen / Shea Whigham / Bill Camp / Glenn Fleshler / Leigh Gill / Josh Pais / Rocco Luna / Marc Maron / Sondra James / Murphy Guyer / Douglas Hodge
Сценарист : Todd Phillips / Scott Silver
Продюсер : Todd Phillips / Bradley Cooper / Emma Tillinger Koskoff
Студия-производитель : Warner Bros.
Жанр : Драма
Тип содержимого : Short Film
Дата записи : UTC 2019-10-03 07:00:00
Дата кодирования : UTC 2019-12-22 21:11:48
Дата пометки : UTC 2019-12-22 21:23:44
Авторское право : © 2019 Warner Bros. Entertainment Inc. TM and copyright DC Comics.
Обложка : Yes
LongDescription : «Джокер» рассказывает отдельную историю культового антагониста, никогда не выходившую на большом экране. Погружение в мир Артура Флека (Хоакин Феникс), человека, отвергнутого обществом — это не просто смелая трактовка развития персонажа, но и поучительная притча.
AppleStoreCountry : Russia
AppleStoreCatalogID : 1480861897
ContentRating : ru-movie|18+|400|

Видео #1
Идентификатор : 1
Формат : AVC
Формат/Информация : Advanced Video Codec
Профиль формата : High@L4.1
Настройки формата : CABAC / 4 Ref Frames
Параметр CABAC формата : Да
Параметр ReFrames формата : 4 кадра
Идентификатор кодека : avc1
Идентификатор кодека/Информация : Advanced Video Coding
Продолжительность : 2 ч. 1 м.
Битрейт : 10,6 Мбит/сек
Ширина : 1920 пикселей
Высота : 1038 пикселей
Соотношение сторон : 1,85:1
Режим частоты кадров : Переменный
Частота кадров : 23,976 (24000/1001) кадра/сек
Минимальная частота кадров : 23,810 кадра/сек
Максимальная частота кадров : 24,390 кадра/сек
Цветовое пространство : YUV
Субдискретизация насыщенности : 4:2:0
Битовая глубина : 8 бит
Тип развёртки : Прогрессивная
Бит/(Пиксели*Кадры) : 0.222
Размер потока : 9,04 Гбайт (81%)
Библиотека кодирования : x264 core 157 r2867+150 7e91e0e t_mod_Custom_2 [8-bit@all X86_64]
Настройки программы : cabac=1 / ref=4 / deblock=1:-3:-3 / analyse=0x3:0x133 / me=umh / subme=11 / psy=1 / fade_compensate=0.00 / psy_rd=0.90:0.10 / mixed_ref=1 / me_range=64 / chroma_me=1 / trellis=2 / 8x8dct=1 / cqm=0 / deadzone=21,11 / fast_pskip=0 / chroma_qp_offset=-4 / threads=32 / lookahead_threads=5 / sliced_threads=0 / nr=0 / decimate=1 / interlaced=0 / bluray_compat=0 / constrained_intra=0 / fgo=0 / bframes=8 / b_pyramid=2 / b_adapt=2 / b_bias=0 / direct=3 / weightb=1 / open_gop=0 / weightp=2 / keyint=250 / keyint_min=23 / scenecut=40 / intra_refresh=0 / rc_lookahead=60 / rc=crf / mbtree=0 / crf=18.0000 / qcomp=0.70 / qpmin=0:0:0 / qpmax=69:69:69 / qpstep=4 / vbv_maxrate=35000 / vbv_bufsize=35000 / crf_max=0.0 / nal_hrd=none / filler=0 / ip_ratio=1.40 / pb_ratio=1.30 / aq=3:1.00 / aq-sensitivity=10.00 / aq-factor=1.00:1.00:1.00 / aq2=0 / aq3=0
Язык : English
Дата кодирования : UTC 2019-12-22 21:11:48
Дата пометки : UTC 2019-12-22 21:23:24
Menus : 16,17
Codec configuration box : avcC

Видео #2
Идентификатор : 17
Формат : JPEG
Идентификатор кодека : jpeg
Продолжительность : 2 ч. 1 м.
Duration_LastFrame : -8 м. 10 с.
Вид битрейта : Переменный
Битрейт : 532 бит/сек
Ширина : 640 пикселей
Высота : 346 пикселей
Соотношение сторон : 1,85:1
Режим частоты кадров : Постоянный
Частота кадров : 0,002 кадр/сек
Цветовое пространство : YUV
Субдискретизация насыщенности : 4:2:0
Битовая глубина : 8 бит
Метод сжатия : С потерями
Бит/(Пиксели*Кадры) : 1.201
Размер потока : 422 Кбайт (0%)
Язык : English
Default : Нет
Дата кодирования : UTC 2019-12-22 21:23:43
Дата пометки : UTC 2019-12-22 21:23:43
Menu For : 1
ColorSpace_ICC : RGB

Аудио #1
Идентификатор : 2
Формат : AAC LC
Формат/Информация : Advanced Audio Codec Low Complexity
Идентификатор кодека : mp4a-40-2
Продолжительность : 2 ч. 1 м.
Вид битрейта : Переменный
Битрейт : 182 Кбит/сек
Максимальный битрейт : 345 Кбит/сек
Каналы : 2 канала
Channel layout : L R
Частота : 48,0 КГц
Частота кадров : 46,875 кадров/сек (1024 SPF)
Метод сжатия : С потерями
Размер потока : 158 Мбайт (1%)
Язык : Russian
Default : Да
Alternate group : 1
Дата кодирования : UTC 2019-12-22 21:11:48
Дата пометки : UTC 2019-12-22 21:23:24
tagc : public.auxiliary-content

Аудио #2
Идентификатор : 3
Формат : AAC LC
Формат/Информация : Advanced Audio Codec Low Complexity
Идентификатор кодека : mp4a-40-2
Продолжительность : 2 ч. 1 м.
Вид битрейта : Переменный
Битрейт : 229 Кбит/сек
Максимальный битрейт : 380 Кбит/сек
Каналы : 2 канала
Channel layout : L R
Частота : 48,0 КГц
Частота кадров : 46,875 кадров/сек (1024 SPF)
Метод сжатия : С потерями
Размер потока : 200 Мбайт (2%)
Язык : Russian
Default : Нет
Alternate group : 1
Дата кодирования : UTC 2019-12-22 21:11:48
Дата пометки : UTC 2019-12-22 21:23:24
tagc : public.auxiliary-content

Аудио #3
Идентификатор : 4
Формат : AAC LC
Формат/Информация : Advanced Audio Codec Low Complexity
Идентификатор кодека : mp4a-40-2
Продолжительность : 2 ч. 1 м.
Вид битрейта : Переменный
Битрейт : 230 Кбит/сек
Максимальный битрейт : 355 Кбит/сек
Каналы : 2 канала
Channel layout : L R
Частота : 48,0 КГц
Частота кадров : 46,875 кадров/сек (1024 SPF)
Метод сжатия : С потерями
Размер потока : 200 Мбайт (2%)
Язык : Russian
Default : Нет
Alternate group : 1
Дата кодирования : UTC 2019-12-22 21:11:48
Дата пометки : UTC 2019-12-22 21:23:24
tagc : public.auxiliary-content

Аудио #4
Идентификатор : 5
Формат : AAC LC
Формат/Информация : Advanced Audio Codec Low Complexity
Идентификатор кодека : mp4a-40-2
Продолжительность : 2 ч. 1 м.
Вид битрейта : Переменный
Битрейт : 182 Кбит/сек
Максимальный битрейт : 329 Кбит/сек
Каналы : 2 канала
Channel layout : L R
Частота : 48,0 КГц
Частота кадров : 46,875 кадров/сек (1024 SPF)
Метод сжатия : С потерями
Размер потока : 158 Мбайт (1%)
Язык : Russian
Default : Нет
Alternate group : 1
Дата кодирования : UTC 2019-12-22 21:11:48
Дата пометки : UTC 2019-12-22 21:23:24
tagc : public.auxiliary-content

Аудио #5
Идентификатор : 6
Формат : AAC LC
Формат/Информация : Advanced Audio Codec Low Complexity
Идентификатор кодека : mp4a-40-2
Продолжительность : 2 ч. 1 м.
Вид битрейта : Переменный
Битрейт : 229 Кбит/сек
Максимальный битрейт : 417 Кбит/сек
Каналы : 2 канала
Channel layout : L R
Частота : 48,0 КГц
Частота кадров : 46,875 кадров/сек (1024 SPF)
Метод сжатия : С потерями
Размер потока : 200 Мбайт (2%)
Язык : Russian
Default : Нет
Alternate group : 1
Дата кодирования : UTC 2019-12-22 21:11:48
Дата пометки : UTC 2019-12-22 21:23:24
Fallback From : 9
tagc : public.main-program-content

Аудио #6
Идентификатор : 7
Формат : AAC LC
Формат/Информация : Advanced Audio Codec Low Complexity
Идентификатор кодека : mp4a-40-2
Продолжительность : 2 ч. 1 м.
Вид битрейта : Переменный
Битрейт : 219 Кбит/сек
Максимальный битрейт : 311 Кбит/сек
Каналы : 2 канала
Channel layout : L R
Частота : 48,0 КГц
Частота кадров : 46,875 кадров/сек (1024 SPF)
Метод сжатия : С потерями
Размер потока : 191 Мбайт (2%)
Язык : Ukrainian
Default : Нет
Alternate group : 1
Дата кодирования : UTC 2019-12-22 21:11:48
Дата пометки : UTC 2019-12-22 21:23:24
tagc : public.main-program-content

Аудио #7
Идентификатор : 8
Формат : AAC LC
Формат/Информация : Advanced Audio Codec Low Complexity
Идентификатор кодека : mp4a-40-2
Продолжительность : 2 ч. 1 м.
Вид битрейта : Переменный
Битрейт : 232 Кбит/сек
Максимальный битрейт : 396 Кбит/сек
Каналы : 2 канала
Channel layout : L R
Частота : 48,0 КГц
Частота кадров : 46,875 кадров/сек (1024 SPF)
Метод сжатия : С потерями
Размер потока : 202 Мбайт (2%)
Язык : English
Default : Нет
Alternate group : 1
Дата кодирования : UTC 2019-12-22 21:11:48
Дата пометки : UTC 2019-12-22 21:23:24
Fallback From : 10
tagc : public.main-program-content

Аудио #8
Идентификатор : 9
Формат : AC-3
Формат/Информация : Audio Coding 3
Коммерческое название : Dolby Digital
Идентификатор кодека : ac-3
Продолжительность : 2 ч. 1 м.
Вид битрейта : Постоянный
Битрейт : 384 Кбит/сек
Каналы : 6 каналов
Channel layout : L R C LFE Ls Rs
Частота : 48,0 КГц
Частота кадров : 31,250 кадров/сек (1536 SPF)
Метод сжатия : С потерями
Размер потока : 335 Мбайт (3%)
Язык : Russian
Service kind : Complete Main
Default : Нет
Alternate group : 1
Дата кодирования : UTC 2019-12-22 21:11:48
Дата пометки : UTC 2019-12-22 21:23:24
Fallback To : 6
tagc : public.main-program-content

Аудио #9
Идентификатор : 10
Формат : AC-3
Формат/Информация : Audio Coding 3
Коммерческое название : Dolby Digital
Идентификатор кодека : ac-3
Продолжительность : 2 ч. 1 м.
Вид битрейта : Постоянный
Битрейт : 640 Кбит/сек
Каналы : 6 каналов
Channel layout : L R C LFE Ls Rs
Частота : 48,0 КГц
Частота кадров : 31,250 кадров/сек (1536 SPF)
Метод сжатия : С потерями
Размер потока : 558 Мбайт (5%)
Язык : English
Service kind : Complete Main
Default : Нет
Alternate group : 1
Дата кодирования : UTC 2019-12-22 21:11:48
Дата пометки : UTC 2019-12-22 21:23:24
Fallback To : 8
tagc : public.main-program-content

Текст #1
Идентификатор : 11
Формат : Timed Text
Режим смешивания : sbtl
Идентификатор кодека : tx3g
Продолжительность : 1 ч. 55 м.
Вид битрейта : Переменный
Битрейт : 9 бит/сек
Размер потока : 7,86 Кбайт (0%)
Язык : Russian
Default : Да
Forced : Нет
Alternate group : 2
Дата кодирования : UTC 2019-12-22 21:11:48
Дата пометки : UTC 2019-12-22 21:23:24
tagc : public.subtitles.forced-only

Текст #2
Идентификатор : 12
Формат : Timed Text
Режим смешивания : sbtl
Идентификатор кодека : tx3g
Продолжительность : 1 ч. 55 м.
Вид битрейта : Переменный
Битрейт : 85 бит/сек
Размер потока : 71,9 Кбайт (0%)
Язык : Russian
Default : Нет
Forced : Нет
Alternate group : 2
Дата кодирования : UTC 2019-12-22 21:11:48
Дата пометки : UTC 2019-12-22 21:23:24
tagc : public.main-program-content

Текст #3
Идентификатор : 13
Формат : Timed Text
Режим смешивания : sbtl
Идентификатор кодека : tx3g
Продолжительность : 1 ч. 57 м.
Вид битрейта : Переменный
Битрейт : 80 бит/сек
Размер потока : 68,7 Кбайт (0%)
Язык : English
Default : Нет
Forced : Нет
Alternate group : 2
Дата кодирования : UTC 2019-12-22 21:11:48
Дата пометки : UTC 2019-12-22 21:23:24
tagc : public.main-program-content

Текст #4
Идентификатор : 14
Формат : Timed Text
Режим смешивания : sbtl
Идентификатор кодека : tx3g
Продолжительность : 1 ч. 54 м.
Вид битрейта : Переменный
Битрейт : 49 бит/сек
Размер потока : 41,3 Кбайт (0%)
Язык : English
Default : Нет
Forced : Нет
Alternate group : 2
Дата кодирования : UTC 2019-12-22 21:11:48
Дата пометки : UTC 2019-12-22 21:23:24
tagc : public.auxiliary-content

Текст #5
Идентификатор : 15
Формат : Timed Text
Режим смешивания : sbtl
Идентификатор кодека : tx3g
Продолжительность : 1 ч. 58 м.
Вид битрейта : Переменный
Битрейт : 62 бит/сек
Размер потока : 54,0 Кбайт (0%)
Язык : English
Default : Нет
Forced : Нет
Alternate group : 2
Дата кодирования : UTC 2019-12-22 21:11:48
Дата пометки : UTC 2019-12-22 21:23:24
tagc : public.accessibility.transcribes-spoken-dialog

Меню
Идентификатор : 16
Идентификатор кодека : text
Продолжительность : 2 ч. 1 м.
Язык : English
Дата кодирования : UTC 2019-12-22 21:23:24
Дата пометки : UTC 2019-12-22 21:23:24
Вид битрейта : CBR
Menu For : 1
Duration_LastFrame : -490907
00:00:00.000 : Глава 01
00:10:00.000 : Глава 02
00:20:00.000 : Глава 03
00:30:00.000 : Глава 04
00:40:00.000 : Глава 05
00:50:00.000 : Глава 06
01:00:00.000 : Глава 07
01:10:00.000 : Глава 08
01:20:00.000 : Глава 09
01:30:00.000 : Глава 10
01:40:00.000 : Глава 11
01:50:00.000 : Глава 12
02:00:00.000 : Глава 13
Вид битрейта : Постоянный


Name: Джокер
Artist: Todd Phillips
Media Kind: Movie
HD Video: 1080p
Genre: Драма
Release Date: 2019-10-03T07:00:00Z
Long Description: «Джокер» рассказывает отдельную историю культового антагониста, никогда не выходившую на большом экране. Погружение в мир Артура Флека (Хоакин Феникс), человека, отвергнутого обществом — это не просто смелая трактовка развития персонажа, но и поучительная притча.
Rating: ru-movie|18+|400|
Studio: Warner Bros.
Cast: Joaquin Phoenix, Robert De Niro, Zazie Beetz, Frances Conroy, Brett Cullen, Shea Whigham, Bill Camp, Glenn Fleshler, Leigh Gill, Josh Pais, Rocco Luna, Marc Maron, Sondra James, Murphy Guyer, Douglas Hodge
Director: Todd Phillips
Producers: Todd Phillips, Bradley Cooper, Emma Tillinger Koskoff
Screenwriters: Todd Phillips, Scott Silver
Copyright: © 2019 Warner Bros. Entertainment Inc. TM and copyright DC Comics.
content ID: 1480861897
iTunes Country: 143469

Скриншоты:


Все одноименные релизы в Клубе
Время раздачи: 24/7 (до появления первых 3-5 скачавших)

Релиз подготовлен для просмотра на Apple TV, iPad, iPhone, iPod Touch.
Для просмотра данного релиза на компьютере с ОС Windows рекомендуется использовать VLC media player
[NNMClub.to]_Joker.2019.BDRip.1080p.m4v.torrent
 Торрент: Платиновая раздача  Зарегистрирован
 
Скачать


Примагнититься
 Зарегистрирован:   23 Дек 2019 00:46:11
 Размер:   11,2 GB  (
 Рейтинг:   4,7 (Голосов: 21)
 Поблагодарили:   74
 Проверка:   Оформление проверено модератором 23 Дек 2019 13:29:02
Как cкачать  ·  Как раздать  ·  Правильно оформить  ·  Поднять ратио!  

_________________
«Всё против нас, только ветер навстречу…».
🍏Apple iMac 21.5 (mid 2011) / Intel Core i5 2.7 GHz / AMD Radeon HD 6770M 512 Mb / 12GB DDR3 / Apple Trackpad, Apple Keyboard / macOS High Sierra 10.13.6 (17G8030)
djayson

Online
Стаж: 7 лет 11 мес.
Сообщений: 159
Ratio: 0,508
0.47%
до титров думал что соседку играет Алисия кей
Показать сообщения:   
Начать новую тему   Ответить на тему    Торрент-трекер NNM-Club -> Аудио и Видео -> Зарубежное видео HD для устройств Apple Часовой пояс: GMT + 3
Страница 1 из 1