Классический форум-трекер
canvas not supported
Нас вместе: 4 094 214

Darwin's Game / Игра Дарвина [2020, TV, 7 из 11] WEB-DL 1080p Rus


 
 
RSS
Начать новую тему   Ответить на тему    Торрент-трекер NNM-Club -> Аниме с озвучкой -> Онгоинги с озвучкой
Автор Сообщение
Ampho_DnB ®
RG Аниме
Uploader 100+
 
Стаж: 8 лет 1 мес.
Сообщений: 3805
Ratio: 353,352
Поблагодарили: 88135
100%
Откуда: Душанбе
roody.gif
Darwin's Game / Игра Дарвина
Жанр: приключения, фантастика, драма
Тип: TV-сериал
Продолжительность: 7 из 11 эпизодов по 25 минут
Выпуск: c 03.01.2020
Автор: Флипфлопс
Снято по манге: Darwin's Game
Режиссер: Токумото Ёсинобу
Производство: Nexus
Информационные ссылки: AniDB || World Art || MAL || ANN
Релиз подготовлен студией Wakanim
  • Тип озвучки: Закадровый, профессиональный

Описание:
Однажды семнадцатилетнему парню по имени Канамэ Судо приходит SMS от лучшего друга с просьбой о помощи в одной мобильной игре, и недолго думая Канамэ кликает по предложенной ссылке. После чего устанавливает приложение «Игра Дарвина» и начинает играть.
Однако вскоре выясняется, что выйти из игры нельзя, пока не устранишь всех своих соперников. Казалось бы, ничего необычного, но «Игра Дарвина» устроена так, чтобы сражаться против людей в реальном мире, откинув мораль и, собственно, человечность. Каждый игрок наделяется особой способностью, именуемой «сигилом». Сражаясь, люди зарабатывают игровые очки, которые позже можно с лёгкостью обменять на реальные деньги.
Так начинается «весёлая» жизнь Канамэ, и теперь ему приходится выживать в игровом мире и искать способ покинуть игру.
Качество: WEB-DLRip | Энкод: HorribleSubs
Язык озвучки: Японский и Русский
Формат: MKV
Видео: x264, 1920x1080, ~8 000 kbps, 23.976 fps
Аудио: AAC, 253 kbps, 48.0 kHz, 2 ch
Аудио: AAC, 192 kbps, 48.0 kHz, 2 ch
01. Первая игра. Боевое крещение (48 мин)
02. Шахта драгоценных камней. Сибуя
03. Зажигание. Спусковой крючок
04. Фейерверк. Искры
05. Аквариум. Погребение в воде
06. Твёрдость. Алмаз
07. Восьмёрки. Сокрушение
General
Unique ID : 7941915951789688858679093028057234896 (0x5F98EB01C560E7FD8394D7FF2F3BDD0)
Complete name : Darwin's Game [Wakanim]\[Wakanim] Darwin's Game - 01 [1080p].mkv
Format : Matroska
Format version : Version 4
File size : 2.73 GiB
Duration : 47 min 52 s
Overall bit rate : 8 177 kb/s
Encoded date : UTC 2020-01-04 06:24:36
Writing application : mkvmerge v41.0.0 ('Smarra') 64-bit
Writing library : libebml v1.3.9 + libmatroska v1.5.2

Video
ID : 1
Format : AVC
Format/Info : Advanced Video Codec
Format profile : High@L4
Format settings : CABAC / 4 Ref Frames
Format settings, CABAC : Yes
Format settings, Reference : 4 frames
Codec ID : V_MPEG4/ISO/AVC
Duration : 47 min 52 s
Bit rate : 8 000 kb/s
Width : 1 920 pixels
Height : 1 080 pixels
Display aspect ratio : 16:9
Frame rate mode : Constant
Frame rate : 23.976 (24000/1001) FPS
Color space : YUV
Chroma subsampling : 4:2:0
Bit depth : 8 bits
Scan type : Progressive
Bits/(Pixel*Frame) : 0.161
Stream size : 2.59 GiB (95%)
Writing library : x264 core 157 r2948 dada181
Encoding settings : cabac=1 / ref=1 / deblock=1:0:0 / analyse=0x3:0x113 / me=hex / subme=7 / psy=1 / psy_rd=1.00:0.00 / mixed_ref=0 / me_range=16 / chroma_me=1 / trellis=1 / 8x8dct=1 / cqm=0 / deadzone=21,11 / fast_pskip=1 / chroma_qp_offset=-2 / threads=24 / lookahead_threads=4 / sliced_threads=0 / nr=0 / decimate=1 / interlaced=0 / bluray_compat=0 / constrained_intra=0 / bframes=2 / b_pyramid=2 / b_adapt=1 / b_bias=0 / direct=1 / weightb=1 / open_gop=0 / weightp=2 / keyint=48 / keyint_min=4 / scenecut=40 / intra_refresh=0 / rc_lookahead=40 / rc=cbr / mbtree=1 / bitrate=8000 / ratetol=1.0 / qcomp=0.60 / qpmin=0 / qpmax=69 / qpstep=4 / vbv_maxrate=8000 / vbv_bufsize=24000 / nal_hrd=none / filler=0 / ip_ratio=1.40 / aq=1:1.00
Default : Yes
Forced : No

Audio #1
ID : 2
Format : AAC LC
Format/Info : Advanced Audio Codec Low Complexity
Codec ID : A_AAC-2
Duration : 47 min 52 s
Bit rate : 192 kb/s
Channel(s) : 2 channels
Channel layout : L R
Sampling rate : 48.0 kHz
Frame rate : 46.875 FPS (1024 SPF)
Compression mode : Lossy
Delay relative to video : -42 ms
Stream size : 64.8 MiB (2%)
Language : Russian
Default : Yes
Forced : No

Audio #2
ID : 3
Format : AAC LC
Format/Info : Advanced Audio Codec Low Complexity
Codec ID : A_AAC-2
Duration : 47 min 52 s
Bit rate : 253 kb/s
Channel(s) : 2 channels
Channel layout : L R
Sampling rate : 48.0 kHz
Frame rate : 46.875 FPS (1024 SPF)
Compression mode : Lossy
Delay relative to video : -42 ms
Stream size : 86.8 MiB (3%)
Language : Japanese
Default : No
Forced : No


Время раздачи: До первых сидов
[NNMClub.to]_Darwin's Game [Wakanim].torrent
 Торрент:   Зарегистрирован
 
Зарегистрируйтесь и скачайте торрент!
55,5 KB
Free Leech
Примагнититься
 Зарегистрирован:   21 Фев 2020 23:52:13
 Размер:   10,9 GB  (
 Рейтинг:   4,6 (Голосов: 14)
 Поблагодарили:   60
 Проверка:   Оформление проверено модератором 22 Фев 2020 00:27:43
Как cкачать  ·  Как раздать  ·  Правильно оформить  ·  Поднять ратио!  
MoscowGolem
RG Аниме
 
Стаж: 6 лет 4 мес.
Сообщений: 743
Ratio: 856,259
Раздал: 241,9 TB
Поблагодарили: 7556
100%
ussr.gif
бери вака вебку - она анценз* на остальных сервисах с цензуркой.

_________________
О тот, чья сущность темнее сумерек и багрянее рек крови, Во имя тебя, Погребённого в глубинах времён, Во славу твою, Я присягаю тьме. Пусть те безумцы, что противостоят нам, Будут уничтожены нашей с тобой единой силой!
Ampho_DnB ®
RG Аниме
Uploader 100+
 
Стаж: 8 лет 1 мес.
Сообщений: 3805
Ratio: 353,352
Поблагодарили: 88135
100%
Откуда: Душанбе
roody.gif
MoscowGolem писал(а): Перейти к сообщению
бери вака вебку - она анценз* на остальных сервисах с цензуркой.

Со 2 серии заменю
Hard456852
Стаж: 9 лет 5 мес.
Сообщений: 780
Ratio: 34,065
98.22%
А орден за прохождение игры дают? :смех: Ох уж эти японцы...
ShantiSnyder
Uploader 100+
Стаж: 11 лет 5 мес.
Сообщений: 1284
Ratio: 31,924
Поблагодарили: 90
12.63%
Откуда: Apple
ukraine.gif
Hard456852, премию, премию.

_________________
С зоной ведь так:с хабаром вернулся - чудо, живой вернулся - удача,патрульная пуля мимо - везенье, а все остальное - судьба.
ElSwanko
Куратор Аниме
Модератор Музыки
Дед Мороз
Стаж: 13 лет 5 мес.
Сообщений: 14219
Ratio: 923,583
Поблагодарили: 58681
100%
Откуда: ур-пространство преконтинуума
roody.gif
ShantiSnyder писал(а): Перейти к сообщению
премию

Автора игры премию ^_^

_________________
Правила: Аниме, Манга, OST || Музыка
Помощь: Скриншоты || MediaInfo || auCDtect
Ampho_DnB ®
RG Аниме
Uploader 100+
 
Стаж: 8 лет 1 мес.
Сообщений: 3805
Ratio: 353,352
Поблагодарили: 88135
100%
Откуда: Душанбе
roody.gif
Торрент обновлен. Добавлены 2-4 серии.
Ampho_DnB ®
RG Аниме
Uploader 100+
 
Стаж: 8 лет 1 мес.
Сообщений: 3805
Ratio: 353,352
Поблагодарили: 88135
100%
Откуда: Душанбе
roody.gif
Торрент обновлен. Добавлена 5 серия.
Ampho_DnB ®
RG Аниме
Uploader 100+
 
Стаж: 8 лет 1 мес.
Сообщений: 3805
Ratio: 353,352
Поблагодарили: 88135
100%
Откуда: Душанбе
roody.gif
Торрент обновлен. Добавлена 6 серия.
Ampho_DnB ®
RG Аниме
Uploader 100+
 
Стаж: 8 лет 1 мес.
Сообщений: 3805
Ratio: 353,352
Поблагодарили: 88135
100%
Откуда: Душанбе
roody.gif
Торрент обновлен. Добавлена 7 серия.
Показать сообщения:   
Начать новую тему   Ответить на тему    Торрент-трекер NNM-Club -> Аниме с озвучкой -> Онгоинги с озвучкой Часовой пояс: GMT + 3
Страница 1 из 1