Классический форум-трекер
canvas not supported
Нас вместе: 4 089 868

Изгоняющий дьявола: Абаддон / The Assent (2019) WEB-DL [1080p] ATV


 
 
RSS
Начать новую тему   Ответить на тему    Торрент-трекер NNM-Club -> Аудио и Видео -> Зарубежное видео HD для устройств Apple
Автор Сообщение
Весельчак У ®
Модератор Apple
Стаж: 6 лет 1 мес.
Сообщений: 4645
Ratio: 142,276
Поблагодарили: 151045
93.1%
Откуда: От Москвы недалеко...
ussr.gif
Изгоняющий дьявола: Абаддон / The Assent (2019) WEB-DL [1080p] ATV «Экзорцизм — это только начало»
Производство: США / Boom Done Productions
Жанр: Ужасы, триллер

Режиссер: Пирри Реджинальд Тео
Продюсер: Эхуд Блайберг, Дэнни Димборт, Чарльз Артур Берг
Актеры: Питер Джейсон, Флоренс Ванида Фэйвр, Дуглас Спэйн, Роберт Казински, Эйлин Дитц, Уилльям Доберт, Кэйден Драгомер, Ханна Уорд, Лука Блю Дарнелл, Меган Генри

Описание:
Над семьей Джоэла нависло проклятие. Недавно скончалась его жена, а маленького сына мучают кошмары. Призванный в дом священник убежден, что их род захватил древний демон разрушения Абаддон, принимающий разные обличия. Если демона не остановить, его власть распространится и на другие семьи.


Возраст: 18+ (зрителям, достигшим 18 лет. запрещено для детей)
Дата мировой премьеры: 22 ноября 2019
Дата российской премьеры: 9 января 2020, «Экспонента»

Продолжительность: 01:27:46
Качество видео: WEB-DL 1080р Amazon
Перевод: Дублированный (Онлайн кинотеатр)
Субтитры: Английские (SDH)

Видео: H.264, 1920x816 (2.35:1), ~5995 kbps, 23.976 fps
Аудио#1: AAC, 2.0 ch, 160 Kbps - Русский DUB, Онлайн кинотеатр
Аудио#2: AAC, 2.0 ch, 197 Kbps - English Original
Аудио#3: AC3, 6.0 ch, 640 Kbps - English Original

Общее
Полное имя : /Volumes/HDD/Movies/NNMC/The.Assent.2019.WEB-DL.1080p.m4v
Формат : MPEG-4
Идентификатор кодека : M4V (M4V /M4A /mp42/isom)
Размер файла : 4,29 Гбайт
Продолжительность : 1 ч. 27 м.
Режим общего битрейта : Переменный
Общий поток : 6999 Кбит/сек
Название фильма : Изгоняющий дьявола: Абаддон
Исполнитель : Pearry Reginald Teo
Режиссёр : Pearry Reginald Teo
Исполнитель : Robert Kazinsky / Peter Jason / Hannah Ward / Caden Dragomer / Douglas Spain / Eileen Dietz / Margarita Reyes / Florence Faivre / Luca Bleu Darnell / William "Will" Daubert / Megan Henry / Austin McMains / Lais Pedroso / Josh Schultz / Sarah Schultz / Ashton Riordan Teo
Сценарист : Pearry Reginald Teo
Студия-производитель : Boom Done Productions
Жанр : ужасы, триллер
Тип содержимого : Short Film
Дата записи : UTC 2020-01-09 12:00:00
Дата кодирования : UTC 2020-01-15 21:45:19
Дата пометки : UTC 2020-01-15 21:48:50
Обложка : Yes
LongDescription : Священник, отсидевший 8 лет в тюрьме за убийство мальчика во время экзорцизма, ищет искупления и находит молодого отца-одиночку Джоэла Кларка. Он убежден, что Джоэл отмечен самим дьяволом и необходимо провести обряд изгнания, чтобы тот не потерял ребенка. Борьба за душу мальчика приводит к шокирующему и ужасающему открытию — как глубоко дьявол сидит во всех нас.
ContentRating : mpaa|Unrated|???|

Видео
Идентификатор : 1
Формат : AVC
Формат/Информация : Advanced Video Codec
Профиль формата : High@L4
Настройки формата : CABAC / 4 Ref Frames
Параметр CABAC формата : Да
Параметр ReFrames формата : 4 кадра
Идентификатор кодека : avc1
Идентификатор кодека/Информация : Advanced Video Coding
Продолжительность : 1 ч. 27 м.
Вид битрейта : Постоянный
Битрейт : 5995 Кбит/сек
Номинальный битрейт : 10000 Кбит/сек
Ширина : 1920 пикселей
Высота : 816 пикселей
Соотношение сторон : 2,35:1
Соотношение сторон в оригинале : 2,35:1
Режим частоты кадров : Переменный
Частота кадров : 23,976 (24000/1001) кадра/сек
Минимальная частота кадров : 23,810 кадра/сек
Максимальная частота кадров : 24,390 кадра/сек
Цветовое пространство : YUV
Субдискретизация насыщенности : 4:2:0
Битовая глубина : 8 бит
Тип развёртки : Прогрессивная
Бит/(Пиксели*Кадры) : 0.160
Размер потока : 3,68 Гбайт (86%)
Язык : English
Дата кодирования : UTC 2020-01-15 21:45:19
Дата пометки : UTC 2020-01-15 21:48:49
Цветовой диапазон : Limited
Основные цвета : BT.709
Характеристики трансфера : BT.709
Коэффициенты матрицы : BT.709
Codec configuration box : avcC

Аудио #1
Идентификатор : 2
Формат : AAC LC
Формат/Информация : Advanced Audio Codec Low Complexity
Идентификатор кодека : mp4a-40-2
Продолжительность : 1 ч. 27 м.
Вид битрейта : Переменный
Битрейт : 158 Кбит/сек
Максимальный битрейт : 288 Кбит/сек
Каналы : 2 канала
Channel layout : L R
Частота : 48,0 КГц
Частота кадров : 46,875 кадров/сек (1024 SPF)
Метод сжатия : С потерями
Размер потока : 99,5 Мбайт (2%)
Язык : Russian
Default : Да
Alternate group : 1
Дата кодирования : UTC 2020-01-15 21:45:19
Дата пометки : UTC 2020-01-15 21:48:49
tagc : public.main-program-content

Аудио #2
Идентификатор : 3
Формат : AAC LC
Формат/Информация : Advanced Audio Codec Low Complexity
Идентификатор кодека : mp4a-40-2
Продолжительность : 1 ч. 27 м.
Продолжительность оригинала : 1 ч. 27 м.
Вид битрейта : Переменный
Битрейт : 197 Кбит/сек
Максимальный битрейт : 329 Кбит/сек
Каналы : 2 канала
Channel layout : L R
Частота : 48,0 КГц
Частота кадров : 46,875 кадров/сек (1024 SPF)
Метод сжатия : С потерями
Размер потока : 124 Мбайт (3%)
Размер потока оригинала : 124 Мбайт (3%)
Язык : English
Default : Нет
Alternate group : 1
Дата кодирования : UTC 2020-01-15 21:45:19
Дата пометки : UTC 2020-01-15 21:48:08
Fallback From : 4
tagc : public.main-program-content

Аудио #3
Идентификатор : 4
Формат : AC-3
Формат/Информация : Audio Coding 3
Коммерческое название : Dolby Digital
Идентификатор кодека : ac-3
Продолжительность : 1 ч. 27 м.
Вид битрейта : Постоянный
Битрейт : 640 Кбит/сек
Каналы : 6 каналов
Channel layout : L R C LFE Ls Rs
Частота : 48,0 КГц
Частота кадров : 31,250 кадров/сек (1536 SPF)
Метод сжатия : С потерями
Размер потока : 402 Мбайт (9%)
Язык : English
Service kind : Complete Main
Default : Нет
Alternate group : 1
Дата кодирования : UTC 2020-01-15 21:45:19
Дата пометки : UTC 2020-01-15 21:48:08
Fallback To : 3
tagc : public.main-program-content

Текст #1
Идентификатор : 5
Формат : Timed Text
Режим смешивания : sbtl
Идентификатор кодека : tx3g
Продолжительность : 1 ч. 21 м.
Вид битрейта : Переменный
Битрейт : 57 бит/сек
Размер потока : 34,0 Кбайт (0%)
Язык : English
Default : Да
Forced : Нет
Alternate group : 2
Дата кодирования : UTC 2020-01-15 21:45:19
Дата пометки : UTC 2020-01-15 21:48:49
tagc : public.main-program-content

Текст #2
Идентификатор : 6
Формат : Timed Text
Режим смешивания : sbtl
Идентификатор кодека : tx3g
Продолжительность : 1 ч. 27 м.
Вид битрейта : Переменный
Битрейт : 55 бит/сек
Размер потока : 35,6 Кбайт (0%)
Язык : English
Default : Нет
Forced : Нет
Alternate group : 2
Дата кодирования : UTC 2020-01-15 21:45:19
Дата пометки : UTC 2020-01-15 21:48:49
tagc : public.accessibility.transcribes-spoken-dialog


Name: Изгоняющий дьявола: Абаддон
Artist: Pearry Reginald Teo
Media Kind: Movie
HD Video: 1080p
Genre: ужасы, триллер
Release Date: 2020-01-09T12:00:00Z
Long Description: Священник, отсидевший 8 лет в тюрьме за убийство мальчика во время экзорцизма, ищет искупления и находит молодого отца-одиночку Джоэла Кларка. Он убежден, что Джоэл отмечен самим дьяволом и необходимо провести обряд изгнания, чтобы тот не потерял ребенка. Борьба за душу мальчика приводит к шокирующему и ужасающему открытию — как глубоко дьявол сидит во всех нас.
Rating: mpaa|Unrated|???|
Studio: Boom Done Productions
Cast: Robert Kazinsky, Peter Jason, Hannah Ward, Caden Dragomer, Douglas Spain, Eileen Dietz, Margarita Reyes, Florence Faivre, Luca Bleu Darnell, William "Will" Daubert, Megan Henry, Austin McMains, Lais Pedroso, Josh Schultz, Sarah Schultz, Ashton Riordan Teo
Director: Pearry Reginald Teo
Screenwriters: Pearry Reginald Teo

Скриншоты:


Все одноименные релизы в Клубе
Время раздачи: 24/7 (до появления первых 3-5 скачавших)

Релиз подготовлен для просмотра на Apple TV, iPad, iPhone, iPod Touch.
Для просмотра данного релиза на компьютере с ОС Windows рекомендуется использовать VLC media player
[NNMClub.to]_The.Assent.2019.WEB-DL.1080p.m4v.torrent
 Торрент:   Зарегистрирован
 
Зарегистрируйтесь и скачайте торрент!
43,1 KB
Free Leech
Примагнититься
 Зарегистрирован:   16 Янв 2020 00:55:27
 Размер:   4,29 GB  (
 Рейтинг:    (Голосов: 7)
 Поблагодарили:   44
 Проверка:   Оформление проверено модератором 16 Янв 2020 02:34:51
Как cкачать  ·  Как раздать  ·  Правильно оформить  ·  Поднять ратио!  

_________________
«Всё против нас, только ветер навстречу…».
🍏Apple iMac 21.5 (mid 2011) / Intel Core i5 2.7 GHz / AMD Radeon HD 6770M 512 Mb / 12GB DDR3 / Apple Trackpad, Apple Keyboard / macOS High Sierra 10.13.6 (17G8030)
Loading...
ВАВАН0071
Стаж: 5 лет 9 мес.
Сообщений: 28
Ratio: 1,472
Раздал: 2,23 GB
100%
Откуда: SARATOV 64 RUSSIA
russia.gif
как фильм ?

_________________
Свобода самая ценная вещь в жизни Человека MC Windows 7 Ultimate 64-bit SP 1/MSI H61M-23(MS-7680v.3x)/Intel Core T5-2300 CPU @ 2.80 GHz/NVIDIA GeForce GTX 550 TI
blupop
Стаж: 7 лет 6 мес.
Сообщений: 163
Ratio: 20,861
Раздал: 8,086 TB
Поблагодарили: 6
100%
Откуда: Москва
russia.gif
ВАВАН0071

Кино не самое плохое, оно просто скучное, первый час не происходит вообще ничего, потом начинается сеанс вялого экзорцизма, есть даже сценарный твист, но все это настолько уныло и неизобретательно, что не помогают даже слабые зачатки атмосферы из-за мрачного аудиовизуала, остальное же очень слабо. При этом фильм никак не тянет на хоррор, очень незатейливый и вторичный мистический триллерок, если не сказать хуже.
yacvetochek
Стаж: 10 лет
Сообщений: 2159
Ratio: 11,29
Раздал: 17,02 TB
Поблагодарили: 4696
100%
russia.gif
обычный триллер. с одержимостью и экзорцизмом нет ничего общего, ну разве что чтения криминального отца...

3/10

_________________
Обязательно заходите в и что-нибудь оставьте в камментах!
ShmagenR
Стаж: 10 лет 3 мес.
Сообщений: 206
Ratio: 9,613
100%
russia.gif
blupop писал(а): Перейти к сообщению
слабые зачатки атмосферы из-за мрачного аудиовизуала

ранен и убит.
Показать сообщения:   
Начать новую тему   Ответить на тему    Торрент-трекер NNM-Club -> Аудио и Видео -> Зарубежное видео HD для устройств Apple Часовой пояс: GMT + 3
Страница 1 из 1