Классический форум-трекер
canvas not supported
Нас вместе: 4 089 902

Хорошие мальчики / Good Boys (2019) BDRip [1080p] ATV


 
 
RSS
Начать новую тему   Ответить на тему    Торрент-трекер NNM-Club -> Аудио и Видео -> Зарубежное видео HD для устройств Apple
Автор Сообщение
Весельчак У ®
Модератор Apple
Стаж: 6 лет 1 мес.
Сообщений: 4645
Ratio: 142,28
Поблагодарили: 151071
93.1%
Откуда: От Москвы недалеко...
ussr.gif
Хорошие мальчики / Good Boys (2019) BDRip [1080p] ATV«One Bad Decision Leads to Another»
Производство: США / Good Universe, Point Grey Pictures, Universal Pictures
Жанр: Комедия, приключения

Режиссер: Джин Ступницки
Продюсер: Ли Айзенберг, Эван Голдберг, Сет Роген
Актеры: Джейкоб Тремблей, Кит Л. Уильямс, Брэйди Нун, Молли Гордон, Мидори Френсис, Исаак Ванг, Милли Дэвис, Джош Барклай Карас, Уилл Форте, Mariessa Portelance

Описание:
История троих друзей-шестиклассников, планирующих посетить крутую вечеринку. Но прежде они должны хорошенько подготовиться, чтобы не ударить в грязь лицом. Так начинается безумное путешествие по долине Сан-Фернандо, в котором надо вернуть наркотики, украсть пиво и починить сломанного дрона — все это нужно сделать, пока родители не вернулись домой.


Возраст: 16+ (зрителям, достигшим 16 лет)
Рейтинг MPAA: R (лицам до 17 лет обязательно присутствие взрослого)
Дата мировой премьеры: 11 марта 2019

Релиз от: NNMClub
Продолжительность: 01:29:37
Качество видео: BDRip 1080р
Перевод: Дублированный (DVD R2)
Субтитры: Русские (forced, full) английские

Видео: H.264, 1920x804 (2.40:1), ~9100 kbps, 23.976 fps
Аудио#1: AAC, 2.0 ch, 230 Kbps - Русский DUB, DVD R2
Аудио#2: AAC, 2.0 ch, 172 Kbps - Український DUB, LeDoyen Studio
Аудио#3: AAC, 2.0 ch, 230 Kbps - English Original
Аудио#4: AC3, 6.0 ch, 384 Kbps - Русский DUB, DVD R2
Аудио#5: AC3, 6.0 ch, 640 Kbps - English Original

Общее
Полное имя : /Volumes/HDD/Movies/NNMC/Good.Boys.2019.BDRip.1080p.m4v
Формат : MPEG-4
Профиль формата : Base Media / Version 2
Идентификатор кодека : mp42 (isom/iso2/avc1/mp41)
Размер файла : 6,74 Гбайт
Продолжительность : 1 ч. 29 м.
Режим общего битрейта : Переменный
Общий поток : 10,8 Мбит/сек
Название фильма : Хорошие мальчики
Исполнитель : Gene Stupnitsky
Композитор : Lyle Workman
Режиссёр : Gene Stupnitsky
Исполнитель : Jacob Tremblay / Brady Noon / Keith L. Williams / Molly Gordon / Midori Francis / Will Forte / Josh Caras / Retta / LilRel Howery / Millie Davis / Enid-Raye Adams / Michaela Watkins / Sam Richardson / Chance Hurstfield / Vanessa Przada / Lina Renna / Benita Ha / Maja Aro / Matt Ellis / Jaiven Natt / Sean Quan / Vicky Lambert / Esabella Anna Karena Strickland / Izaac Wang / Nevis Unipan / Christian Darrel Scott / Jocelyne Gaumond / Nolen Dubuc / Aaron Paul Stewart / James Hibbard / Craig Haas / Ian Hawes / Kane Nelson / Jaron Melanson / Cody Davis / Andrew Anderson / Everett Adams / Marlee Grace Becker / Jonah Peacock / Vanessa Young / Haven Rockwell O'Sullivan / Rian McCririck / Zoriah Wong / Stephen Merchant
Сценарист : Gene Stupnitsky / Lee Eisenberg
Продюсер : Seth Rogen / Evan Goldberg / Lee Eisenberg / James Weaver
Исполнительный продюсер : Jonah Hill, Nathan Kahane, John Powers Middleton, Brady Fujikawa, Josh Fagen
Студия-производитель : Good Universe, Point Grey Pictures
Жанр : комедия
Тип содержимого : Short Film
Дата записи : UTC 2019-08-14 12:00:00
Дата кодирования : UTC 2020-01-15 14:15:57
Дата пометки : UTC 2020-01-16 07:12:23
Программа кодирования : HandBrake 1.3.1 2020010400
Обложка : Yes
LongDescription : История троих друзей-шестиклассников, планирующих посетить крутую вечеринку. Но прежде они должны хорошенько подготовиться, чтобы не ударить в грязь лицом. Так начинается безумное путешествие по долине Сан-Фернандо, в котором надо вернуть наркотики, украсть пиво и починить сломанного дрона — все это нужно сделать, пока родители не вернулись домой.
ContentRating : mpaa|R|400|

Видео #1
Идентификатор : 1
Формат : AVC
Формат/Информация : Advanced Video Codec
Профиль формата : High@L4.1
Настройки формата : CABAC / 5 Ref Frames
Параметр CABAC формата : Да
Параметр ReFrames формата : 5 кадров
Идентификатор кодека : avc1
Идентификатор кодека/Информация : Advanced Video Coding
Продолжительность : 1 ч. 29 м.
Битрейт : 9100 Кбит/сек
Ширина : 1920 пикселей
Высота : 804 пикселя
Соотношение сторон : 2,40:1
Режим частоты кадров : Переменный
Частота кадров : 23,976 (24000/1001) кадра/сек
Минимальная частота кадров : 23,974 кадра/сек
Максимальная частота кадров : 23,981 кадра/сек
Цветовое пространство : YUV
Субдискретизация насыщенности : 4:2:0
Битовая глубина : 8 бит
Тип развёртки : Прогрессивная
Бит/(Пиксели*Кадры) : 0.246
Размер потока : 5,69 Гбайт (84%)
Библиотека кодирования : x264 core 157 r2935 545de2f
Настройки программы : cabac=1 / ref=5 / deblock=1:-1:-1 / analyse=0x3:0x133 / me=umh / subme=10 / psy=1 / psy_rd=1.00:0.15 / mixed_ref=1 / me_range=24 / chroma_me=1 / trellis=2 / 8x8dct=1 / cqm=0 / deadzone=21,11 / fast_pskip=1 / chroma_qp_offset=-3 / threads=6 / lookahead_threads=1 / sliced_threads=0 / nr=0 / decimate=1 / interlaced=0 / bluray_compat=0 / constrained_intra=0 / bframes=8 / b_pyramid=2 / b_adapt=2 / b_bias=0 / direct=3 / weightb=1 / open_gop=0 / weightp=2 / keyint=240 / keyint_min=24 / scenecut=40 / intra_refresh=0 / rc_lookahead=60 / rc=2pass / mbtree=1 / bitrate=9100 / ratetol=1.0 / qcomp=0.60 / qpmin=0 / qpmax=69 / qpstep=4 / cplxblur=20.0 / qblur=0.5 / vbv_maxrate=62500 / vbv_bufsize=78125 / nal_hrd=none / filler=0 / ip_ratio=1.40 / aq=1:1.00
Язык : English
Дата кодирования : UTC 2020-01-15 14:15:57
Дата пометки : UTC 2020-01-15 14:15:57
Цветовой диапазон : Limited
Основные цвета : BT.709
Характеристики трансфера : BT.709
Коэффициенты матрицы : BT.709
Menus : 10,11
Codec configuration box : avcC

Видео #2
Идентификатор : 11
Формат : JPEG
Идентификатор кодека : jpeg
Продолжительность : 1 ч. 29 м.
Вид битрейта : Переменный
Битрейт : 1191 бит/сек
Ширина : 640 пикселей
Высота : 268 пикселей
Соотношение сторон : 2,40:1
Режим частоты кадров : Переменный
Частота кадров : 0,004 кадр/сек
Минимальная частота кадров : 0,002 кадр/сек
Максимальная частота кадров : 0,007 кадр/сек
Цветовое пространство : YUV
Субдискретизация насыщенности : 4:2:0
Битовая глубина : 8 бит
Метод сжатия : С потерями
Бит/(Пиксели*Кадры) : 1.736
Размер потока : 727 Кбайт (0%)
Язык : English
Default : Нет
Дата кодирования : UTC 2020-01-16 07:12:22
Дата пометки : UTC 2020-01-16 07:12:22
Menu For : 1
ColorSpace_ICC : RGB

Аудио #1
Идентификатор : 2
Формат : AAC LC
Формат/Информация : Advanced Audio Codec Low Complexity
Идентификатор кодека : mp4a-40-2
Продолжительность : 1 ч. 29 м.
Вид битрейта : Переменный
Битрейт : 230 Кбит/сек
Максимальный битрейт : 394 Кбит/сек
Каналы : 2 канала
Channel layout : L R
Частота : 48,0 КГц
Частота кадров : 46,875 кадров/сек (1024 SPF)
Метод сжатия : С потерями
Размер потока : 147 Мбайт (2%)
Заголовок : DUB [DVD R2]
Язык : Russian
Default : Да
Alternate group : 1
Дата кодирования : UTC 2020-01-15 14:15:57
Дата пометки : UTC 2020-01-15 14:15:57
Fallback From : 5
Menus : 10
tagc : public.main-program-content

Аудио #2
Идентификатор : 3
Формат : AAC LC
Формат/Информация : Advanced Audio Codec Low Complexity
Идентификатор кодека : mp4a-40-2
Продолжительность : 1 ч. 29 м.
Вид битрейта : Переменный
Битрейт : 172 Кбит/сек
Максимальный битрейт : 244 Кбит/сек
Каналы : 2 канала
Channel layout : L R
Частота : 48,0 КГц
Частота кадров : 46,875 кадров/сек (1024 SPF)
Метод сжатия : С потерями
Размер потока : 110 Мбайт (2%)
Заголовок : DUB [LeDoyen Studio]
Язык : Ukrainian
Default : Нет
Alternate group : 1
Дата кодирования : UTC 2020-01-15 14:15:57
Дата пометки : UTC 2020-01-15 14:15:57
Menus : 10
tagc : public.main-program-content

Аудио #3
Идентификатор : 4
Формат : AAC LC
Формат/Информация : Advanced Audio Codec Low Complexity
Идентификатор кодека : mp4a-40-2
Продолжительность : 1 ч. 29 м.
Вид битрейта : Переменный
Битрейт : 229 Кбит/сек
Максимальный битрейт : 419 Кбит/сек
Каналы : 2 канала
Channel layout : L R
Частота : 48,0 КГц
Частота кадров : 46,875 кадров/сек (1024 SPF)
Метод сжатия : С потерями
Размер потока : 147 Мбайт (2%)
Заголовок : Original
Язык : English
Default : Нет
Alternate group : 1
Дата кодирования : UTC 2020-01-15 14:15:57
Дата пометки : UTC 2020-01-15 14:15:57
Fallback From : 6
Menus : 10
tagc : public.main-program-content

Аудио #4
Идентификатор : 5
Формат : AC-3
Формат/Информация : Audio Coding 3
Коммерческое название : Dolby Digital
Идентификатор кодека : ac-3
Продолжительность : 1 ч. 29 м.
Вид битрейта : Постоянный
Битрейт : 384 Кбит/сек
Каналы : 6 каналов
Channel layout : L R C LFE Ls Rs
Частота : 48,0 КГц
Частота кадров : 31,250 кадров/сек (1536 SPF)
Метод сжатия : С потерями
Размер потока : 246 Мбайт (4%)
Заголовок : DVD R2
Язык : Russian
Service kind : Complete Main
Default : Inherited From: 2
Alternate group : 1
Дата кодирования : UTC 2020-01-15 14:15:57
Дата пометки : UTC 2020-01-15 14:15:57
Fallback To : 2
tagc : public.main-program-content

Аудио #5
Идентификатор : 6
Формат : AC-3
Формат/Информация : Audio Coding 3
Коммерческое название : Dolby Digital
Идентификатор кодека : ac-3
Продолжительность : 1 ч. 29 м.
Вид битрейта : Постоянный
Битрейт : 640 Кбит/сек
Каналы : 6 каналов
Channel layout : L R C LFE Ls Rs
Частота : 48,0 КГц
Частота кадров : 31,250 кадров/сек (1536 SPF)
Метод сжатия : С потерями
Размер потока : 410 Мбайт (6%)
Заголовок : Original
Язык : English
Service kind : Complete Main
Default : Нет
Alternate group : 1
Дата кодирования : UTC 2020-01-15 14:15:57
Дата пометки : UTC 2020-01-15 14:15:57
Fallback To : 4
tagc : public.main-program-content

Текст #1
Идентификатор : 7
Формат : Timed Text
Режим смешивания : sbtl
Идентификатор кодека : tx3g
Продолжительность : 1 ч. 29 м.
Вид битрейта : Переменный
Битрейт : 5 бит/сек
Размер потока : 3,35 Кбайт (0%)
Заголовок : Forced
Язык : Russian
Default : Да
Forced : Нет
Alternate group : 2
Дата кодирования : UTC 2020-01-15 14:15:57
Дата пометки : UTC 2020-01-15 14:15:57
Menus : 10
tagc : public.subtitles.forced-only

Текст #2
Идентификатор : 8
Формат : Timed Text
Режим смешивания : sbtl
Идентификатор кодека : tx3g
Продолжительность : 1 ч. 29 м.
Вид битрейта : Переменный
Битрейт : 156 бит/сек
Размер потока : 102 Кбайт (0%)
Заголовок : Full
Язык : Russian
Default : Нет
Forced : Нет
Alternate group : 2
Дата кодирования : UTC 2020-01-15 14:15:57
Дата пометки : UTC 2020-01-15 14:15:57
Menus : 10
tagc : public.main-program-content

Текст #3
Идентификатор : 9
Формат : Timed Text
Режим смешивания : sbtl
Идентификатор кодека : tx3g
Продолжительность : 1 ч. 23 м.
Вид битрейта : Переменный
Битрейт : 144 бит/сек
Размер потока : 88,0 Кбайт (0%)
Язык : English
Default : Нет
Forced : Нет
Alternate group : 2
Дата кодирования : UTC 2020-01-15 14:15:57
Дата пометки : UTC 2020-01-15 14:15:57
Menus : 10
tagc : public.main-program-content

Меню
Идентификатор : 10
Идентификатор кодека : text
Продолжительность : 1 ч. 29 м.
Язык : English
Дата кодирования : UTC 2020-01-15 14:15:57
Дата пометки : UTC 2020-01-15 14:15:57
Вид битрейта : CBR
Menu For : 1,2,3,4,7,8,9
00:00:00.000 : 00:00:00.000
00:03:54.025 : 00:03:54.025
00:09:00.165 : 00:09:00.165
00:11:51.169 : 00:11:51.169
00:15:08.658 : 00:15:08.658
00:17:29.840 : 00:17:29.840
00:21:20.696 : 00:21:20.696
00:27:27.688 : 00:27:27.646
00:31:25.675 : 00:31:25.675
00:35:06.104 : 00:35:06.104
00:40:11.868 : 00:40:11.868
00:47:16.208 : 00:47:16.208
00:51:01.183 : 00:51:01.183
00:57:54.388 : 00:57:54.388
01:02:27.953 : 01:02:27.953
01:06:46.544 : 01:06:46.544
01:09:56.901 : 01:09:56.901
01:14:19.538 : 01:14:19.497
01:20:00.796 : 01:20:00.796
01:23:35.427 : 01:23:35.427
Вид битрейта : Постоянный


Name: Хорошие мальчики
Artist: Gene Stupnitsky
Media Kind: Movie
HD Video: 1080p
Genre: комедия
Release Date: 2019-08-14T12:00:00Z
Long Description: История троих друзей-шестиклассников, планирующих посетить крутую вечеринку. Но прежде они должны хорошенько подготовиться, чтобы не ударить в грязь лицом. Так начинается безумное путешествие по долине Сан-Фернандо, в котором надо вернуть наркотики, украсть пиво и починить сломанного дрона — все это нужно сделать, пока родители не вернулись домой.
Rating: mpaa|R|400|
Studio: Good Universe, Point Grey Pictures
Cast: Jacob Tremblay, Brady Noon, Keith L. Williams, Molly Gordon, Midori Francis, Will Forte, Josh Caras, Retta, LilRel Howery, Millie Davis, Enid-Raye Adams, Michaela Watkins, Sam Richardson, Chance Hurstfield, Vanessa Przada, Lina Renna, Benita Ha, Maja Aro, Matt Ellis, Jaiven Natt, Sean Quan, Vicky Lambert, Esabella Anna Karena Strickland, Izaac Wang, Nevis Unipan, Christian Darrel Scott, Jocelyne Gaumond, Nolen Dubuc, Aaron Paul Stewart, James Hibbard, Craig Haas, Ian Hawes, Kane Nelson, Jaron Melanson, Cody Davis, Andrew Anderson, Everett Adams, Marlee Grace Becker, Jonah Peacock, Vanessa Young, Haven Rockwell O'Sullivan, Rian McCririck, Zoriah Wong, Stephen Merchant
Director: Gene Stupnitsky
Producers: Seth Rogen, Evan Goldberg, Lee Eisenberg, James Weaver
Executive Producer: Jonah Hill, Nathan Kahane, John Powers Middleton, Brady Fujikawa, Josh Fagen
Screenwriters: Gene Stupnitsky, Lee Eisenberg
Encoding Tool: HandBrake 1.3.1 2020010400
Composer: Lyle Workman


x264 [info]: frame I:1752 Avg QP:14.34 size:304353
x264 [info]: frame P:32388 Avg QP:16.63 size: 82206
x264 [info]: frame B:94800 Avg QP:18.13 size: 30703
x264 [info]: consecutive B-frames: 4.4% 8.2% 11.0% 14.8% 16.4% 39.6% 4.2% 0.7% 0.8%
x264 [info]: mb I I16..4: 21.5% 63.8% 14.8%
x264 [info]: mb P I16..4: 1.6% 14.3% 2.0% P16..4: 34.9% 22.2% 14.5% 0.9% 0.4% skip: 9.2%
x264 [info]: mb B I16..4: 0.1% 1.6% 0.3% B16..8: 40.8% 12.4% 3.0% direct: 8.1% skip:33.7% L0:44.3% L1:41.2% BI:14.5%
x264 [info]: 8x8 transform intra:76.8% inter:58.2%
x264 [info]: direct mvs spatial:96.9% temporal:3.1%
x264 [info]: coded y,uvDC,uvAC intra: 90.9% 93.9% 81.1% inter: 30.6% 36.4% 12.3%
x264 [info]: i16 v,h,dc,p: 17% 10% 24% 49%
x264 [info]: i8 v,h,dc,ddl,ddr,vr,hd,vl,hu: 14% 10% 10% 8% 11% 11% 11% 11% 12%
x264 [info]: i4 v,h,dc,ddl,ddr,vr,hd,vl,hu: 30% 10% 5% 7% 11% 10% 10% 8% 9%
x264 [info]: i8c dc,h,v,p: 47% 19% 18% 16%
x264 [info]: Weighted P-Frames: Y:1.3% UV:0.7%
x264 [info]: ref P L0: 51.5% 11.1% 23.0% 7.0% 7.1% 0.3% 0.0%
x264 [info]: ref B L0: 75.9% 16.8% 5.9% 1.5%
x264 [info]: ref B L1: 93.8% 6.2%
x264 [info]: kb/s:9083.69
Скриншоты:


Все одноименные релизы в Клубе
Время раздачи: 24/7 (до появления первых 3-5 скачавших)

Релиз подготовлен для просмотра на Apple TV, iPad, iPhone, iPod Touch.
Для просмотра данного релиза на компьютере с ОС Windows рекомендуется использовать VLC media player
[NNMClub.to]_Good.Boys.2019.BDRip.1080p.m4v.torrent
 Торрент: Золотая раздача  Зарегистрирован
 
Зарегистрируйтесь и скачайте торрент!
67,6 KB

Примагнититься
 Зарегистрирован:   16 Янв 2020 10:55:00
 Размер:   6,74 GB  (
 Рейтинг:    (Голосов: 4)
 Поблагодарили:   28
 Проверка:   Оформление проверено модератором 16 Янв 2020 18:37:15
Как cкачать  ·  Как раздать  ·  Правильно оформить  ·  Поднять ратио!  

_________________
«Всё против нас, только ветер навстречу…».
🍏Apple iMac 21.5 (mid 2011) / Intel Core i5 2.7 GHz / AMD Radeon HD 6770M 512 Mb / 12GB DDR3 / Apple Trackpad, Apple Keyboard / macOS High Sierra 10.13.6 (17G8030)
Loading...
Novokuznetsk
Стаж: 9 лет 7 мес.
Сообщений: 81
Ratio: 1,149
100%
Откуда: Новокузнецк
ussr.gif
Фильм зачетный, поржал, советую на вечерок.

_________________
Физкультура лечит, спорт калечит.
Показать сообщения:   
Начать новую тему   Ответить на тему    Торрент-трекер NNM-Club -> Аудио и Видео -> Зарубежное видео HD для устройств Apple Часовой пояс: GMT + 3
Страница 1 из 1