Классический форум-трекер
canvas not supported
Нас вместе: 4 094 220

Терминатор: Темные судьбы / Terminator: Dark Fate (2019) WEB-DL [1080p] ATV [MVO]


 
 
RSS
Начать новую тему   Ответить на тему    Торрент-трекер NNM-Club -> Аудио и Видео -> Зарубежное видео HD для устройств Apple
Автор Сообщение
Весельчак У ®
Модератор Apple
Стаж: 6 лет 2 мес.
Сообщений: 4853
Ratio: 140,473
Поблагодарили: 157819
95.41%
Откуда: От Москвы недалеко...
ussr.gif
Терминатор: Темные судьбы / Terminator: Dark Fate (2019) WEB-DL [1080p] ATV«Welcome to the Day after Judgment Day»
Производство: США, Китай / Paramount Pictures, Twentieth Century Fox, Skydance Media
Жанр: Фантастика, боевик, приключения

Режиссер: Тим Миллер
Продюсер: Джеймс Кэмерон, Дэвид Эллисон, Эдвард Чэн
Актеры: Линда Хэмилтон, Арнольд Шварценеггер, Маккензи Дэвис, Наталия Рейес, Гэбриел Луна, Диего Бонета, Алисия Боррачеро, Энрике Арсе, Стивен Кри, Ферран Фернандес

Описание:
Сара Коннор превратилась в настоящую охотницу за терминаторами и теперь занимается уничтожением роботов-убийц из будущего. Она считала, что главное - это не дать им добраться до Джона, но теперь появилась Дани Рамос, от выживания которой также зависит судьба человечества. Вместе с ней в бой вступает и загадочная девушка Грейс, смесь человека и машины


Возраст: 16+ (зрителям, достигшим 16 лет)
Рейтинг MPAA: R (лицам до 17 лет обязательно присутствие взрослого)
Дата мировой премьеры: 23 октября 2019
Дата российской премьеры: 31 октября 2019, «Двадцатый Век Фокс СНГ»

Продолжительность: 02:08:39
Качество видео: WEB-DL 1080р Amazon
Перевод: Любительский двухголосый (LakeFilms)
Субтитры: Английские (SDH)

Видео: H.264, 1920x800 (2.40:1), ~8455 kbps, 23.976 fps
Аудио#1: AAC, 2.0 ch, 197 Kbps - Русский MVO, LakeFilms
Аудио#2: AAC, 2.0 ch, 197 Kbps - English Original
Аудио#3: AC3, 6.0 ch, 640 Kbps - English Original

Общее
Полное имя : /Volumes/HDD/Movies/NNMC/Terminator.Dark.Fate.2019.WEB-DL.1080p.m4v
Формат : MPEG-4
Идентификатор кодека : M4V (M4V /M4A /mp42/isom)
Размер файла : 8,50 Гбайт
Продолжительность : 2 ч. 8 м.
Режим общего битрейта : Переменный
Общий поток : 9497 Кбит/сек
Название фильма : ТЕРМИНАТОР: ТЁМНЫЕ СУДЬБЫ
Исполнитель : Tim Miller
Режиссёр : Tim Miller
Исполнитель : Mackenzie Davis / Edward Furlong / Linda Hamilton / Arnold Schwarzenegger
Студия-производитель : 20th Century Fox
Жанр : Боевики и приключения
Тип содержимого : Short Film
Дата записи : UTC 2019-10-23 07:00:00
Дата кодирования : UTC 2020-01-16 21:38:36
Дата пометки : UTC 2020-01-16 21:46:52
Авторское право : © 2019 Skydance Productions, LLC, Paramount Pictures Corporation and Twentieth Century Fox Film Corporation.
Обложка : Yes
LongDescription : Линда Хэмилтон (Сара Коннор) и Арнольд Шварценеггер (Т-800) возвращаются к своим легендарным героям в фантастическом боевике "Терминатор: Темные судьбы" от режиссера Тима Миллера ("Дэдпул") и продюсеров-визионеров Джеймса Кэмерона и Дэвида Эллисона. Действие новой ленты будет происходить после событий, о которых рассказывал фильм "Терминатор 2: Судный день".
AppleStoreCountry : Russia
AppleStoreCatalogID : 1483566068
ContentRating : ru-movie|16+|375|

Видео
Идентификатор : 1
Формат : AVC
Формат/Информация : Advanced Video Codec
Профиль формата : High@L4
Настройки формата : CABAC / 4 Ref Frames
Параметр CABAC формата : Да
Параметр ReFrames формата : 4 кадра
Идентификатор кодека : avc1
Идентификатор кодека/Информация : Advanced Video Coding
Продолжительность : 2 ч. 8 м.
Вид битрейта : Постоянный
Битрейт : 8455 Кбит/сек
Номинальный битрейт : 10000 Кбит/сек
Ширина : 1920 пикселей
Высота : 800 пикселей
Соотношение сторон : 2,40:1
Режим частоты кадров : Переменный
Частота кадров : 23,976 (24000/1001) кадра/сек
Минимальная частота кадров : 23,810 кадра/сек
Максимальная частота кадров : 24,390 кадра/сек
Цветовое пространство : YUV
Субдискретизация насыщенности : 4:2:0
Битовая глубина : 8 бит
Тип развёртки : Прогрессивная
Бит/(Пиксели*Кадры) : 0.230
Размер потока : 7,57 Гбайт (89%)
Язык : English
Дата кодирования : UTC 2020-01-16 21:38:36
Дата пометки : UTC 2020-01-16 21:46:51
Цветовой диапазон : Limited
Основные цвета : BT.709
Характеристики трансфера : BT.709
Коэффициенты матрицы : BT.709
Codec configuration box : avcC

Аудио #1
Идентификатор : 2
Формат : AAC LC
Формат/Информация : Advanced Audio Codec Low Complexity
Идентификатор кодека : mp4a-40-2
Продолжительность : 2 ч. 8 м.
Вид битрейта : Переменный
Битрейт : 197 Кбит/сек
Максимальный битрейт : 304 Кбит/сек
Каналы : 2 канала
Channel layout : L R
Частота : 48,0 КГц
Частота кадров : 46,875 кадров/сек (1024 SPF)
Метод сжатия : С потерями
Размер потока : 180 Мбайт (2%)
Язык : Russian
Default : Да
Alternate group : 1
Дата кодирования : UTC 2020-01-16 21:38:36
Дата пометки : UTC 2020-01-16 21:46:51
tagc : public.main-program-content

Аудио #2
Идентификатор : 3
Формат : AAC LC
Формат/Информация : Advanced Audio Codec Low Complexity
Идентификатор кодека : mp4a-40-2
Продолжительность : 2 ч. 8 м.
Продолжительность оригинала : 2 ч. 8 м.
Вид битрейта : Переменный
Битрейт : 197 Кбит/сек
Максимальный битрейт : 314 Кбит/сек
Каналы : 2 канала
Channel layout : L R
Частота : 48,0 КГц
Частота кадров : 46,875 кадров/сек (1024 SPF)
Метод сжатия : С потерями
Размер потока : 181 Мбайт (2%)
Размер потока оригинала : 181 Мбайт (2%)
Язык : English
Default : Нет
Alternate group : 1
Дата кодирования : UTC 2020-01-16 21:38:36
Дата пометки : UTC 2020-01-16 21:40:47
Fallback From : 4
tagc : public.main-program-content

Аудио #3
Идентификатор : 4
Формат : AC-3
Формат/Информация : Audio Coding 3
Коммерческое название : Dolby Digital
Идентификатор кодека : ac-3
Продолжительность : 2 ч. 8 м.
Вид битрейта : Постоянный
Битрейт : 640 Кбит/сек
Каналы : 6 каналов
Channel layout : L R C LFE Ls Rs
Частота : 48,0 КГц
Частота кадров : 31,250 кадров/сек (1536 SPF)
Метод сжатия : С потерями
Размер потока : 586 Мбайт (7%)
Язык : English
Service kind : Complete Main
Default : Нет
Alternate group : 1
Дата кодирования : UTC 2020-01-16 21:38:36
Дата пометки : UTC 2020-01-16 21:40:47
Fallback To : 3
tagc : public.main-program-content

Текст #1
Идентификатор : 5
Формат : Timed Text
Режим смешивания : sbtl
Идентификатор кодека : tx3g
Продолжительность : 1 ч. 57 м.
Вид битрейта : Переменный
Битрейт : 37 бит/сек
Размер потока : 31,8 Кбайт (0%)
Язык : English
Default : Да
Forced : Нет
Alternate group : 2
Дата кодирования : UTC 2020-01-16 21:38:36
Дата пометки : UTC 2020-01-16 21:46:51
tagc : public.main-program-content

Текст #2
Идентификатор : 6
Формат : Timed Text
Режим смешивания : sbtl
Идентификатор кодека : tx3g
Продолжительность : 1 ч. 57 м.
Вид битрейта : Переменный
Битрейт : 45 бит/сек
Размер потока : 38,7 Кбайт (0%)
Язык : English
Default : Нет
Forced : Нет
Alternate group : 2
Дата кодирования : UTC 2020-01-16 21:38:36
Дата пометки : UTC 2020-01-16 21:46:51
tagc : public.accessibility.transcribes-spoken-dialog


Name: ТЕРМИНАТОР: ТЁМНЫЕ СУДЬБЫ
Artist: Tim Miller
Media Kind: Movie
HD Video: 1080p
Genre: Боевики и приключения
Release Date: 2019-10-23T07:00:00Z
Long Description: Линда Хэмилтон (Сара Коннор) и Арнольд Шварценеггер (Т-800) возвращаются к своим легендарным героям в фантастическом боевике "Терминатор: Темные судьбы" от режиссера Тима Миллера ("Дэдпул") и продюсеров-визионеров Джеймса Кэмерона и Дэвида Эллисона. Действие новой ленты будет происходить после событий, о которых рассказывал фильм "Терминатор 2: Судный день".
Rating: ru-movie|16+|375|
Studio: 20th Century Fox
Cast: Mackenzie Davis, Edward Furlong, Linda Hamilton, Arnold Schwarzenegger
Director: Tim Miller
Copyright: © 2019 Skydance Productions, LLC, Paramount Pictures Corporation and Twentieth Century Fox Film Corporation.
content ID: 1483566068
iTunes Country: 143469

Скриншоты:


Все одноименные релизы в Клубе
Время раздачи: 24/7 (до появления первых 3-5 скачавших)

Релиз подготовлен для просмотра на Apple TV, iPad, iPhone, iPod Touch.
Для просмотра данного релиза на компьютере с ОС Windows рекомендуется использовать VLC media player
[NNMClub.to]_Terminator.Dark.Fate.2019.WEB-DL.1080p.m4v.torrent
 Торрент: Золотая раздача  Зарегистрирован
 
Зарегистрируйтесь и скачайте торрент!
85,2 KB
Free Leech
Примагнититься
 Зарегистрирован:   17 Янв 2020 01:01:47
 Размер:   8,5 GB  (
 Рейтинг:   4,3 (Голосов: 22)
 Поблагодарили:   106
 Проверка:   Оформление проверено модератором 17 Янв 2020 11:23:03
Как cкачать  ·  Как раздать  ·  Правильно оформить  ·  Поднять ратио!  

_________________
«Всё против нас, только ветер навстречу…».
🍏Apple iMac 21.5 (mid 2011) / Intel Core i5 2.7 GHz / AMD Radeon HD 6770M 512 Mb / 12GB DDR3 / Apple Trackpad, Apple Keyboard / macOS High Sierra 10.13.6 (17G8030)
Показать сообщения:   
Начать новую тему   Ответить на тему    Торрент-трекер NNM-Club -> Аудио и Видео -> Зарубежное видео HD для устройств Apple Часовой пояс: GMT + 3
Страница 1 из 1