Классический форум-трекер
canvas not supported
Нас вместе: 4 093 461

Дождливый день в Нью-Йорке / A Rainy Day in New York (2019) BDRip [1080p] ATV


 
 
RSS
Начать новую тему   Ответить на тему    Торрент-трекер NNM-Club -> Аудио и Видео -> Зарубежное видео HD для устройств Apple
Автор Сообщение
Весельчак У ®
Модератор Apple
Стаж: 6 лет 2 мес.
Сообщений: 4802
Ratio: 140,573
Поблагодарили: 156389
95.48%
Откуда: От Москвы недалеко...
ussr.gif
Дождливый день в Нью-Йорке / A Rainy Day in New York (2019) BDRip [1080p] ATV
Производство: США / Gravier Productions, Perdido Productions
Жанр: Мелодрама, комедия

Режиссер: Вуди Аллен
Продюсер: Эрика Аронсон, Летти Аронсон, Ronald L. Chez
Актеры: Тимоти Шаламе, Эль Фаннинг, Селена Гомес, Джуд Лоу, Диего Луна, Лив Шрайбер, Сюзанн Смит, Оливия Борхэм-Уинг, Бен Уорхейт, Гриффин Ньюман

Описание:
Он — из состоятельной семьи Нью-Йорка, она — из небольшого городка в Аризоне. Выросший на Манхэттене юноша мечтает показать ей свой любимый город. Судьба дает ему шанс, когда девушку отправляют взять интервью у известного режиссера. Однако этот дождливый день изменит их жизнь навсегда. В проливной суете мегаполиса он встретит свою давнюю подругу, а девушку затянет в мир звездной богемы…


Рейтинг MPAA: PG-13 (детям до 13 лет просмотр нежелателен)
Дата мировой премьеры: 26 июля 2019
Дата российской премьеры: 10 октября 2019, «Вольга»

Релиз от: NNMClub
Продолжительность: 01:32:23
Качество видео: BDRip 1080р
Перевод: Дублированный (iTunes)
Субтитры: Русские (full) английские (SDH)

Видео: H.264, 1920x960 (2,000), ~9100 kbps, 23.976 fps
Аудио#1: AAC, 2.0 ch, 230 Kbps - Русский DUB, iTunes
Аудио#2: AAC, 2.0 ch, 230 Kbps - Український DUB, iTunes
Аудио#3: AAC, 2.0 ch, 230 Kbps - English Original
Аудио#4: AC3, 6.0 ch, 384 Kbps - Русский DUB, iTunes
Аудио#5: AC3, 6.0 ch, 384 Kbps - Український DUB, iTunes
Аудио#6: AC3, 6.0 ch, 640 Kbps - English Original

Общее
Полное имя : /Volumes/HDD/Movies/NNMC/A.Rainy.Day.in.New.York.2019.BDRip.1080p.m4v
Формат : MPEG-4
Профиль формата : Base Media / Version 2
Идентификатор кодека : mp42 (isom/iso2/avc1/mp41)
Размер файла : 7,24 Гбайт
Продолжительность : 1 ч. 32 м.
Режим общего битрейта : Переменный
Общий поток : 11,2 Мбит/сек
Название фильма : Дождливый день в Нью-Йорке
Исполнитель : Woody Allen
Режиссёр : Woody Allen
Исполнитель : Тимоти Шаламе / Эль Фаннинг / Selena Gomez / Jude Law / Лив Шрайбер
Сценарист : Woody Allen
Продюсер : Эрика Аронсон / Летти Аронсон
Студия-производитель : Gravier Productions, Perdido Productions
Жанр : Романтические
Тип содержимого : Short Film
Дата записи : UTC 2019-10-10 07:00:00
Дата кодирования : UTC 2020-01-16 22:56:55
Дата пометки : UTC 2020-01-17 11:01:09
Программа кодирования : HandBrake 1.3.1 2020010400
Авторское право : © 2019 Volga Film
Обложка : Yes
LongDescription : Он — из состоятельной семьи Нью-Йорка, она — из небольшого городка в Аризоне. Выросший на Манхэттене юноша мечтает показать ей свой любимый город. Судьба дает ему шанс, когда девушку отправляют взять интервью у известного режиссера. Однако этот дождливый день изменит их жизнь навсегда. В проливной суете мегаполиса он встретит свою давнюю подругу, а девушку затянет в мир звездной богемы…
AppleStoreCountry : Russia
AppleStoreCatalogID : 1489811849
ContentRating : ru-movie|16+|375|

Видео #1
Идентификатор : 1
Формат : AVC
Формат/Информация : Advanced Video Codec
Профиль формата : High@L4.1
Настройки формата : CABAC / 4 Ref Frames
Параметр CABAC формата : Да
Параметр ReFrames формата : 4 кадра
Идентификатор кодека : avc1
Идентификатор кодека/Информация : Advanced Video Coding
Продолжительность : 1 ч. 32 м.
Битрейт : 9100 Кбит/сек
Ширина : 1920 пикселей
Высота : 960 пикселей
Соотношение сторон : 2,000
Режим частоты кадров : Переменный
Частота кадров : 23,976 (24000/1001) кадра/сек
Минимальная частота кадров : 23,974 кадра/сек
Максимальная частота кадров : 23,981 кадра/сек
Цветовое пространство : YUV
Субдискретизация насыщенности : 4:2:0
Битовая глубина : 8 бит
Тип развёртки : Прогрессивная
Бит/(Пиксели*Кадры) : 0.206
Размер потока : 5,87 Гбайт (81%)
Библиотека кодирования : x264 core 157 r2935 545de2f
Настройки программы : cabac=1 / ref=4 / deblock=1:-1:-1 / analyse=0x3:0x133 / me=umh / subme=10 / psy=1 / psy_rd=1.00:0.15 / mixed_ref=1 / me_range=24 / chroma_me=1 / trellis=2 / 8x8dct=1 / cqm=0 / deadzone=21,11 / fast_pskip=1 / chroma_qp_offset=-3 / threads=6 / lookahead_threads=1 / sliced_threads=0 / nr=0 / decimate=1 / interlaced=0 / bluray_compat=0 / constrained_intra=0 / bframes=8 / b_pyramid=2 / b_adapt=2 / b_bias=0 / direct=3 / weightb=1 / open_gop=0 / weightp=2 / keyint=240 / keyint_min=24 / scenecut=40 / intra_refresh=0 / rc_lookahead=60 / rc=2pass / mbtree=1 / bitrate=9100 / ratetol=1.0 / qcomp=0.60 / qpmin=0 / qpmax=69 / qpstep=4 / cplxblur=20.0 / qblur=0.5 / vbv_maxrate=62500 / vbv_bufsize=78125 / nal_hrd=none / filler=0 / ip_ratio=1.40 / aq=1:1.00
Язык : English
Дата кодирования : UTC 2020-01-16 22:56:55
Дата пометки : UTC 2020-01-16 22:56:55
Цветовой диапазон : Limited
Основные цвета : BT.709
Характеристики трансфера : BT.709
Коэффициенты матрицы : BT.709
Menus : 8,11
Codec configuration box : avcC

Видео #2
Идентификатор : 11
Формат : JPEG
Идентификатор кодека : jpeg
Продолжительность : 1 ч. 32 м.
Вид битрейта : Переменный
Битрейт : 1440 бит/сек
Ширина : 640 пикселей
Высота : 320 пикселей
Соотношение сторон : 2,000
Режим частоты кадров : Переменный
Частота кадров : 0,004 кадр/сек
Минимальная частота кадров : 0,003 кадр/сек
Максимальная частота кадров : 0,007 кадр/сек
Цветовое пространство : YUV
Субдискретизация насыщенности : 4:2:0
Битовая глубина : 8 бит
Метод сжатия : С потерями
Бит/(Пиксели*Кадры) : 1.758
Размер потока : 879 Кбайт (0%)
Язык : English
Default : Нет
Дата кодирования : UTC 2020-01-17 11:01:07
Дата пометки : UTC 2020-01-17 11:01:08
Menu For : 1
ColorSpace_ICC : RGB

Аудио #1
Идентификатор : 2
Формат : AAC LC
Формат/Информация : Advanced Audio Codec Low Complexity
Идентификатор кодека : mp4a-40-2
Продолжительность : 1 ч. 32 м.
Вид битрейта : Переменный
Битрейт : 230 Кбит/сек
Максимальный битрейт : 398 Кбит/сек
Каналы : 2 канала
Channel layout : L R
Частота : 48,0 КГц
Частота кадров : 46,875 кадров/сек (1024 SPF)
Метод сжатия : С потерями
Размер потока : 152 Мбайт (2%)
Заголовок : DUB [iTunes]
Язык : Russian
Default : Да
Alternate group : 1
Дата кодирования : UTC 2020-01-16 22:56:55
Дата пометки : UTC 2020-01-16 22:56:55
Fallback From : 5
Menus : 8
tagc : public.main-program-content

Аудио #2
Идентификатор : 3
Формат : AAC LC
Формат/Информация : Advanced Audio Codec Low Complexity
Идентификатор кодека : mp4a-40-2
Продолжительность : 1 ч. 32 м.
Вид битрейта : Переменный
Битрейт : 230 Кбит/сек
Максимальный битрейт : 402 Кбит/сек
Каналы : 2 канала
Channel layout : L R
Частота : 48,0 КГц
Частота кадров : 46,875 кадров/сек (1024 SPF)
Метод сжатия : С потерями
Размер потока : 152 Мбайт (2%)
Заголовок : DUB [iTunes]
Язык : Ukrainian
Default : Нет
Alternate group : 1
Дата кодирования : UTC 2020-01-16 22:56:55
Дата пометки : UTC 2020-01-16 22:56:55
Fallback From : 6
Menus : 8
tagc : public.main-program-content

Аудио #3
Идентификатор : 4
Формат : AAC LC
Формат/Информация : Advanced Audio Codec Low Complexity
Идентификатор кодека : mp4a-40-2
Продолжительность : 1 ч. 32 м.
Вид битрейта : Переменный
Битрейт : 230 Кбит/сек
Максимальный битрейт : 420 Кбит/сек
Каналы : 2 канала
Channel layout : L R
Частота : 48,0 КГц
Частота кадров : 46,875 кадров/сек (1024 SPF)
Метод сжатия : С потерями
Размер потока : 152 Мбайт (2%)
Заголовок : Original
Язык : English
Default : Нет
Alternate group : 1
Дата кодирования : UTC 2020-01-16 22:56:55
Дата пометки : UTC 2020-01-16 22:56:55
Fallback From : 7
Menus : 8
tagc : public.main-program-content

Аудио #4
Идентификатор : 5
Формат : AC-3
Формат/Информация : Audio Coding 3
Коммерческое название : Dolby Digital
Идентификатор кодека : ac-3
Продолжительность : 1 ч. 32 м.
Вид битрейта : Постоянный
Битрейт : 384 Кбит/сек
Каналы : 6 каналов
Channel layout : L R C LFE Ls Rs
Частота : 48,0 КГц
Частота кадров : 31,250 кадров/сек (1536 SPF)
Метод сжатия : С потерями
Размер потока : 254 Мбайт (3%)
Заголовок : DUB [iTunes]
Язык : Russian
Service kind : Complete Main
Default : Inherited From: 2
Alternate group : 1
Дата кодирования : UTC 2020-01-16 22:56:55
Дата пометки : UTC 2020-01-16 22:56:55
Fallback To : 2
tagc : public.main-program-content

Аудио #5
Идентификатор : 6
Формат : AC-3
Формат/Информация : Audio Coding 3
Коммерческое название : Dolby Digital
Идентификатор кодека : ac-3
Продолжительность : 1 ч. 32 м.
Вид битрейта : Постоянный
Битрейт : 384 Кбит/сек
Каналы : 6 каналов
Channel layout : L R C LFE Ls Rs
Частота : 48,0 КГц
Частота кадров : 31,250 кадров/сек (1536 SPF)
Метод сжатия : С потерями
Размер потока : 254 Мбайт (3%)
Заголовок : DUB [iTunes]
Язык : Ukrainian
Service kind : Complete Main
Default : Нет
Alternate group : 1
Дата кодирования : UTC 2020-01-16 22:56:55
Дата пометки : UTC 2020-01-16 22:56:55
Fallback To : 3
tagc : public.main-program-content

Аудио #6
Идентификатор : 7
Формат : AC-3
Формат/Информация : Audio Coding 3
Коммерческое название : Dolby Digital
Идентификатор кодека : ac-3
Продолжительность : 1 ч. 32 м.
Вид битрейта : Постоянный
Битрейт : 640 Кбит/сек
Каналы : 6 каналов
Channel layout : L R C LFE Ls Rs
Частота : 48,0 КГц
Частота кадров : 31,250 кадров/сек (1536 SPF)
Метод сжатия : С потерями
Размер потока : 423 Мбайт (6%)
Заголовок : Original
Язык : English
Service kind : Complete Main
Default : Нет
Alternate group : 1
Дата кодирования : UTC 2020-01-16 22:56:55
Дата пометки : UTC 2020-01-16 22:56:55
Fallback To : 4
tagc : public.main-program-content

Текст #1
Идентификатор : 9
Формат : Timed Text
Режим смешивания : sbtl
Идентификатор кодека : tx3g
Продолжительность : 1 ч. 29 м.
Вид битрейта : Переменный
Битрейт : 161 бит/сек
Размер потока : 105 Кбайт (0%)
Язык : Russian
Default : Да
Forced : Нет
Alternate group : 2
Дата кодирования : UTC 2020-01-17 11:00:55
Дата пометки : UTC 2020-01-17 11:00:55
tagc : public.main-program-content

Текст #2
Идентификатор : 10
Формат : Timed Text
Режим смешивания : sbtl
Идентификатор кодека : tx3g
Продолжительность : 1 ч. 29 м.
Вид битрейта : Переменный
Битрейт : 104 бит/сек
Размер потока : 68,5 Кбайт (0%)
Язык : English
Default : Нет
Forced : Нет
Alternate group : 2
Дата кодирования : UTC 2020-01-17 11:00:55
Дата пометки : UTC 2020-01-17 11:00:55
tagc : public.main-program-content

Меню
Идентификатор : 8
Идентификатор кодека : text
Продолжительность : 1 ч. 32 м.
Язык : English
Дата кодирования : UTC 2020-01-16 22:56:55
Дата пометки : UTC 2020-01-16 22:56:55
Menu For : 1,2,3,4
00:00:00.000 : Chapter 1
00:04:58.507 : Chapter 2
00:07:39.376 : Chapter 3
00:12:23.159 : Chapter 4
00:16:56.641 : Chapter 5
00:21:41.383 : Chapter 6
00:27:55.799 : Chapter 7
00:32:11.721 : Chapter 8
00:37:20.989 : Chapter 9
00:42:44.854 : Chapter 10
00:45:11.000 : Chapter 11
00:49:59.872 : Chapter 12
00:54:46.366 : Chapter 13
01:00:30.085 : Chapter 14
01:04:27.489 : Chapter 15
01:09:32.627 : Chapter 16
01:12:15.915 : Chapter 17
01:16:35.216 : Chapter 18
01:21:22.836 : Chapter 19
01:27:13.270 : Chapter 20


Name: Дождливый день в Нью-Йорке
Artist: Woody Allen
Media Kind: Movie
HD Video: 1080p
Genre: Романтические
Release Date: 2019-10-10T07:00:00Z
Long Description: Он — из состоятельной семьи Нью-Йорка, она — из небольшого городка в Аризоне. Выросший на Манхэттене юноша мечтает показать ей свой любимый город. Судьба дает ему шанс, когда девушку отправляют взять интервью у известного режиссера. Однако этот дождливый день изменит их жизнь навсегда. В проливной суете мегаполиса он встретит свою давнюю подругу, а девушку затянет в мир звездной богемы…
Rating: ru-movie|16+|375|
Studio: Gravier Productions, Perdido Productions
Cast: Тимоти Шаламе, Эль Фаннинг, Selena Gomez, Jude Law, Лив Шрайбер
Director: Woody Allen
Producers: Эрика Аронсон, Летти Аронсон
Screenwriters: Woody Allen
Copyright: © 2019 Volga Film
Encoding Tool: HandBrake 1.3.1 2020010400
content ID: 1489811849
iTunes Country: 143469


x264 [info]: frame I:739 Avg QP:17.79 size:256242
x264 [info]: frame P:23788 Avg QP:21.51 size:106635
x264 [info]: frame B:108385 Avg QP:23.13 size: 33033
x264 [info]: consecutive B-frames: 0.8% 0.7% 2.6% 6.3% 6.9% 74.6% 3.6% 1.0% 3.5%
x264 [info]: mb I I16..4: 29.5% 42.4% 28.0%
x264 [info]: mb P I16..4: 3.0% 10.4% 1.6% P16..4: 43.9% 21.8% 12.3% 0.5% 0.2% skip: 6.4%
x264 [info]: mb B I16..4: 0.2% 1.0% 0.1% B16..8: 50.3% 8.7% 2.1% direct: 6.5% skip:31.2% L0:49.7% L1:44.4% BI: 5.9%
x264 [info]: 8x8 transform intra:68.8% inter:57.9%
x264 [info]: direct mvs spatial:99.2% temporal:0.8%
x264 [info]: coded y,uvDC,uvAC intra: 91.7% 63.3% 21.6% inter: 33.4% 18.1% 0.9%
x264 [info]: i16 v,h,dc,p: 17% 9% 43% 31%
x264 [info]: i8 v,h,dc,ddl,ddr,vr,hd,vl,hu: 9% 6% 8% 11% 15% 15% 13% 12% 11%
x264 [info]: i4 v,h,dc,ddl,ddr,vr,hd,vl,hu: 11% 7% 10% 9% 13% 14% 12% 12% 13%
x264 [info]: i8c dc,h,v,p: 42% 22% 22% 14%
x264 [info]: Weighted P-Frames: Y:3.0% UV:1.2%
x264 [info]: ref P L0: 46.4% 13.5% 28.4% 11.5% 0.2% 0.0%
x264 [info]: ref B L0: 86.9% 10.4% 2.6%
x264 [info]: ref B L1: 95.4% 4.6%
x264 [info]: kb/s:9100.69
Скриншоты:


Все одноименные релизы в Клубе
Время раздачи: 24/7 (до появления первых 3-5 скачавших)

Релиз подготовлен для просмотра на Apple TV, iPad, iPhone, iPod Touch.
Для просмотра данного релиза на компьютере с ОС Windows рекомендуется использовать VLC media player
[NNMClub.to]_A.Rainy.Day.in.New.York.2019.BDRip.1080p.m4v.torrent
 Торрент: Платиновая раздача  Зарегистрирован
 
Скачать


Примагнититься
 Зарегистрирован:   17 Янв 2020 14:34:40
 Размер:   7,24 GB  (
 Рейтинг:    (Голосов: 7)
 Поблагодарили:   59
 Проверка:   Оформление проверено модератором 17 Янв 2020 15:38:03
Как cкачать  ·  Как раздать  ·  Правильно оформить  ·  Поднять ратио!  

_________________
«Всё против нас, только ветер навстречу…».
🍏Apple iMac 21.5 (mid 2011) / Intel Core i5 2.7 GHz / AMD Radeon HD 6770M 512 Mb / 12GB DDR3 / Apple Trackpad, Apple Keyboard / macOS High Sierra 10.13.6 (17G8030)
faveon
Стаж: 9 лет 6 мес.
Сообщений: 1578
Ratio: 0,568
100%
russia.gif
Это не тот фильм который запретили показывать в америке?
(то ли из-за негров, то ли феминистки)
Показать сообщения:   
Начать новую тему   Ответить на тему    Торрент-трекер NNM-Club -> Аудио и Видео -> Зарубежное видео HD для устройств Apple Часовой пояс: GMT + 3
Страница 1 из 1