Классический форум-трекер
canvas not supported
Нас вместе: 4 093 833

Infinite Dendrogram / Бесконечная Дендрограм [2020, TV, 6 из 13] WEBRip 720p raw


 
 
RSS
Начать новую тему   Ответить на тему    Торрент-трекер NNM-Club -> Аниме с субтитрами -> Онгоинги
Автор Сообщение
kvaking ®
RG Аниме
Uploader 100+
 
Стаж: 9 лет 6 мес.
Сообщений: 2607
Ratio: 227,404
Раздал: 362 TB
Поблагодарили: 17387
100%
Откуда: Осака
roody.gif
インフィニット・デンドログラム
Infinite Dendrogram
Бесконечная Дендрограм

Жанр: приключения, комедия, фэнтези
Количество серий: 6 из 13
Продолжительность: 13 серий по 25 мин
Качество видео: WEBRip
Дата премьеры / период выхода: c 09.01.2020

Производство/студия:

Автор оригинала: Кайдо Сакон
Режиссер: Кобаяси Томоки

Битрейт видео: ~3 445 kb/s
Размер кадра: 1280х720
Аудио: AAC 192 Kbps
Язык озвучки: Японский
Язык субтитров: Английский [Funimation], Русский [AniLibria.tv].

Описание:

В 2043 году была запущена «Бесконечная Дендрограмма» — первая в мире успешная VRMMO с полным погружением. В дополнение к её способности идеально имитировать пять человеческих чувств наряду со многими другими удивительными функциями игра предлагала пользователям мир бесконечных возможностей. Спустя почти два года будущий студент колледжа Рейдзи Мукудори наконец-то может купить себе копию игры и погрузиться в неё. С некоторой помощью своего опытного старшего брата Щу и его партнёра Эмбриона Рейдзи отправляется в путешествие в мир «Бесконечной Дендрограммы». Что он обнаружит и кого встретит в этом игровом мире, известном своими невероятной реалистичностью и бесконечными возможностями?


Ссылки:

Скриншоты:
01. Начало Возможностей
02. Лабиринт из могильных камней
03. Высший
04. Обёрнутый флаг
05. Врата ада
06. За пределами возможного
07. Город дуэлей
Код: выделить все
General
Unique ID                      : 77988616547072862536497963211743598632 (0x3AAC0FAA5712EBA700811A5C33509828)
Complete name                  : E:\Infinite Dendrogram\[Erai-raws] Infinite Dendrogram - 01 [720p].mkv
Format                         : Matroska
Format version                 : Version 4
File size                      : 587 MiB
Duration                       : 23 min 48 s
Overall bit rate               : 3 445 kb/s
Encoded date                   : UTC 2020-01-09 22:34:24
Writing application            : mkvmerge v26.0.0 ('In The Game') 64-bit
Writing library                : libebml v1.3.6 + libmatroska v1.4.9

Video
ID                             : 1
Format                         : AVC
Format/Info                    : Advanced Video Codec
Format profile                 : Main@L3.1
Format settings                : CABAC / 4 Ref Frames
Format settings, CABAC         : Yes
Format settings, Reference fra : 4 frames
Codec ID                       : V_MPEG4/ISO/AVC
Duration                       : 23 min 48 s
Bit rate                       : 3 189 kb/s
Nominal bit rate               : 3 500 kb/s
Width                          : 1 280 pixels
Height                         : 720 pixels
Display aspect ratio           : 16:9
Frame rate mode                : Constant
Frame rate                     : 23.976 (24000/1001) FPS
Color space                    : YUV
Chroma subsampling             : 4:2:0
Bit depth                      : 8 bits
Scan type                      : Progressive
Bits/(Pixel*Frame)             : 0.144
Stream size                    : 543 MiB (93%)
Writing library                : x264 core 157 r2948 dada181
Encoding settings              : cabac=1 / ref=1 / deblock=1:0:0 / analyse=0x1:0x111 / me=hex / subme=7 / psy=1 / psy_rd=1.00:0.00 / mixed_ref=0 / me_range=16 / chroma_me=1 / trellis=1 / 8x8dct=0 / cqm=0 / deadzone=21,11 / fast_pskip=1 / chroma_qp_offset=-2 / threads=22 / lookahead_threads=3 / sliced_threads=0 / nr=0 / decimate=1 / interlaced=0 / bluray_compat=0 / constrained_intra=0 / bframes=2 / b_pyramid=2 / b_adapt=1 / b_bias=0 / direct=1 / weightb=1 / open_gop=0 / weightp=2 / keyint=48 / keyint_min=4 / scenecut=40 / intra_refresh=0 / rc_lookahead=40 / rc=cbr / mbtree=1 / bitrate=3500 / ratetol=1.0 / qcomp=0.60 / qpmin=0 / qpmax=69 / qpstep=4 / vbv_maxrate=3500 / vbv_bufsize=10500 / nal_hrd=none / filler=0 / ip_ratio=1.40 / aq=1:1.00
Default                        : Yes
Forced                         : No

Audio
ID                             : 2
Format                         : AAC LC
Format/Info                    : Advanced Audio Codec Low Complexity
Codec ID                       : A_AAC-2
Duration                       : 23 min 48 s
Bit rate                       : 253 kb/s
Channel(s)                     : 2 channels
Channel layout                 : L R
Sampling rate                  : 48.0 kHz
Frame rate                     : 46.875 FPS (1024 SPF)
Compression mode               : Lossy
Delay relative to video        : -43 ms
Stream size                    : 43.1 MiB (7%)
Language                       : Japanese
Default                        : Yes
Forced                         : No

Text
ID                             : 3
Format                         : ASS
Codec ID                       : S_TEXT/ASS
Codec ID/Info                  : Advanced Sub Station Alpha
Duration                       : 23 min 41 s
Bit rate                       : 106 b/s
Count of elements              : 334
Compression mode               : Lossless
Stream size                    : 18.5 KiB (0%)
Title                          : English(US)
Language                       : English
Default                        : Yes
Forced                         : No
Время раздачи: 24/7
[NNMClub.to]_Infinite Dendrogram.torrent
 Торрент:   Зарегистрирован
 
Зарегистрируйтесь и скачайте торрент!
18,4 KB

Примагнититься
 Зарегистрирован:   18 Фев 2020 03:05:04
 Размер:   3,42 GB  (
 Рейтинг:   4,7 (Голосов: 13)
 Поблагодарили:   73
 Проверка:   Оформление проверено модератором 18 Фев 2020 08:49:09
Не забывайте поблагодарить релизера, нажав на клавишу Спасибо!
Вам не сложно, а мне приятно. =)
Как cкачать  ·  Как раздать  ·  Правильно оформить  ·  Поднять ратио!  

_________________

[Double-Raws] - Да начнётся война за качество!
Тестер нового формата.
<< FoX >>
Стаж: 8 лет 9 мес.
Сообщений: 78
Ratio: 16,509
100%
roody.gif
А где русские субтитры ? В меню только EU.
TiredGirl
RG Аниме
 
Стаж: 5 мес. 11 дней
Сообщений: 331
Ratio: 2089,908
Поблагодарили: 1707
100%
<< FoX >>
Имеющиеся в раздаче файлы [Erai-raws] Infinite Dendrogram - 01 [720p].ass и есть файлы русских субтитров. Если ваш плеер автоматически не воспроизводит их или вообще не видит (не отображает их в меню), то либо ищите проблему на свой стороне, либо меняйте плеер на нормальный.

kvaking ®
RG Аниме
Uploader 100+
 
Стаж: 9 лет 6 мес.
Сообщений: 2607
Ratio: 227,404
Раздал: 362 TB
Поблагодарили: 17387
100%
Откуда: Осака
roody.gif
+3 Дозо! =)

_________________

[Double-Raws] - Да начнётся война за качество!
Тестер нового формата.
kvaking ®
RG Аниме
Uploader 100+
 
Стаж: 9 лет 6 мес.
Сообщений: 2607
Ratio: 227,404
Раздал: 362 TB
Поблагодарили: 17387
100%
Откуда: Осака
roody.gif
+4 Продолжаем! =)

_________________

[Double-Raws] - Да начнётся война за качество!
Тестер нового формата.
kvaking ®
RG Аниме
Uploader 100+
 
Стаж: 9 лет 6 мес.
Сообщений: 2607
Ratio: 227,404
Раздал: 362 TB
Поблагодарили: 17387
100%
Откуда: Осака
roody.gif
+5 Дозо! =)

_________________

[Double-Raws] - Да начнётся война за качество!
Тестер нового формата.
kvaking ®
RG Аниме
Uploader 100+
 
Стаж: 9 лет 6 мес.
Сообщений: 2607
Ratio: 227,404
Раздал: 362 TB
Поблагодарили: 17387
100%
Откуда: Осака
roody.gif
+6 Продолжаем! =)

_________________

[Double-Raws] - Да начнётся война за качество!
Тестер нового формата.
tanhorn
Стаж: 9 лет 8 мес.
Сообщений: 579
Ratio: 38,343
29.35%
Откуда: Capital
russia.gif
А Дендрограм - это что? Деревянный грамм? Или деревянная пентограмма? Или там дендромутанты как Буратино?:)

_________________
Ergo bimbanus
AVakaDig
 
Стаж: 6 лет 9 мес.
Сообщений: 142
Ratio: 13,589
100%
tanhorn писал(а): Перейти к сообщению
А Дендрограм - это что? Деревянный грамм? Или деревянная пентограмма? Или там дендромутанты как Буратино?:)


Я всегда читал как Бесконечная Дендрограмма - древовидная диаграмма)))
Показать сообщения:   
Начать новую тему   Ответить на тему    Торрент-трекер NNM-Club -> Аниме с субтитрами -> Онгоинги Часовой пояс: GMT + 3
Страница 1 из 1