Классический форум-трекер
canvas not supported
Нас вместе: 4 135 466

Дело Коллини / Der Fall Collini (2019) BDRip [1080p] ATV


 
 
RSS
Начать новую тему   Ответить на тему    Торрент-трекер NNM-Club -> Аудио и Видео -> Зарубежное видео HD для устройств Apple
Автор Сообщение
Весельчак У ®
Модератор Apple
Uploader 100+
Стаж: 7 лет
Сообщений: 8101
Ratio: 176.641
Поблагодарили: 254423
100%
Откуда: От Москвы недалеко...
ussr.gif
Дело Коллини / Der Fall Collini (2019) BDRip [1080p] ATV«Когда месть – правосудие?»
Производство: Германия / Constantin Film, SevenPictures Film
Жанр: Триллер, драма, криминал

Режиссер: Марко Кройцпайнтнер
Продюсер: Марсель Хартгес, Мартин Московиц, Кристоф Мюллер
Актеры: Франко Неро, Александра Мария Лара, Элиас ЭмБарек, Яннис Нивёнер, Ханнес Вегенер, Хайнер Лаутербах, Стефано Кассетти, Манфред Цапатка, Пиа Стутценштайн, Эксел Мусташ

Описание:
Каспару Лайнену предстоит расследовать запутанное дело непримечательного механика, итальянца Фабрицио Коллини, который на первый взгляд безо всяких мотивов убил немецкого бизнесмена Ханса Майера, после чего сам сдался полиции. Положение вещей осложняется не только молчанием Коллини и более опытным адвокатом, претендующим на пост главного героя, но и его личным причастием к делу: внучка жертвы Йоханна была его юношеской любовью. Однако Лайнену случайно удаётся найти зацепку, благодаря которой он понимает, что столкнулся с крупнейшим судебным скандалом Германии.


Возраст: 16+ (зрителям, достигшим 16 лет)
Дата мировой премьеры: 18 апреля 2019
Дата российской премьеры: 1 января 2020, «Кинолэнд»

Продолжительность: 02:02:47
Качество видео: BDRip 1080р
Перевод: Дублированный (iTunes)
Субтитры: Русские (full, Enigma), английские

Видео: H.264, 1920x804 (2.40:1), ~10.8 Mbps, 24.000 fps
Аудио#1: AAC, 2.0 ch, 197 Kbps - Русский DUB, iTunes
Аудио#2: AAC, 2.0 ch, 197 Kbps - German Original
Аудио#3: AC3, 6.0 ch, 384 Kbps - Русский DUB, iTunes
Аудио#4: AC3, 6.0 ch, 640 Kbps - German Original

Общее
Полное имя : /Volumes/HDD/Movies/NNMC/Der.Fall.Collini.2019.BDRip.1080p.m4v
Формат : MPEG-4
Идентификатор кодека : M4V (M4V /M4A /mp42/isom)
Размер файла : 10,5 Гбайт
Продолжительность : 2 ч. 2 м.
Режим общего битрейта : Переменный
Общий поток : 12,2 Мбит/сек
Название фильма : Дело Коллини
Исполнитель : Марко Кройцпайнтнер
Режиссёр : Марко Кройцпайнтнер
Исполнитель : Элиас ЭмБарек / Хайнер Лаутербах / Александра Мария Лара / Franco Nero / Манфред Цапатка
Сценарист : Кристиан Цюберт / Роберт Голд / Йенс-Фредерик Отто
Продюсер : Марсель Хартгес / Мартин Московиц
Студия-производитель : Constantin Film, Mythos Film, Rolize GmbH and Co.
Жанр : Триллеры
Тип содержимого : Short Film
Дата записи : UTC 2020-01-01 08:00:00
Дата кодирования : UTC 2020-01-20 12:01:57
Дата пометки : UTC 2020-01-20 12:07:08
Авторское право : © 2020 Кинолэнд
Обложка : Yes
LongDescription : Каспару Лайнену предстоит расследовать запутанное дело непримечательного механика, итальянца Фабрицио Коллини, который на первый взгляд безо всяких мотивов убил немецкого бизнесмена Ханса Майера, после чего сам сдался полиции. Положение вещей осложняется не только молчанием Коллини и более опытным адвокатом, претендующим на пост главного героя, но и его личным причастием к делу: внучка жертвы Йоханна была его юношеской любовью. Однако Лайнену случайно удаётся найти зацепку, благодаря которой он понимает, что столкнулся с крупнейшим судебным скандалом Германии.
AppleStoreCountry : Russia
AppleStoreCatalogID : 1494655217
ContentRating : ru-movie|12+|200|

Видео #1
Идентификатор : 1
Формат : AVC
Формат/Информация : Advanced Video Codec
Профиль формата : High@L4.1
Настройки формата : CABAC / 5 Ref Frames
Параметр CABAC формата : Да
Параметр ReFrames формата : 5 кадров
Идентификатор кодека : avc1
Идентификатор кодека/Информация : Advanced Video Coding
Продолжительность : 2 ч. 2 м.
Продолжительность оригинала : 2 ч. 2 м.
Битрейт : 10,8 Мбит/сек
Ширина : 1920 пикселей
Высота : 804 пикселя
Соотношение сторон : 2,40:1
Режим частоты кадров : Переменный
Частота кадров : 24,000 кадра/сек
Минимальная частота кадров : 23,810 кадра/сек
Максимальная частота кадров : 24,390 кадра/сек
Цветовое пространство : YUV
Субдискретизация насыщенности : 4:2:0
Битовая глубина : 8 бит
Тип развёртки : Прогрессивная
Бит/(Пиксели*Кадры) : 0.291
Размер потока : 9,24 Гбайт (88%)
Размер потока оригинала : 9,24 Гбайт (88%)
Библиотека кодирования : x264 core 142 r2431+42 c69a006 tMod [8-bit@all X86_64]
Настройки программы : cabac=1 / ref=5 / deblock=1:-2:-2 / analyse=0x3:0x133 / me=umh / subme=10 / psy=1 / fade_compensate=0.00 / psy_rd=1.01:0.00 / mixed_ref=1 / me_range=32 / chroma_me=1 / trellis=2 / 8x8dct=1 / cqm=0 / deadzone=21,11 / fast_pskip=0 / chroma_qp_offset=-2 / threads=24 / lookahead_threads=4 / sliced_threads=0 / nr=0 / decimate=0 / interlaced=0 / bluray_compat=0 / constrained_intra=0 / fgo=0 / bframes=8 / b_pyramid=2 / b_adapt=2 / b_bias=0 / direct=3 / weightb=1 / open_gop=0 / weightp=2 / keyint=240 / keyint_min=24 / scenecut=40 / intra_refresh=0 / rc_lookahead=50 / rc=2pass / mbtree=0 / bitrate=10780 / ratetol=1.0 / qcomp=0.60 / qpmin=0:0:0 / qpmax=51:51:51 / qpstep=4 / cplxblur=20.0 / qblur=0.5 / vbv_maxrate=50000 / vbv_bufsize=62500 / nal_hrd=none / filler=0 / ip_ratio=1.40 / pb_ratio=1.30 / aq=3:0.80 / aq-sensitivity=10.00 / aq-factor=1.00:1.00:1.00 / aq2=0 / aq3=0
Язык : English
Дата кодирования : UTC 2020-01-20 12:01:57
Дата пометки : UTC 2020-01-20 12:06:39
Menus : 8,9
Codec configuration box : avcC

Видео #2
Идентификатор : 9
Формат : JPEG
Идентификатор кодека : jpeg
Продолжительность : 2 ч. 2 м.
Вид битрейта : Переменный
Битрейт : 547 бит/сек
Ширина : 640 пикселей
Высота : 268 пикселей
Соотношение сторон : 2,40:1
Режим частоты кадров : Переменный
Частота кадров : 0,002 кадр/сек
Минимальная частота кадров : 0,002 кадр/сек
Максимальная частота кадров : 0,005 кадр/сек
Цветовое пространство : YUV
Субдискретизация насыщенности : 4:2:0
Битовая глубина : 8 бит
Метод сжатия : С потерями
Бит/(Пиксели*Кадры) : 1.595
Размер потока : 601 Кбайт (0%)
Язык : English
Default : Нет
Дата кодирования : UTC 2020-01-20 12:07:07
Дата пометки : UTC 2020-01-20 12:07:08
Menu For : 1
ColorSpace_ICC : RGB

Аудио #1
Идентификатор : 2
Формат : AAC LC
Формат/Информация : Advanced Audio Codec Low Complexity
Идентификатор кодека : mp4a-40-2
Продолжительность : 2 ч. 2 м.
Вид битрейта : Переменный
Битрейт : 197 Кбит/сек
Максимальный битрейт : 292 Кбит/сек
Каналы : 2 канала
Channel layout : L R
Частота : 48,0 КГц
Частота кадров : 46,875 кадров/сек (1024 SPF)
Метод сжатия : С потерями
Размер потока : 173 Мбайт (2%)
Язык : Russian
Default : Да
Alternate group : 1
Дата кодирования : UTC 2020-01-20 12:01:57
Дата пометки : UTC 2020-01-20 12:06:39
Fallback From : 4
tagc : public.main-program-content

Аудио #2
Идентификатор : 3
Формат : AAC LC
Формат/Информация : Advanced Audio Codec Low Complexity
Идентификатор кодека : mp4a-40-2
Продолжительность : 2 ч. 2 м.
Вид битрейта : Переменный
Битрейт : 197 Кбит/сек
Максимальный битрейт : 315 Кбит/сек
Каналы : 2 канала
Channel layout : L R
Частота : 48,0 КГц
Частота кадров : 46,875 кадров/сек (1024 SPF)
Метод сжатия : С потерями
Размер потока : 173 Мбайт (2%)
Язык : German
Default : Нет
Alternate group : 1
Дата кодирования : UTC 2020-01-20 12:01:57
Дата пометки : UTC 2020-01-20 12:06:39
Fallback From : 5
tagc : public.main-program-content

Аудио #3
Идентификатор : 4
Формат : AC-3
Формат/Информация : Audio Coding 3
Коммерческое название : Dolby Digital
Идентификатор кодека : ac-3
Продолжительность : 2 ч. 2 м.
Вид битрейта : Постоянный
Битрейт : 384 Кбит/сек
Каналы : 6 каналов
Channel layout : L R C LFE Ls Rs
Частота : 48,0 КГц
Частота кадров : 31,250 кадров/сек (1536 SPF)
Метод сжатия : С потерями
Размер потока : 337 Мбайт (3%)
Язык : Russian
Service kind : Complete Main
Default : Inherited From: 2
Alternate group : 1
Дата кодирования : UTC 2020-01-20 12:01:57
Дата пометки : UTC 2020-01-20 12:06:39
Fallback To : 2
tagc : public.main-program-content

Аудио #4
Идентификатор : 5
Формат : AC-3
Формат/Информация : Audio Coding 3
Коммерческое название : Dolby Digital
Идентификатор кодека : ac-3
Продолжительность : 2 ч. 2 м.
Вид битрейта : Постоянный
Битрейт : 640 Кбит/сек
Каналы : 6 каналов
Channel layout : L R C LFE Ls Rs
Частота : 48,0 КГц
Частота кадров : 31,250 кадров/сек (1536 SPF)
Метод сжатия : С потерями
Размер потока : 562 Мбайт (5%)
Язык : German
Service kind : Complete Main
Default : Нет
Alternate group : 1
Дата кодирования : UTC 2020-01-20 12:01:57
Дата пометки : UTC 2020-01-20 12:06:39
Fallback To : 3
tagc : public.main-program-content

Текст #1
Идентификатор : 6
Формат : Timed Text
Режим смешивания : sbtl
Идентификатор кодека : tx3g
Продолжительность : 1 ч. 57 м.
Вид битрейта : Переменный
Битрейт : 76 бит/сек
Размер потока : 64,8 Кбайт (0%)
Язык : Russian
Default : Да
Forced : Нет
Alternate group : 2
Дата кодирования : UTC 2020-01-20 12:01:57
Дата пометки : UTC 2020-01-20 12:06:40
tagc : public.main-program-content

Текст #2
Идентификатор : 7
Формат : Timed Text
Режим смешивания : sbtl
Идентификатор кодека : tx3g
Продолжительность : 1 ч. 56 м.
Вид битрейта : Переменный
Битрейт : 45 бит/сек
Размер потока : 38,8 Кбайт (0%)
Язык : English
Default : Нет
Forced : Нет
Alternate group : 2
Дата кодирования : UTC 2020-01-20 12:01:57
Дата пометки : UTC 2020-01-20 12:06:40
tagc : public.main-program-content

Меню
Идентификатор : 8
Идентификатор кодека : text
Продолжительность : 2 ч. 2 м.
Язык : English
Дата кодирования : UTC 2020-01-20 12:06:40
Дата пометки : UTC 2020-01-20 12:06:40
Вид битрейта : CBR
Menu For : 1
00:00:00.000 : 00:00:00.000
00:05:11.250 : 00:05:11.250
00:10:00.000 : 00:10:00.000
00:13:40.417 : 00:13:40.417
00:20:14.917 : 00:20:14.917
00:26:18.583 : 00:26:18.583
00:33:56.875 : 00:33:56.875
00:40:25.000 : 00:40:25.000
00:48:11.583 : 00:48:11.583
00:58:25.208 : 00:58:25.208
01:05:15.792 : 01:05:15.792
01:10:55.500 : 01:10:55.500
01:20:01.458 : 01:20:01.458
01:28:08.667 : 01:28:08.667
01:35:51.208 : 01:35:51.208
01:43:44.958 : 01:43:44.958
01:50:53.292 : 01:50:53.292
01:56:29.542 : 01:56:29.542
Вид битрейта : Постоянный


Name: Дело Коллини
Artist: Марко Кройцпайнтнер
Media Kind: Movie
HD Video: 1080p
Genre: Триллеры
Release Date: 2020-01-01T08:00:00Z
Long Description: Каспару Лайнену предстоит расследовать запутанное дело непримечательного механика, итальянца Фабрицио Коллини, который на первый взгляд безо всяких мотивов убил немецкого бизнесмена Ханса Майера, после чего сам сдался полиции. Положение вещей осложняется не только молчанием Коллини и более опытным адвокатом, претендующим на пост главного героя, но и его личным причастием к делу: внучка жертвы Йоханна была его юношеской любовью. Однако Лайнену случайно удаётся найти зацепку, благодаря которой он понимает, что столкнулся с крупнейшим судебным скандалом Германии.
Rating: ru-movie|12+|200|
Studio: Constantin Film, Mythos Film, Rolize GmbH and Co.
Cast: Элиас ЭмБарек, Хайнер Лаутербах, Александра Мария Лара, Franco Nero, Манфред Цапатка
Director: Марко Кройцпайнтнер
Producers: Марсель Хартгес, Мартин Московиц
Screenwriters: Кристиан Цюберт, Роберт Голд, Йенс-Фредерик Отто
Copyright: © 2020 Кинолэнд
content ID: 1494655217
iTunes Country: 143469

Скриншоты:


Все одноименные релизы в Клубе
Время раздачи: 24/7 (до появления первых 3-5 скачавших)

Релиз подготовлен для просмотра на Apple TV, iPad, iPhone, iPod Touch.
Для просмотра данного релиза на компьютере с ОС Windows рекомендуется использовать VLC media player
[NNMClub.to]_Der.Fall.Collini.2019.BDRip.1080p.m4v.torrent
 Торрент: Платиновая раздача  Зарегистрирован
 
Скачать


Примагнититься
 Зарегистрирован:   20 Янв 2020 15:20:35
 Размер:   10.5 GB  (
 Рейтинг:   4.8 (Голосов: 15)
 Поблагодарили:   79
 Проверка:   Оформление проверено модератором 20 Янв 2020 18:52:00
Как cкачать  ·  Как раздать  ·  Правильно оформить  ·  Поднять ратио!  

_________________
«Всё против нас, только ветер навстречу…».
🍏Apple iMac 21.5 (mid 2011) / Intel Core i5 2.7 GHz / AMD Radeon HD 6770M 512 Mb / 12GB DDR3 / Apple Trackpad, Apple Keyboard / macOS High Sierra 10.13.6 (17G13033)
Vinogradus
Стаж: 11 лет 3 мес.
Сообщений: 78
Ratio: 48.888
Поблагодарили: 381
100%
Отличный фильм!
Показать сообщения:   
Начать новую тему   Ответить на тему    Торрент-трекер NNM-Club -> Аудио и Видео -> Зарубежное видео HD для устройств Apple Часовой пояс: GMT + 3
Страница 1 из 1