Классический форум-трекер
canvas not supported
Нас вместе: 4 093 482

Зеркала / Mirrors (2008) BDRip [720p] ATV


 
 
RSS
Начать новую тему   Ответить на тему    Торрент-трекер NNM-Club -> Аудио и Видео -> Зарубежное видео HD для устройств Apple
Автор Сообщение
Весельчак У ®
Модератор Apple
Стаж: 6 лет 2 мес.
Сообщений: 4771
Ratio: 140,551
Поблагодарили: 155634
95.35%
Откуда: От Москвы недалеко...
ussr.gif
Зеркала / Mirrors (2008) BDRip [720p] ATV«There Is Evil........On The Other Side»
Производство: США, Румыния, Германия / Regency Enterprises, New Regency Pictures, Luna Pictures, 20th Century Fox Home Entertainment, Fox 2000 Pictures, Upload Films
Жанр: Ужасы, триллер, детектив

Режиссер: Александр Ажа, Виктор Гарсия
Продюсер: Грегори Левассёр, Александра Милчэн, Марк Штернберг
Актеры: Кифер Сазерленд, Пола Пэттон, Кэмерон Бойс, Эрика Глюк, Эми Смарт, Мэри Бет Пейл, Джон Шрэпнел, Джейсон Флеминг, Тим Ахерн, Джулиан Гловер

Описание:
Бывший нью-йоркский полицейский устраивается на работу ночным сторожем выгоревших руин крупного универмага. Обходя обугленные развалины, он начинает замечать что-то зловещее в декоративных зеркалах, украшающих стены: в огромных мерцающих стёклах отражается что-то жуткое.


Возраст: 18+ (зрителям, достигшим 18 лет. запрещено для детей)
Рейтинг MPAA: R (лицам до 17 лет обязательно присутствие взрослого)

Релиз от: NNMClub
Продолжительность: 01:51:22
Качество видео: BDRip 720p
Перевод: Дублированный, многоголосый профессиональный, авторский одноголосый
Субтитры: Русские, украинские, английские (вшитые, отключаемые)

Видео: H.264, 1280x532 (2.40:1), ~10.5 Mbps, 23.976 fps
Аудио#1: AAC, 2.0 ch, 197 Kbps - Русский DUB, Bly-Ray CEE
Аудио#2: AAC, 2.0 ch, 197 Kbps - Русский MVO, Киномания
Аудио#3: AAC, 2.0 ch, 197 Kbps - Русский AVO, Андрей Гаврилов
Аудио#4: AAC, 2.0 ch, 197 Kbps - Русский AVO, Юрий Немахов
Аудио#5: AAC, 2.0 ch, 197 Kbps - Український DUB, R5
Аудио#6: AAC, 2.0 ch, 197 Kbps - English Original
Аудио#7: AC3, 6.0 ch, 640 Kbps - Русский DUB, Bly-Ray CEE
Аудио#8: AC3, 6.0 ch, 640 Kbps - Русский MVO, Киномания
Аудио#9: AC3, 6.0 ch, 640 Kbps - Русский AVO, Андрей Гаврилов
Аудио#10: AC3, 6.0 ch, 640 Kbps - Русский AVO, Юрий Немахов
Аудио#11: AC3, 6.0 ch, 640 Kbps - English Original

Общее
Полное имя : /Volumes/HDD/Movies/NNMC/Mirrors.2008.BDRip.720p.m4v
Формат : MPEG-4
Идентификатор кодека : M4V (M4V /M4A /mp42/isom)
Размер файла : 11,6 Гбайт
Продолжительность : 1 ч. 51 м.
Режим общего битрейта : Переменный
Общий поток : 14,9 Мбит/сек
Название фильма : Зеркала (Расширенная версия)
Исполнитель : Alexandre Aja
Режиссёр : Alexandre Aja
Исполнитель : Kiefer Sutherland / Paula Patton / Amy Smart
Студия-производитель : 20th Century Fox
Жанр : Ужасы
Тип содержимого : Short Film
Дата записи : UTC 2008-09-25 07:00:00
Дата кодирования : UTC 2020-01-21 07:21:36
Дата пометки : UTC 2020-01-21 07:38:49
Авторское право : © 2008 Twentieth Century Fox Film Corporation.
Обложка : Yes
LongDescription : Бен Карсон (Кифер Сазерленд) – бывший полицейский, который устроился работать охранником в торговый центр, закрытый после загадочного пожара, произошедшего в нем, в котором погибло более 50 человек. Предыдущий охранник погибает при загадочных обстоятельствах. Пытаясь разобраться, герой оказывается вовлеченным в цепь необъяснимых событий, которые приводят к страшному открытию. Зеркала обладают способностью убивать людей и начинают угрожать ему. У Бена есть всего лишь несколько дней, чтобы найти ключ к тайне зеркал и спасти себя и свою семью от угрозы из зазеркалья.
HDVideo : Yes
AppleStoreCountry : Russia
AppleStoreCatalogID : 299468845
ContentRating : ru-movie|18+|400|

Видео
Идентификатор : 1
Формат : AVC
Формат/Информация : Advanced Video Codec
Профиль формата : High@L4.1
Настройки формата : CABAC / 8 Ref Frames
Параметр CABAC формата : Да
Параметр ReFrames формата : 8 кадров
Идентификатор кодека : avc1
Идентификатор кодека/Информация : Advanced Video Coding
Продолжительность : 1 ч. 51 м.
Битрейт : 10,5 Мбит/сек
Ширина : 1280 пикселей
Высота : 532 пикселя
Соотношение сторон : 2,40:1
Режим частоты кадров : Переменный
Частота кадров : 23,976 (24000/1001) кадра/сек
Минимальная частота кадров : 23,810 кадра/сек
Максимальная частота кадров : 24,390 кадра/сек
Цветовое пространство : YUV
Субдискретизация насыщенности : 4:2:0
Битовая глубина : 8 бит
Тип развёртки : Прогрессивная
Бит/(Пиксели*Кадры) : 0.646
Размер потока : 8,20 Гбайт (71%)
Библиотека кодирования : x264 core 125 r2208 d9d2288
Настройки программы : cabac=1 / ref=8 / deblock=1:-3:-3 / analyse=0x3:0x113 / me=umh / subme=10 / psy=1 / psy_rd=1.05:0.05 / mixed_ref=1 / me_range=48 / chroma_me=1 / trellis=2 / 8x8dct=1 / cqm=0 / deadzone=21,11 / fast_pskip=0 / chroma_qp_offset=-3 / threads=6 / lookahead_threads=1 / sliced_threads=0 / nr=0 / decimate=0 / interlaced=0 / bluray_compat=0 / constrained_intra=0 / bframes=12 / b_pyramid=2 / b_adapt=2 / b_bias=0 / direct=2 / weightb=1 / open_gop=0 / weightp=2 / keyint=240 / keyint_min=23 / scenecut=40 / intra_refresh=0 / rc=crf / mbtree=0 / crf=19.0 / qcomp=0.70 / qpmin=0 / qpmax=69 / qpstep=4 / ip_ratio=1.40 / pb_ratio=1.30 / aq=1:0.80
Язык : English
Дата кодирования : UTC 2020-01-21 07:21:36
Дата пометки : UTC 2020-01-21 07:38:48
Codec configuration box : avcC

Аудио #1
Идентификатор : 2
Формат : AAC LC
Формат/Информация : Advanced Audio Codec Low Complexity
Идентификатор кодека : mp4a-40-2
Продолжительность : 1 ч. 51 м.
Вид битрейта : Переменный
Битрейт : 197 Кбит/сек
Максимальный битрейт : 315 Кбит/сек
Каналы : 2 канала
Channel layout : L R
Частота : 48,0 КГц
Частота кадров : 46,875 кадров/сек (1024 SPF)
Метод сжатия : С потерями
Размер потока : 157 Мбайт (1%)
Язык : Russian
Default : Да
Alternate group : 1
Дата кодирования : UTC 2020-01-21 07:21:36
Дата пометки : UTC 2020-01-21 07:38:48
Fallback From : 8
tagc : public.main-program-content

Аудио #2
Идентификатор : 3
Формат : AAC LC
Формат/Информация : Advanced Audio Codec Low Complexity
Идентификатор кодека : mp4a-40-2
Продолжительность : 1 ч. 51 м.
Вид битрейта : Переменный
Битрейт : 197 Кбит/сек
Максимальный битрейт : 331 Кбит/сек
Каналы : 2 канала
Channel layout : L R
Частота : 48,0 КГц
Частота кадров : 46,875 кадров/сек (1024 SPF)
Метод сжатия : С потерями
Размер потока : 157 Мбайт (1%)
Язык : Russian
Default : Нет
Alternate group : 1
Дата кодирования : UTC 2020-01-21 07:21:36
Дата пометки : UTC 2020-01-21 07:38:48
Fallback From : 9
tagc : public.auxiliary-content

Аудио #3
Идентификатор : 4
Формат : AAC LC
Формат/Информация : Advanced Audio Codec Low Complexity
Идентификатор кодека : mp4a-40-2
Продолжительность : 1 ч. 51 м.
Вид битрейта : Переменный
Битрейт : 197 Кбит/сек
Максимальный битрейт : 328 Кбит/сек
Каналы : 2 канала
Channel layout : L R
Частота : 48,0 КГц
Частота кадров : 46,875 кадров/сек (1024 SPF)
Метод сжатия : С потерями
Размер потока : 157 Мбайт (1%)
Язык : Russian
Default : Нет
Alternate group : 1
Дата кодирования : UTC 2020-01-21 07:21:36
Дата пометки : UTC 2020-01-21 07:38:48
Fallback From : 10
tagc : public.auxiliary-content

Аудио #4
Идентификатор : 5
Формат : AAC LC
Формат/Информация : Advanced Audio Codec Low Complexity
Идентификатор кодека : mp4a-40-2
Продолжительность : 1 ч. 51 м.
Вид битрейта : Переменный
Битрейт : 197 Кбит/сек
Максимальный битрейт : 333 Кбит/сек
Каналы : 2 канала
Channel layout : L R
Частота : 48,0 КГц
Частота кадров : 46,875 кадров/сек (1024 SPF)
Метод сжатия : С потерями
Размер потока : 157 Мбайт (1%)
Язык : Russian
Default : Нет
Alternate group : 1
Дата кодирования : UTC 2020-01-21 07:21:36
Дата пометки : UTC 2020-01-21 07:38:48
Fallback From : 11
tagc : public.auxiliary-content

Аудио #5
Идентификатор : 6
Формат : AAC LC
Формат/Информация : Advanced Audio Codec Low Complexity
Идентификатор кодека : mp4a-40-2
Продолжительность : 1 ч. 51 м.
Вид битрейта : Переменный
Битрейт : 197 Кбит/сек
Максимальный битрейт : 265 Кбит/сек
Каналы : 2 канала
Channel layout : L R
Частота : 48,0 КГц
Частота кадров : 46,875 кадров/сек (1024 SPF)
Метод сжатия : С потерями
Размер потока : 157 Мбайт (1%)
Язык : Ukrainian
Default : Нет
Alternate group : 1
Дата кодирования : UTC 2020-01-21 07:21:36
Дата пометки : UTC 2020-01-21 07:38:48
tagc : public.main-program-content

Аудио #6
Идентификатор : 7
Формат : AAC LC
Формат/Информация : Advanced Audio Codec Low Complexity
Идентификатор кодека : mp4a-40-2
Продолжительность : 1 ч. 51 м.
Вид битрейта : Переменный
Битрейт : 197 Кбит/сек
Максимальный битрейт : 318 Кбит/сек
Каналы : 2 канала
Channel layout : L R
Частота : 48,0 КГц
Частота кадров : 46,875 кадров/сек (1024 SPF)
Метод сжатия : С потерями
Размер потока : 157 Мбайт (1%)
Язык : English
Default : Нет
Alternate group : 1
Дата кодирования : UTC 2020-01-21 07:21:36
Дата пометки : UTC 2020-01-21 07:38:48
Fallback From : 12
tagc : public.main-program-content

Аудио #7
Идентификатор : 8
Формат : AC-3
Формат/Информация : Audio Coding 3
Коммерческое название : Dolby Digital
Идентификатор кодека : ac-3
Продолжительность : 1 ч. 51 м.
Вид битрейта : Постоянный
Битрейт : 640 Кбит/сек
Каналы : 6 каналов
Channel layout : L R C LFE Ls Rs
Частота : 48,0 КГц
Частота кадров : 31,250 кадров/сек (1536 SPF)
Метод сжатия : С потерями
Размер потока : 510 Мбайт (4%)
Язык : Russian
Service kind : Complete Main
Default : Inherited From: 2
Alternate group : 1
Дата кодирования : UTC 2020-01-21 07:21:36
Дата пометки : UTC 2020-01-21 07:38:48
Fallback To : 2
tagc : public.main-program-content

Аудио #8
Идентификатор : 9
Формат : AC-3
Формат/Информация : Audio Coding 3
Коммерческое название : Dolby Digital
Идентификатор кодека : ac-3
Продолжительность : 1 ч. 51 м.
Вид битрейта : Постоянный
Битрейт : 640 Кбит/сек
Каналы : 6 каналов
Channel layout : L R C LFE Ls Rs
Частота : 48,0 КГц
Частота кадров : 31,250 кадров/сек (1536 SPF)
Метод сжатия : С потерями
Размер потока : 510 Мбайт (4%)
Язык : Russian
Service kind : Complete Main
Default : Нет
Alternate group : 1
Дата кодирования : UTC 2020-01-21 07:21:36
Дата пометки : UTC 2020-01-21 07:38:48
Fallback To : 3
tagc : public.auxiliary-content

Аудио #9
Идентификатор : 10
Формат : AC-3
Формат/Информация : Audio Coding 3
Коммерческое название : Dolby Digital
Идентификатор кодека : ac-3
Продолжительность : 1 ч. 51 м.
Вид битрейта : Постоянный
Битрейт : 640 Кбит/сек
Каналы : 6 каналов
Channel layout : L R C LFE Ls Rs
Частота : 48,0 КГц
Частота кадров : 31,250 кадров/сек (1536 SPF)
Метод сжатия : С потерями
Размер потока : 510 Мбайт (4%)
Язык : Russian
Service kind : Complete Main
Default : Нет
Alternate group : 1
Дата кодирования : UTC 2020-01-21 07:21:36
Дата пометки : UTC 2020-01-21 07:38:48
Fallback To : 4
tagc : public.auxiliary-content

Аудио #10
Идентификатор : 11
Формат : AC-3
Формат/Информация : Audio Coding 3
Коммерческое название : Dolby Digital
Идентификатор кодека : ac-3
Продолжительность : 1 ч. 51 м.
Вид битрейта : Постоянный
Битрейт : 640 Кбит/сек
Каналы : 6 каналов
Channel layout : L R C LFE Ls Rs
Частота : 48,0 КГц
Частота кадров : 31,250 кадров/сек (1536 SPF)
Метод сжатия : С потерями
Размер потока : 510 Мбайт (4%)
Язык : Russian
Service kind : Complete Main
Default : Нет
Alternate group : 1
Дата кодирования : UTC 2020-01-21 07:21:36
Дата пометки : UTC 2020-01-21 07:38:48
Fallback To : 5
tagc : public.auxiliary-content

Аудио #11
Идентификатор : 12
Формат : AC-3
Формат/Информация : Audio Coding 3
Коммерческое название : Dolby Digital
Идентификатор кодека : ac-3
Продолжительность : 1 ч. 51 м.
Вид битрейта : Постоянный
Битрейт : 640 Кбит/сек
Каналы : 6 каналов
Channel layout : L R C LFE Ls Rs
Частота : 48,0 КГц
Частота кадров : 31,250 кадров/сек (1536 SPF)
Метод сжатия : С потерями
Размер потока : 510 Мбайт (4%)
Язык : English
Service kind : Complete Main
Default : Нет
Alternate group : 1
Дата кодирования : UTC 2020-01-21 07:21:36
Дата пометки : UTC 2020-01-21 07:38:48
Fallback To : 7
tagc : public.main-program-content

Текст #1
Идентификатор : 13
Формат : Timed Text
Режим смешивания : sbtl
Идентификатор кодека : tx3g
Продолжительность : 1 ч. 43 м.
Вид битрейта : Переменный
Битрейт : 59 бит/сек
Размер потока : 44,6 Кбайт (0%)
Язык : Russian
Default : Да
Forced : Нет
Alternate group : 2
Дата кодирования : UTC 2020-01-21 07:21:36
Дата пометки : UTC 2020-01-21 07:38:48
tagc : public.main-program-content

Текст #2
Идентификатор : 14
Формат : Timed Text
Режим смешивания : sbtl
Идентификатор кодека : tx3g
Продолжительность : 1 ч. 47 м.
Вид битрейта : Переменный
Битрейт : 152 бит/сек
Размер потока : 120 Кбайт (0%)
Язык : Russian
Default : Нет
Forced : Нет
Alternate group : 2
Дата кодирования : UTC 2020-01-21 07:21:36
Дата пометки : UTC 2020-01-21 07:38:48
tagc : public.auxiliary-content

Текст #3
Идентификатор : 15
Формат : Timed Text
Режим смешивания : sbtl
Идентификатор кодека : tx3g
Продолжительность : 1 ч. 47 м.
Вид битрейта : Переменный
Битрейт : 56 бит/сек
Размер потока : 44,3 Кбайт (0%)
Язык : Ukrainian
Default : Нет
Forced : Нет
Alternate group : 2
Дата кодирования : UTC 2020-01-21 07:21:36
Дата пометки : UTC 2020-01-21 07:38:48
tagc : public.main-program-content

Текст #4
Идентификатор : 16
Формат : Timed Text
Режим смешивания : sbtl
Идентификатор кодека : tx3g
Продолжительность : 1 ч. 43 м.
Вид битрейта : Переменный
Битрейт : 42 бит/сек
Размер потока : 31,9 Кбайт (0%)
Язык : English
Default : Нет
Forced : Нет
Alternate group : 2
Дата кодирования : UTC 2020-01-21 07:21:36
Дата пометки : UTC 2020-01-21 07:38:48
tagc : public.main-program-content


Name: Зеркала (Расширенная версия)
Artist: Alexandre Aja
Media Kind: Movie
HD Video: 720p
Genre: Ужасы
Release Date: 2008-09-25T07:00:00Z
Long Description: Бен Карсон (Кифер Сазерленд) – бывший полицейский, который устроился работать охранником в торговый центр, закрытый после загадочного пожара, произошедшего в нем, в котором погибло более 50 человек. Предыдущий охранник погибает при загадочных обстоятельствах. Пытаясь разобраться, герой оказывается вовлеченным в цепь необъяснимых событий, которые приводят к страшному открытию. Зеркала обладают способностью убивать людей и начинают угрожать ему. У Бена есть всего лишь несколько дней, чтобы найти ключ к тайне зеркал и спасти себя и свою семью от угрозы из зазеркалья.
Rating: ru-movie|18+|400|
Studio: 20th Century Fox
Cast: Kiefer Sutherland, Paula Patton, Amy Smart
Director: Alexandre Aja
Copyright: © 2008 Twentieth Century Fox Film Corporation.
content ID: 299468845
iTunes Country: 143469

Скриншоты:


Все одноименные релизы в Клубе
Время раздачи: 24/7 (до появления первых 3-5 скачавших)

Релиз подготовлен для просмотра на Apple TV, iPad, iPhone, iPod Touch.
Для просмотра данного релиза на компьютере с ОС Windows рекомендуется использовать VLC media player
[NNMClub.to]_Mirrors.2008.BDRip.720p.m4v.torrent
 Торрент: Платиновая раздача  Зарегистрирован
 
Скачать


Примагнититься
 Зарегистрирован:   21 Янв 2020 10:58:36
 Размер:   11,6 GB  (
 Рейтинг:    (Голосов: 9)
 Поблагодарили:   38
 Проверка:   Оформление проверено модератором 21 Янв 2020 17:35:31
Как cкачать  ·  Как раздать  ·  Правильно оформить  ·  Поднять ратио!  

_________________
«Всё против нас, только ветер навстречу…».
🍏Apple iMac 21.5 (mid 2011) / Intel Core i5 2.7 GHz / AMD Radeon HD 6770M 512 Mb / 12GB DDR3 / Apple Trackpad, Apple Keyboard / macOS High Sierra 10.13.6 (17G8030)
zloyzulu
Стаж: 5 лет 10 мес.
Сообщений: 144
Ratio: 4,128
100%
Откуда: Кемска волость, Кемерунск
russia.gif
Отличный фильм!

_________________
"Будь я малость помоложе,
Я б с душою дорогой
Человекам трем по роже
Дал как минимум ногой.

Да как минимум пяти бы
Дал по роже бы рукой.
Так скажите мне спасибо
Что я старенький такой."
Slavian78
Стаж: 10 лет 4 мес.
Сообщений: 57
Ratio: 6,683
100%
Откуда: Водораздел Днепра и Дона
rawanda.gif
Рекомендую. Сейчас редко такое снимают. Без лишних тем.

_________________
Как увидишь Сникерс, то не ешь его!
Он ведь с Нельсоном Манделой цвета одного!
Показать сообщения:   
Начать новую тему   Ответить на тему    Торрент-трекер NNM-Club -> Аудио и Видео -> Зарубежное видео HD для устройств Apple Часовой пояс: GMT + 3
Страница 1 из 1