Классический форум-трекер
canvas not supported
Нас вместе: 4 093 463

Мальчик-мясник / The Butcher Boy (1997) WEB-DL [1080p] ATV


 
 
RSS
Начать новую тему   Ответить на тему    Торрент-трекер NNM-Club -> Аудио и Видео -> Зарубежное видео HD для устройств Apple
Автор Сообщение
Весельчак У ®
Модератор Apple
Стаж: 6 лет 2 мес.
Сообщений: 4802
Ratio: 140,587
Поблагодарили: 156391
95.48%
Откуда: От Москвы недалеко...
ussr.gif
Мальчик-мясник / The Butcher Boy (1997) WEB-DL [1080p] ATV«This little piggy laughed all the way home!»
Производство: США, Ирландия / Geffen Pictures
Жанр: Драма, комедия

Режиссер: Нил Джордан
Продюсер: Редмонд Моррис, Стивен Вулли, Нил Джордан
Актеры: Имонн Оуэнс, Шон МакГинли, Питер Гауэн, Алан Бойл, Эндрю Фуллертон, Фиона Шоу, Эшлинг О’Салливан, Стивен Ри, Джон Кэвэна, Розалин Линехэн

Описание:
Детство простого ирландского мальчишки по имени Френси трудно назвать счастливым. Отец — алкоголик, мать — не вполне вменяемая женщина. Жизнь в трущобах провинциального городка не способствовала личностному росту и духовному самосовершенствованию юной души. Френси все больше и больше погружался в мир своих странных фантазий, пока окончательно не потерялся в них, окончательно «слетев с катушек».


Возраст: 16+ (зрителям, достигшим 16 лет)
Рейтинг MPAA: R (лицам до 17 лет обязательно присутствие взрослого)

Релиз от: TeamHD
Продолжительность: 01:50:16
Качество видео: WEB-DL 1080р
Перевод: Многоголосый закадровый, авторский одноголосый
Субтитры: Английские (вшитые, отключаемые)

Видео: H.264, 1920x1080 (16:9), ~10.5 Mbps, 23.976 fps
Аудио#1: AAC, 2.0 ch, 231 Kbps - Русский MVO, Премьер Видео Фильм
Аудио#2: AAC, 2.0 ch, 192 Kbps - Русский AVO, Дмитрий Пучков aka Гоблин
Аудио#3: AAC, 2.0 ch, 230 Kbps - English Original, DVD
Аудио#4: AAC, 2.0 ch, 230 Kbps - English Original, Amazon
Аудио#5: AC3, 6.0 ch, 448 Kbps - English Original, DVD

Общее
Полное имя : /Volumes/HDD/Movies/NNMC/The.Butcher.Boy.1997.WEB-DL.1080p.m4v
Формат : MPEG-4
Идентификатор кодека : M4V (M4V /M4A /mp42/isom)
Размер файла : 9,12 Гбайт
Продолжительность : 1 ч. 50 м.
Режим общего битрейта : Переменный
Общий поток : 11,8 Мбит/сек
Название фильма : Мальчик-мясник
Исполнитель : Neil Jordan
Режиссёр : Neil Jordan
Исполнитель : Eamonn Owens / Alan Boyle / Fiona Shaw / Andrew Fullerton / Stephen Rea / Aisling O'Sullivan / Peter Gowen / Sean McGinley / John Kavanagh / Rosaleen Linehan / Anita Reeves / Ian Hart / Sinéad O'Connor / Brendan Gleeson / Milo O’Shea / Niall Buggy / Ardal O'Hanlon / Tom Hickey / Gina Moxley / Joe Pilkington / Anne O'Neill / John Olohan / Mikel Murfi / Brendan Conroy / Jer O'Leary / Pat Leavy / Janet Moran / Paraic Breathnach / Gregg Fitzgerald / John Finegan / Gavin Kelty / Eoin Chaney / Tony Rohr / Dermot Healy / Sean Hughes / Gerard McSorley / Birdy Sweeney / Ronan Wilmot / Pat McCabe / Marie Mullen / Macdara Ó Fátharta / Stuart Graham / Vinnie McCabe / Áine McEneaney / Siobhan McElvaney / Paolo Tullio / Ciaran Owens / Shane O'Connor
Сценарист : Neil Jordan / Pat McCabe
Студия-производитель : Geffen Pictures, Warner Bros. Pictures
Жанр : комедия, драма
Тип содержимого : Short Film
Дата записи : UTC 1997-07-13 12:00:00
Дата кодирования : UTC 2020-01-21 14:52:31
Дата пометки : UTC 2020-01-21 14:56:06
Обложка : Yes
LongDescription : Детство простого ирландского мальчишки по имени Френси трудно назвать счастливым. Отец — алкоголик, мать — не вполне вменяемая женщина, жизнь в трущобах провинциального городка не способствовала личностному росту и духовному самосовершенствованию юной души. Френси все больше и больше погружался в мир своих странных фантазий, пока окончательно не потерялся в них, окончательно «слетев с катушек».
ContentRating : mpaa|Unrated|???|

Видео
Идентификатор : 1
Формат : AVC
Формат/Информация : Advanced Video Codec
Профиль формата : High@L4
Настройки формата : CABAC / 4 Ref Frames
Параметр CABAC формата : Да
Параметр ReFrames формата : 4 кадра
Идентификатор кодека : avc1
Идентификатор кодека/Информация : Advanced Video Coding
Продолжительность : 1 ч. 50 м.
Вид битрейта : Переменный
Битрейт : 10,5 Мбит/сек
Максимальный битрейт : 15,0 Мбит/сек
Ширина : 1920 пикселей
Высота : 1080 пикселей
Соотношение сторон : 16:9
Режим частоты кадров : Переменный
Частота кадров : 23,976 (24000/1001) кадра/сек
Минимальная частота кадров : 23,810 кадра/сек
Максимальная частота кадров : 24,390 кадра/сек
Цветовое пространство : YUV
Субдискретизация насыщенности : 4:2:0
Битовая глубина : 8 бит
Тип развёртки : Прогрессивная
Бит/(Пиксели*Кадры) : 0.211
Размер потока : 8,08 Гбайт (89%)
Библиотека кодирования : x264 core 148 r2623 d5b2374
Настройки программы : cabac=1 / ref=4 / deblock=1:-1:-1 / analyse=0x3:0x133 / me=umh / subme=9 / psy=1 / psy_rd=1.00:0.15 / mixed_ref=1 / me_range=24 / chroma_me=1 / trellis=2 / 8x8dct=1 / cqm=0 / deadzone=21,11 / fast_pskip=1 / chroma_qp_offset=-3 / threads=34 / lookahead_threads=5 / sliced_threads=0 / nr=150 / decimate=1 / interlaced=0 / bluray_compat=0 / constrained_intra=0 / bframes=8 / b_pyramid=2 / b_adapt=2 / b_bias=0 / direct=3 / weightb=1 / open_gop=0 / weightp=2 / keyint=120 / keyint_min=61 / scenecut=0 / intra_refresh=0 / rc_lookahead=120 / rc=crf / mbtree=1 / crf=18.0 / qcomp=0.60 / qpmin=0 / qpmax=69 / qpstep=4 / vbv_maxrate=15000 / vbv_bufsize=31250 / crf_max=0.0 / nal_hrd=vbr / filler=0 / ip_ratio=1.40 / aq=3:1.00
Язык : English
Дата кодирования : UTC 2020-01-21 14:52:31
Дата пометки : UTC 2020-01-21 14:56:05
Цветовой диапазон : Limited
Основные цвета : BT.709
Характеристики трансфера : BT.709
Коэффициенты матрицы : BT.709
Codec configuration box : avcC

Аудио #1
Идентификатор : 2
Формат : AAC LC
Формат/Информация : Advanced Audio Codec Low Complexity
Идентификатор кодека : mp4a-40-2
Продолжительность : 1 ч. 50 м.
Вид битрейта : Переменный
Битрейт : 231 Кбит/сек
Максимальный битрейт : 367 Кбит/сек
Каналы : 2 канала
Channel layout : L R
Частота : 48,0 КГц
Частота кадров : 46,875 кадров/сек (1024 SPF)
Метод сжатия : С потерями
Размер потока : 182 Мбайт (2%)
Язык : Russian
Default : Да
Alternate group : 1
Дата кодирования : UTC 2020-01-21 14:52:31
Дата пометки : UTC 2020-01-21 14:56:05
tagc : public.main-program-content

Аудио #2
Идентификатор : 3
Формат : AAC LC
Формат/Информация : Advanced Audio Codec Low Complexity
Идентификатор кодека : mp4a-40-2
Продолжительность : 1 ч. 50 м.
Вид битрейта : Переменный
Битрейт : 192 Кбит/сек
Максимальный битрейт : 348 Кбит/сек
Каналы : 2 канала
Channel layout : L R
Частота : 48,0 КГц
Частота кадров : 46,875 кадров/сек (1024 SPF)
Метод сжатия : С потерями
Размер потока : 151 Мбайт (2%)
Язык : Russian
Default : Нет
Alternate group : 1
Дата кодирования : UTC 2020-01-21 14:52:31
Дата пометки : UTC 2020-01-21 14:56:05
tagc : public.auxiliary-content

Аудио #3
Идентификатор : 4
Формат : AAC LC
Формат/Информация : Advanced Audio Codec Low Complexity
Идентификатор кодека : mp4a-40-2
Продолжительность : 1 ч. 50 м.
Вид битрейта : Переменный
Битрейт : 230 Кбит/сек
Максимальный битрейт : 386 Кбит/сек
Каналы : 2 канала
Channel layout : L R
Частота : 48,0 КГц
Частота кадров : 46,875 кадров/сек (1024 SPF)
Метод сжатия : С потерями
Размер потока : 182 Мбайт (2%)
Язык : English
Default : Нет
Alternate group : 1
Дата кодирования : UTC 2020-01-21 14:52:31
Дата пометки : UTC 2020-01-21 14:56:05
Fallback From : 6
tagc : public.main-program-content

Аудио #4
Идентификатор : 5
Формат : AAC LC
Формат/Информация : Advanced Audio Codec Low Complexity
Идентификатор кодека : mp4a-40-2
Продолжительность : 1 ч. 50 м.
Продолжительность оригинала : 1 ч. 50 м.
Вид битрейта : Переменный
Номинальный битрейт : 230 Кбит/сек
Максимальный битрейт : 381 Кбит/сек
Каналы : 2 канала
Channel layout : L R
Частота : 48,0 КГц
Частота кадров : 46,875 кадров/сек (1024 SPF)
Метод сжатия : С потерями
Размер потока оригинала : 182 Мбайт (2%)
Язык : English
Default : Нет
Alternate group : 1
Дата кодирования : UTC 2020-01-21 14:52:31
Дата пометки : UTC 2020-01-21 14:56:05
tagc : public.auxiliary-content

Аудио #5
Идентификатор : 6
Формат : AC-3
Формат/Информация : Audio Coding 3
Коммерческое название : Dolby Digital
Идентификатор кодека : ac-3
Продолжительность : 1 ч. 50 м.
Вид битрейта : Постоянный
Битрейт : 448 Кбит/сек
Каналы : 6 каналов
Channel layout : L R C LFE Ls Rs
Частота : 48,0 КГц
Частота кадров : 31,250 кадров/сек (1536 SPF)
Метод сжатия : С потерями
Размер потока : 353 Мбайт (4%)
Язык : English
Service kind : Complete Main
Default : Нет
Alternate group : 1
Дата кодирования : UTC 2020-01-21 14:52:31
Дата пометки : UTC 2020-01-21 14:56:05
Fallback To : 4
tagc : public.main-program-content

Текст
Идентификатор : 7
Формат : Timed Text
Режим смешивания : sbtl
Идентификатор кодека : tx3g
Продолжительность : 1 ч. 48 м.
Вид битрейта : Переменный
Битрейт : 89 бит/сек
Размер потока : 70,6 Кбайт (0%)
Язык : English
Default : Да
Forced : Нет
Alternate group : 2
Дата кодирования : UTC 2020-01-21 14:52:31
Дата пометки : UTC 2020-01-21 14:56:05
tagc : public.main-program-content


Name: Мальчик-мясник
Artist: Neil Jordan
Media Kind: Movie
HD Video: 1080p
Genre: комедия, драма
Release Date: 1997-07-13T12:00:00Z
Long Description: Детство простого ирландского мальчишки по имени Френси трудно назвать счастливым. Отец — алкоголик, мать — не вполне вменяемая женщина, жизнь в трущобах провинциального городка не способствовала личностному росту и духовному самосовершенствованию юной души. Френси все больше и больше погружался в мир своих странных фантазий, пока окончательно не потерялся в них, окончательно «слетев с катушек».
Rating: mpaa|Unrated|???|
Studio: Geffen Pictures, Warner Bros. Pictures
Cast: Eamonn Owens, Alan Boyle, Fiona Shaw, Andrew Fullerton, Stephen Rea, Aisling O'Sullivan, Peter Gowen, Sean McGinley, John Kavanagh, Rosaleen Linehan, Anita Reeves, Ian Hart, Sinéad O'Connor, Brendan Gleeson, Milo O’Shea, Niall Buggy, Ardal O'Hanlon, Tom Hickey, Gina Moxley, Joe Pilkington, Anne O'Neill, John Olohan, Mikel Murfi, Brendan Conroy, Jer O'Leary, Pat Leavy, Janet Moran, Paraic Breathnach, Gregg Fitzgerald, John Finegan, Gavin Kelty, Eoin Chaney, Tony Rohr, Dermot Healy, Sean Hughes, Gerard McSorley, Birdy Sweeney, Ronan Wilmot, Pat McCabe, Marie Mullen, Macdara Ó Fátharta, Stuart Graham, Vinnie McCabe, Áine McEneaney, Siobhan McElvaney, Paolo Tullio, Ciaran Owens, Shane O'Connor
Director: Neil Jordan
Screenwriters: Neil Jordan, Pat McCabe

Скриншоты:


Все одноименные релизы в Клубе
Время раздачи: 24/7 (до появления первых 3-5 скачавших)

Релиз подготовлен для просмотра на Apple TV, iPad, iPhone, iPod Touch.
Для просмотра данного релиза на компьютере с ОС Windows рекомендуется использовать VLC media player
[NNMClub.to]_The.Butcher.Boy.1997.WEB-DL.1080p.m4v.torrent
 Торрент:   Зарегистрирован
 
Зарегистрируйтесь и скачайте торрент!
91,4 KB

Примагнититься
 Зарегистрирован:   21 Янв 2020 18:09:09
 Размер:   9,12 GB  (
 Рейтинг:   4,8 (Голосов: 11)
 Поблагодарили:   37
 Проверка:   Оформление проверено модератором 21 Янв 2020 19:53:39
Как cкачать  ·  Как раздать  ·  Правильно оформить  ·  Поднять ратио!  

_________________
«Всё против нас, только ветер навстречу…».
🍏Apple iMac 21.5 (mid 2011) / Intel Core i5 2.7 GHz / AMD Radeon HD 6770M 512 Mb / 12GB DDR3 / Apple Trackpad, Apple Keyboard / macOS High Sierra 10.13.6 (17G8030)
I1977
Стаж: 10 лет 3 мес.
Сообщений: 347
Ratio: 10,961
99.88%
На скринах Борис Джонсон? Байопик?
Yuridar
 
Стаж: 5 лет 1 мес.
Сообщений: 466
Ratio: 8,232
Раздал: 2,934 TB
Поблагодарили: 3829
100%
iran.gif
Очень странная и противоречивая комедийная драма о ребёнке, который всей душой стремился к любви, дружбе. Но самой жизнью и её условиями, средой обитания, не совсем нормальной семьёй был просто лишён выбора и надежды... :убится ап стену: О нет

_________________
Я против несправедливого, безумного мира. Но я его пленник. Если я начну навязывать всем мой образ жизни, меня точно убьют. Но не лишайте меня свободы выражать мои мысли.
(Хосе Мухика)
Показать сообщения:   
Начать новую тему   Ответить на тему    Торрент-трекер NNM-Club -> Аудио и Видео -> Зарубежное видео HD для устройств Apple Часовой пояс: GMT + 3
Страница 1 из 1