Классический форум-трекер
canvas not supported
Нас вместе: 4 093 605

DBA (Rick Derringer, Tim Bogert & Carmine Appice) - Doin' Business As... (2001) [FLAC|Lossless|image + .cue] <Blues Rock>


 
 
RSS
Начать новую тему   Ответить на тему    Торрент-трекер NNM-Club -> Jazz, Blues, Soul -> Blues, Soul (Lossless)
Автор Сообщение
gatherone ®
RG Music
 
Стаж: 7 лет 7 мес.
Сообщений: 2370
Ratio: 190,249
Поблагодарили: 60592
12.65%
DBA (Rick Derringer, Tim Bogert & Carmine Appice) - Doin' Business As... (2001)
Жанр: Blues Rock
Издание: under license Stemhammer, SPV - SPV 085-72202 CD
Источник: Собственный CD
Scans: Complete
Продолжительность: 00:54:33

Кодек: FLAC
Битрейт: Lossless
Тип рипа: image + .cue

Треклист:
01. Blood From A Stone
02. The Sky Is Falling
03. Grey Day
04. Everybody's Comin'
05. Bye Bye Baby
06. Telling Me Lies
07. Dawn Of Love
08. Turn On The Light
09. Boys Night Out
10. Alone Now
11. Rapsody In Red (instrumental)
Время раздачи: 19.00 - 23.00 (до появления первых 3-5 скачавших)


Поглощение/вытеснение
Только с согласия релизера

Beijing65
[NNMClub.to]_DBA (Derringer-Bogert-Appice) {2001] [CD] Doin Bussines As [EAC-FLAC].torrent
 Торрент: Платиновая раздача  Зарегистрирован
 
Скачать


Примагнититься
 Зарегистрирован:   25 Янв 2020 22:56:53
 Размер:   429 MB  (
 Рейтинг:    (Голосов: 5)
 Поблагодарили:   49
 Проверка:   Оформление проверено модератором 25 Янв 2020 23:00:34
Как cкачать  ·  Как раздать  ·  Правильно оформить  ·  Поднять ратио!  
Bertyna
Стаж: 9 лет
Сообщений: 74
Ratio: 19,265
100%
honduras.gif
а чё, файлы по нормальному никак нельзя назвать? Торрент виснет...

Не будете так добры - сделайте нормально
gatherone ®
RG Music
 
Стаж: 7 лет 7 мес.
Сообщений: 2370
Ratio: 190,249
Поблагодарили: 60592
12.65%
Bertyna писал(а): Перейти к сообщению
а чё, файлы по нормальному никак нельзя назвать? Торрент виснет...

Не будете так добры - сделайте нормально

Файлы нормальные. Не надо говорить ерунду.. У меня все файлы в таком формате. Жалоб никогда не было. Да и скачало уже куча народа
Nota_Bene
Стаж: 7 лет 5 мес.
Сообщений: 2
Ratio: 27,65
0.05%
.cue файл неправильный.
Правильный выглядит так -
------------------------

REM GENRE Rock
REM DATE 2001
REM DISCID A00CC90B
REM COMMENT "ExactAudioCopy v1.3"
PERFORMER "DBA (Rick Derringer, Tim Bogert & Carmine Appice)"
TITLE "Doin' Business As..."
REM COMPOSER ""
FILE "DBA (Rick Derringer, Tim Bogert & Carmine Appice) - Doin' Business As....flac" flac
TRACK 01 AUDIO
TITLE "Blood From A Stone"
PERFORMER "DBA (Rick Derringer, Tim Bogert & Carmine Appice)"
REM COMPOSER ""
INDEX 01 00:00:00
TRACK 02 AUDIO
TITLE "The Sky Is Falling"
PERFORMER "DBA (Rick Derringer, Tim Bogert & Carmine Appice)"
REM COMPOSER ""
INDEX 01 05:15:07
TRACK 03 AUDIO
TITLE "Grey Day"
PERFORMER "DBA (Rick Derringer, Tim Bogert & Carmine Appice)"
REM COMPOSER ""
INDEX 00 09:37:45
INDEX 01 09:38:55
TRACK 04 AUDIO
TITLE "Everybody's Comin'"
PERFORMER "DBA (Rick Derringer, Tim Bogert & Carmine Appice)"
REM COMPOSER ""
INDEX 01 14:53:42
TRACK 05 AUDIO
TITLE "Bye Bye Baby"
PERFORMER "DBA (Rick Derringer, Tim Bogert & Carmine Appice)"
REM COMPOSER ""
INDEX 00 18:50:35
INDEX 01 18:52:67
TRACK 06 AUDIO
TITLE "Telling Me Lies"
PERFORMER "DBA (Rick Derringer, Tim Bogert & Carmine Appice)"
REM COMPOSER ""
INDEX 00 23:34:37
INDEX 01 23:36:12
TRACK 07 AUDIO
TITLE "Dawn Of Love"
PERFORMER "DBA (Rick Derringer, Tim Bogert & Carmine Appice)"
REM COMPOSER ""
INDEX 00 27:52:07
INDEX 01 27:53:72
TRACK 08 AUDIO
TITLE "Turn On The Light"
PERFORMER "DBA (Rick Derringer, Tim Bogert & Carmine Appice)"
REM COMPOSER ""
INDEX 00 32:00:60
INDEX 01 32:01:65
TRACK 09 AUDIO
TITLE "Boys Night Out"
PERFORMER "DBA (Rick Derringer, Tim Bogert & Carmine Appice)"
REM COMPOSER ""
INDEX 00 36:18:60
INDEX 01 36:20:12
TRACK 10 AUDIO
TITLE "Alone Now"
PERFORMER "DBA (Rick Derringer, Tim Bogert & Carmine Appice)"
REM COMPOSER ""
INDEX 00 39:52:10
INDEX 01 39:53:65
TRACK 11 AUDIO
TITLE "Rapsody In Red (instrumental)"
PERFORMER "DBA (Rick Derringer, Tim Bogert & Carmine Appice)"
REM COMPOSER ""
INDEX 00 46:22:20
INDEX 01 46:24:34
gatherone ®
RG Music
 
Стаж: 7 лет 7 мес.
Сообщений: 2370
Ratio: 190,249
Поблагодарили: 60592
12.65%
Nota_Bene писал(а): Перейти к сообщению
.cue файл неправильный.
Правильный выглядит так -
------------------------

REM GENRE Rock
REM DATE 2001
REM DISCID A00CC90B
REM COMMENT "ExactAudioCopy v1.3"
PERFORMER "DBA (Rick Derringer, Tim Bogert & Carmine Appice)"
TITLE "Doin' Business As..."
REM COMPOSER ""
FILE "DBA (Rick Derringer, Tim Bogert & Carmine Appice) - Doin' Business As....flac" flac
TRACK 01 AUDIO
TITLE "Blood From A Stone"
PERFORMER "DBA (Rick Derringer, Tim Bogert & Carmine Appice)"
REM COMPOSER ""
INDEX 01 00:00:00
TRACK 02 AUDIO
TITLE "The Sky Is Falling"
PERFORMER "DBA (Rick Derringer, Tim Bogert & Carmine Appice)"
REM COMPOSER ""
INDEX 01 05:15:07
TRACK 03 AUDIO
TITLE "Grey Day"
PERFORMER "DBA (Rick Derringer, Tim Bogert & Carmine Appice)"
REM COMPOSER ""
INDEX 00 09:37:45
INDEX 01 09:38:55
TRACK 04 AUDIO
TITLE "Everybody's Comin'"
PERFORMER "DBA (Rick Derringer, Tim Bogert & Carmine Appice)"
REM COMPOSER ""
INDEX 01 14:53:42
TRACK 05 AUDIO
TITLE "Bye Bye Baby"
PERFORMER "DBA (Rick Derringer, Tim Bogert & Carmine Appice)"
REM COMPOSER ""
INDEX 00 18:50:35
INDEX 01 18:52:67
TRACK 06 AUDIO
TITLE "Telling Me Lies"
PERFORMER "DBA (Rick Derringer, Tim Bogert & Carmine Appice)"
REM COMPOSER ""
INDEX 00 23:34:37
INDEX 01 23:36:12
TRACK 07 AUDIO
TITLE "Dawn Of Love"
PERFORMER "DBA (Rick Derringer, Tim Bogert & Carmine Appice)"
REM COMPOSER ""
INDEX 00 27:52:07
INDEX 01 27:53:72
TRACK 08 AUDIO
TITLE "Turn On The Light"
PERFORMER "DBA (Rick Derringer, Tim Bogert & Carmine Appice)"
REM COMPOSER ""
INDEX 00 32:00:60
INDEX 01 32:01:65
TRACK 09 AUDIO
TITLE "Boys Night Out"
PERFORMER "DBA (Rick Derringer, Tim Bogert & Carmine Appice)"
REM COMPOSER ""
INDEX 00 36:18:60
INDEX 01 36:20:12
TRACK 10 AUDIO
TITLE "Alone Now"
PERFORMER "DBA (Rick Derringer, Tim Bogert & Carmine Appice)"
REM COMPOSER ""
INDEX 00 39:52:10
INDEX 01 39:53:65
TRACK 11 AUDIO
TITLE "Rapsody In Red (instrumental)"
PERFORMER "DBA (Rick Derringer, Tim Bogert & Carmine Appice)"
REM COMPOSER ""
INDEX 00 46:22:20
INDEX 01 46:24:34

Точно. Это в линукс так сформировался из-за многоточия в конце
Nota_Bene
Стаж: 7 лет 5 мес.
Сообщений: 2
Ratio: 27,65
0.05%
Ну и лады :-)
gatherone ®
RG Music
 
Стаж: 7 лет 7 мес.
Сообщений: 2370
Ratio: 190,249
Поблагодарили: 60592
12.65%
Торрент перезалит. Исправлен .cue-файл
Показать сообщения:   
Начать новую тему   Ответить на тему    Торрент-трекер NNM-Club -> Jazz, Blues, Soul -> Blues, Soul (Lossless) Часовой пояс: GMT + 3
Страница 1 из 1