Классический форум-трекер
canvas not supported
Нас вместе: 4 093 259

Кролик Джоджо / Jojo Rabbit (2019) WEB-DL [1080p] ATV


 
 
RSS
Начать новую тему   Ответить на тему    Торрент-трекер NNM-Club -> Аудио и Видео -> Зарубежное видео HD для устройств Apple
Автор Сообщение
Весельчак У ®
Модератор Apple
Стаж: 6 лет 2 мес.
Сообщений: 4771
Ratio: 140,657
Поблагодарили: 155665
95.41%
Откуда: От Москвы недалеко...
ussr.gif
Кролик Джоджо / Jojo Rabbit (2019) WEB-DL [1080p] ATV«An anti-hate satire»
Производство: Чехия, Новая Зеландия, США / TSG Entertainment, Piki Films, Defender Films
Жанр: Драма, комедия, военный

Режиссер: Тайка Вайтити
Продюсер: Кэртхью Нил, Кеван Ван Томпсон, Тайка Вайтити
Актеры: Роман Гриффин Дэвис, Томасин МакКензи, Скарлетт Йоханссон, Тайка Вайтити, Сэм Рокуэлл, Ребел Уилсон, Алфи Аллен, Стивен Мерчант, Арчи Йейтс, Люк Шуфилд

Описание:
Неловкий и нескладный 10-летний немецкий мальчик Джоджо, потерявший отца, пытается найти своё место в мире. Ровесники потешаются над ним, а мама считает, что ребёнок сам придумывает себе проблемы. Пытаясь заменить отца, мальчик начинает общаться с воображаемым другом — Адольфом Гитлером, который совсем не похож на знакомого всем фюрера Третьего рейха. Ситуация только осложняется, когда Джоджо обнаруживает, что мама прячет в доме еврейскую девочку.


Рейтинг MPAA: PG-13 (детям до 13 лет просмотр нежелателен)
Дата мировой премьеры: 8 сентября 2019

Продолжительность: 01:48:23
Качество видео: WEB-DL 1080р
Перевод: Профессиональный многоголосый, авторский одноголосый
Субтитры: Русские, украинские (full), английские (SDH)

Видео: H.264, 1920x1040 (1,85:1), ~8530 kbps, 23.976 fps
Аудио#1: AAC, 2.0 ch, 184 Kbps - Русский MVO, HDRezka Studio
Аудио#2: AAC, 2.0 ch, 184 Kbps - Русский MVO, Good People
Аудио#3: AAC, 2.0 ch, 186 Kbps - Русский AVO, Михаил Яроцкий
Аудио#4: AAC, 2.0 ch, 185 Kbps - English Original
Аудио#5: AC3, 6.0 ch, 640 Kbps - Русский MVO, Good People
Аудио#6: AC3, 6.0 ch, 640 Kbps - English Original

Общее
Полное имя : /Volumes/HDD/Movies/NNMC/Jojo.Rabbit.2019.WEB-DL.1080p.m4v
Формат : MPEG-4
Идентификатор кодека : M4V (M4V /M4A /mp42/isom)
Размер файла : 8,00 Гбайт
Продолжительность : 1 ч. 48 м.
Режим общего битрейта : Переменный
Общий поток : 10,6 Мбит/сек
Название фильма : Кролик Джоджо
Исполнитель : Taika Waititi
Композитор : Michael Giacchino
Режиссёр : Taika Waititi
Исполнитель : Roman Griffin Davis / Thomasin McKenzie / Scarlett Johansson / Taika Waititi / Sam Rockwell / Rebel Wilson / Alfie Allen / Stephen Merchant / Archie Yates / Luke Brandon Field / Joe Weintraub / Brian Caspe / James McVan / Judith Georgi / Victoria Hogan / Bethany Adams
Сценарист : Taika Waititi / Christine Leunens
Продюсер : Taika Waititi / Chelsea Winstanley / Carthew Neal
Исполнительный продюсер : Kevan Van Thompson
Студия-производитель : TSG Entertainment, Defender Films, Piki Films, Czech Anglo Productions
Жанр : комедия, военный, драма
Тип содержимого : Short Film
Дата записи : UTC 2019-10-18 12:00:00
Дата кодирования : UTC 2020-02-10 09:48:16
Дата пометки : UTC 2020-02-10 09:56:38
Обложка : Yes
LongDescription : Неловкий и нескладный 10-летний немецкий мальчик, потерявший отца, пытается найти своё место в непривычном мире. Ровесники лишь потешаются над ним, а мама считает, что ребёнок сам придумывает себе проблемы. В надежде получить замену пропавшего отца мальчик придумывает себе воображаемого друга — Адольфа Гитлера, который совсем не похож на знакомого всем фюрера Третьего рейха. Ситуация только осложняется, когда мальчик обнаруживает, что его мать прячет в доме еврейскую девочку.
ContentRating : mpaa|PG-13|300|

Видео #1
Идентификатор : 1
Формат : AVC
Формат/Информация : Advanced Video Codec
Профиль формата : High@L4.1
Настройки формата : CABAC / 4 Ref Frames
Параметр CABAC формата : Да
Параметр ReFrames формата : 4 кадра
Идентификатор кодека : avc1
Идентификатор кодека/Информация : Advanced Video Coding
Продолжительность : 1 ч. 48 м.
Битрейт : 8530 Кбит/сек
Ширина : 1920 пикселей
Высота : 1040 пикселей
Соотношение сторон : 1,85:1
Режим частоты кадров : Переменный
Частота кадров : 23,976 (24000/1001) кадра/сек
Минимальная частота кадров : 23,810 кадра/сек
Максимальная частота кадров : 24,390 кадра/сек
Цветовое пространство : YUV
Субдискретизация насыщенности : 4:2:0
Битовая глубина : 8 бит
Тип развёртки : Прогрессивная
Бит/(Пиксели*Кадры) : 0.178
Размер потока : 6,46 Гбайт (81%)
Библиотека кодирования : x264 core 159 r2991 1771b55
Настройки программы : cabac=1 / ref=4 / deblock=1:-2:-2 / analyse=0x3:0x133 / me=umh / subme=8 / psy=1 / psy_rd=1.00:0.00 / mixed_ref=1 / me_range=16 / chroma_me=1 / trellis=2 / 8x8dct=1 / cqm=0 / deadzone=21,11 / fast_pskip=0 / chroma_qp_offset=-2 / threads=24 / lookahead_threads=4 / sliced_threads=0 / nr=0 / decimate=1 / interlaced=0 / bluray_compat=0 / constrained_intra=0 / bframes=3 / b_pyramid=2 / b_adapt=2 / b_bias=0 / direct=3 / weightb=1 / open_gop=0 / weightp=2 / keyint=230 / keyint_min=23 / scenecut=40 / intra_refresh=0 / rc_lookahead=60 / rc=2pass / mbtree=1 / bitrate=8530 / ratetol=1.0 / qcomp=0.60 / qpmin=0 / qpmax=69 / qpstep=4 / cplxblur=20.0 / qblur=0.5 / ip_ratio=1.40 / aq=1:1.00
Язык : English
Дата кодирования : UTC 2020-02-10 09:48:16
Дата пометки : UTC 2020-02-10 09:56:11
Цветовой диапазон : Limited
Коэффициенты матрицы : BT.709
Menus : 12,13
Codec configuration box : avcC

Видео #2
Идентификатор : 13
Формат : JPEG
Идентификатор кодека : jpeg
Продолжительность : 1 ч. 48 м.
Вид битрейта : Переменный
Битрейт : 1550 бит/сек
Ширина : 640 пикселей
Высота : 346 пикселей
Соотношение сторон : 1,85:1
Режим частоты кадров : Переменный
Частота кадров : 0,004 кадр/сек
Минимальная частота кадров : 0,002 кадр/сек
Максимальная частота кадров : 0,006 кадр/сек
Цветовое пространство : YUV
Субдискретизация насыщенности : 4:2:0
Битовая глубина : 8 бит
Метод сжатия : С потерями
Бит/(Пиксели*Кадры) : 1.750
Размер потока : 1,11 Мбайт (0%)
Язык : English
Default : Нет
Дата кодирования : UTC 2020-02-10 09:56:37
Дата пометки : UTC 2020-02-10 09:56:38
Menu For : 1
ColorSpace_ICC : RGB

Аудио #1
Идентификатор : 2
Формат : AAC LC
Формат/Информация : Advanced Audio Codec Low Complexity
Идентификатор кодека : mp4a-40-2
Продолжительность : 1 ч. 48 м.
Вид битрейта : Переменный
Битрейт : 184 Кбит/сек
Максимальный битрейт : 293 Кбит/сек
Каналы : 2 канала
Channel layout : L R
Частота : 48,0 КГц
Частота кадров : 46,875 кадров/сек (1024 SPF)
Метод сжатия : С потерями
Размер потока : 143 Мбайт (2%)
Язык : Russian
Default : Да
Alternate group : 1
Дата кодирования : UTC 2020-02-10 09:48:16
Дата пометки : UTC 2020-02-10 09:56:11
tagc : public.main-program-content

Аудио #2
Идентификатор : 3
Формат : AAC LC
Формат/Информация : Advanced Audio Codec Low Complexity
Идентификатор кодека : mp4a-40-2
Продолжительность : 1 ч. 48 м.
Продолжительность оригинала : 1 ч. 48 м.
Вид битрейта : Переменный
Битрейт : 184 Кбит/сек
Максимальный битрейт : 342 Кбит/сек
Каналы : 2 канала
Channel layout : L R
Частота : 48,0 КГц
Частота кадров : 46,875 кадров/сек (1024 SPF)
Метод сжатия : С потерями
Размер потока : 143 Мбайт (2%)
Размер потока оригинала : 143 Мбайт (2%)
Язык : Russian
Default : Нет
Alternate group : 1
Дата кодирования : UTC 2020-02-10 09:48:16
Дата пометки : UTC 2020-02-10 09:50:26
Fallback From : 6
tagc : public.main-program-content

Аудио #3
Идентификатор : 4
Формат : AAC LC
Формат/Информация : Advanced Audio Codec Low Complexity
Идентификатор кодека : mp4a-40-2
Продолжительность : 1 ч. 48 м.
Вид битрейта : Переменный
Битрейт : 186 Кбит/сек
Максимальный битрейт : 303 Кбит/сек
Каналы : 2 канала
Channel layout : L R
Частота : 48,0 КГц
Частота кадров : 46,875 кадров/сек (1024 SPF)
Метод сжатия : С потерями
Размер потока : 144 Мбайт (2%)
Язык : Russian
Default : Нет
Alternate group : 1
Дата кодирования : UTC 2020-02-10 09:48:16
Дата пометки : UTC 2020-02-10 09:56:11
tagc : public.main-program-content

Аудио #4
Идентификатор : 5
Формат : AAC LC
Формат/Информация : Advanced Audio Codec Low Complexity
Идентификатор кодека : mp4a-40-2
Продолжительность : 1 ч. 48 м.
Вид битрейта : Переменный
Битрейт : 185 Кбит/сек
Максимальный битрейт : 321 Кбит/сек
Каналы : 2 канала
Channel layout : L R
Частота : 48,0 КГц
Частота кадров : 46,875 кадров/сек (1024 SPF)
Метод сжатия : С потерями
Размер потока : 144 Мбайт (2%)
Язык : English
Default : Нет
Alternate group : 1
Дата кодирования : UTC 2020-02-10 09:48:16
Дата пометки : UTC 2020-02-10 09:56:11
Fallback From : 7
tagc : public.main-program-content

Аудио #5
Идентификатор : 6
Формат : AC-3
Формат/Информация : Audio Coding 3
Коммерческое название : Dolby Digital
Идентификатор кодека : ac-3
Продолжительность : 1 ч. 48 м.
Вид битрейта : Постоянный
Битрейт : 640 Кбит/сек
Каналы : 6 каналов
Channel layout : L R C LFE Ls Rs
Частота : 48,0 КГц
Частота кадров : 31,250 кадров/сек (1536 SPF)
Метод сжатия : С потерями
Размер потока : 496 Мбайт (6%)
Язык : Russian
Service kind : Complete Main
Default : Нет
Alternate group : 1
Дата кодирования : UTC 2020-02-10 09:48:16
Дата пометки : UTC 2020-02-10 09:50:26
Fallback To : 3
tagc : public.main-program-content

Аудио #6
Идентификатор : 7
Формат : AC-3
Формат/Информация : Audio Coding 3
Коммерческое название : Dolby Digital
Идентификатор кодека : ac-3
Продолжительность : 1 ч. 48 м.
Вид битрейта : Постоянный
Битрейт : 640 Кбит/сек
Каналы : 6 каналов
Channel layout : L R C LFE Ls Rs
Частота : 48,0 КГц
Частота кадров : 31,250 кадров/сек (1536 SPF)
Метод сжатия : С потерями
Размер потока : 496 Мбайт (6%)
Язык : English
Service kind : Complete Main
Default : Нет
Alternate group : 1
Дата кодирования : UTC 2020-02-10 09:48:16
Дата пометки : UTC 2020-02-10 09:56:11
Fallback To : 5
tagc : public.main-program-content

Текст #1
Идентификатор : 8
Формат : Timed Text
Режим смешивания : sbtl
Идентификатор кодека : tx3g
Продолжительность : 1 ч. 42 м.
Вид битрейта : Переменный
Битрейт : 103 бит/сек
Размер потока : 77,3 Кбайт (0%)
Язык : Russian
Default : Да
Forced : Нет
Alternate group : 2
Дата кодирования : UTC 2020-02-10 09:48:16
Дата пометки : UTC 2020-02-10 09:56:11
tagc : public.main-program-content

Текст #2
Идентификатор : 9
Формат : Timed Text
Режим смешивания : sbtl
Идентификатор кодека : tx3g
Продолжительность : 1 ч. 42 м.
Вид битрейта : Переменный
Битрейт : 102 бит/сек
Размер потока : 76,3 Кбайт (0%)
Язык : Ukrainian
Default : Нет
Forced : Нет
Alternate group : 2
Дата кодирования : UTC 2020-02-10 09:48:16
Дата пометки : UTC 2020-02-10 09:56:11
tagc : public.main-program-content

Текст #3
Идентификатор : 10
Формат : Timed Text
Режим смешивания : sbtl
Идентификатор кодека : tx3g
Продолжительность : 1 ч. 48 м.
Вид битрейта : Переменный
Битрейт : 68 бит/сек
Размер потока : 54,3 Кбайт (0%)
Язык : English
Default : Нет
Forced : Нет
Alternate group : 2
Дата кодирования : UTC 2020-02-10 09:48:16
Дата пометки : UTC 2020-02-10 09:56:11
tagc : public.main-program-content

Текст #4
Идентификатор : 11
Формат : Timed Text
Режим смешивания : sbtl
Идентификатор кодека : tx3g
Продолжительность : 1 ч. 48 м.
Вид битрейта : Переменный
Битрейт : 78 бит/сек
Размер потока : 62,2 Кбайт (0%)
Язык : English
Default : Нет
Forced : Нет
Alternate group : 2
Дата кодирования : UTC 2020-02-10 09:48:16
Дата пометки : UTC 2020-02-10 09:56:11
tagc : public.accessibility.transcribes-spoken-dialog

Меню
Идентификатор : 12
Идентификатор кодека : text
Продолжительность : 1 ч. 48 м.
Язык : English
Дата кодирования : UTC 2020-02-10 09:56:11
Дата пометки : UTC 2020-02-10 09:56:11
Вид битрейта : CBR
Menu For : 1
00:00:00.000 : Chapter 01
00:06:04.906 : Chapter 02
00:09:25.523 : Chapter 03
00:13:34.522 : Chapter 04
00:16:17.059 : Chapter 05
00:20:09.333 : Chapter 06
00:27:09.461 : Chapter 07
00:31:02.861 : Chapter 08
00:36:30.146 : Chapter 09
00:39:45.967 : Chapter 10
00:44:13.192 : Chapter 11
00:49:53.782 : Chapter 12
00:53:17.194 : Chapter 13
00:59:35.113 : Chapter 14
01:03:34.019 : Chapter 15
01:08:32.483 : Chapter 16
01:14:20.498 : Chapter 17
01:17:36.485 : Chapter 18
01:22:13.387 : Chapter 19
01:26:20.675 : Chapter 20
01:29:24.901 : Chapter 21
01:32:28.042 : Chapter 22
01:37:15.371 : Chapter 23
01:41:03.015 : Chapter 24
Вид битрейта : Постоянный


Name: Кролик Джоджо
Artist: Taika Waititi
Media Kind: Movie
HD Video: 1080p
Genre: комедия, военный, драма
Release Date: 2019-10-18T12:00:00Z
Long Description: Неловкий и нескладный 10-летний немецкий мальчик, потерявший отца, пытается найти своё место в непривычном мире. Ровесники лишь потешаются над ним, а мама считает, что ребёнок сам придумывает себе проблемы. В надежде получить замену пропавшего отца мальчик придумывает себе воображаемого друга — Адольфа Гитлера, который совсем не похож на знакомого всем фюрера Третьего рейха. Ситуация только осложняется, когда мальчик обнаруживает, что его мать прячет в доме еврейскую девочку.
Rating: mpaa|PG-13|300|
Studio: TSG Entertainment, Defender Films, Piki Films, Czech Anglo Productions
Cast: Roman Griffin Davis, Thomasin McKenzie, Scarlett Johansson, Taika Waititi, Sam Rockwell, Rebel Wilson, Alfie Allen, Stephen Merchant, Archie Yates, Luke Brandon Field, Joe Weintraub, Brian Caspe, James McVan, Judith Georgi, Victoria Hogan, Bethany Adams
Director: Taika Waititi
Producers: Taika Waititi, Chelsea Winstanley, Carthew Neal
Executive Producer: Kevan Van Thompson
Screenwriters: Taika Waititi, Christine Leunens
Composer: Michael Giacchino

Скриншоты:


Все одноименные релизы в Клубе
Время раздачи: 24/7 (до появления первых 3-5 скачавших)

Релиз подготовлен для просмотра на Apple TV, iPad, iPhone, iPod Touch.
Для просмотра данного релиза на компьютере с ОС Windows рекомендуется использовать VLC media player
[NNMClub.to]_Jojo.Rabbit.2019.WEB-DL.1080p.m4v.torrent
 Торрент:   Зарегистрирован
 
Зарегистрируйтесь и скачайте торрент!
80,2 KB

Примагнититься
 Зарегистрирован:   10 Фев 2020 13:10:32
 Размер:   8 GB  (
 Рейтинг:   4,6 (Голосов: 11)
 Поблагодарили:   54
 Проверка:   Оформление проверено модератором 10 Фев 2020 13:28:07
Как cкачать  ·  Как раздать  ·  Правильно оформить  ·  Поднять ратио!  

_________________
«Всё против нас, только ветер навстречу…».
🍏Apple iMac 21.5 (mid 2011) / Intel Core i5 2.7 GHz / AMD Radeon HD 6770M 512 Mb / 12GB DDR3 / Apple Trackpad, Apple Keyboard / macOS High Sierra 10.13.6 (17G8030)
krona076
Стаж: 9 лет 8 мес.
Сообщений: 119
Ratio: 1,698
Поблагодарили: 5
100%
Фильм с юморком и только благодаря одному актеру.
В остальном:
Смелая и сообразительная еврейская девушка.
Добрые, но заблудшие и вовремя (или не очень) осознавшие свою неправоту немцы.
Американцы - освободители
Русские - каратели и палачи, после освобождения американцами.

Занавес

Просто невозможно не развидеть политической коньюнкуты этого "шедевра"
Ingwar77
Стаж: 12 лет 11 мес.
Сообщений: 114
Ratio: 3,087
Поблагодарили: 117
96.22%
russia.gif
Вавилон-Берлин, шикарный сериал о временах Веймарской республики в конце "золотых двадцатых". Конечно не обошлось без лёгкой политической ангажированности, минимальных исторических и временных опечаток. Рекомендую к обязательному просмотру всем.
Показать сообщения:   
Начать новую тему   Ответить на тему    Торрент-трекер NNM-Club -> Аудио и Видео -> Зарубежное видео HD для устройств Apple Часовой пояс: GMT + 3
Страница 1 из 1