Классический форум-трекер
canvas not supported
Нас вместе: 4 114 654

Мир, полный чудес / Wonderstruck (2017) BDRip [1080p] ATV [MVO]


 
 
RSS
Начать новую тему   Ответить на тему    Торрент-трекер NNM-Club -> Аудио и Видео -> Зарубежное видео HD для устройств Apple
Автор Сообщение
Весельчак У ®
Модератор Apple
Uploader 100+
Стаж: 6 лет 5 мес.
Сообщений: 6124
Ratio: 161,175
Поблагодарили: 197969
92.98%
Откуда: От Москвы недалеко...
ussr.gif
Мир, полный чудес / Wonderstruck (2017) BDRip [1080p] ATV «It's not what you look at that matters, it's what you see»

Производство: США / Amazon Studios, Cinetic Media, FilmNation Entertainment
Жанр: Драма, детектив

Режиссер: Тодд Хейнс
Продюсер: Брайан Белл, Памела Коффлер, Фрэнк Мюррэй
Актеры: Оакс Фигли, Джулианна Мур, Мишель Уильямс, Милли Симмондс, Кори Майкл Смит, Джеймс Урбаняк, Дэмиэн Янг, Патрик Мёрни, Лорен Ридлофф, Энтони Натали

Описание:
Окружающий мир поистине полон чудес, и каждый момент может стать началом настоящего приключения, ведущего человека к переменам и заветной мечте.
В центре событий киноленты находятся два ребенка – мальчик по имени Бен и девочка Роуз. Он живет в наши дни на Среднем Западе Соединенных Штатов. Она – в Нью-Йорке, только пятьюдесятью годами ранее. Дети являются представителями совершенно разных эпох и окружения, однако оба в тайне мечтают об одном и том же – чтобы их жизни были другими. Мальчишка мечтает об отце, которого никогда не знал, а девочка всецело поглощена мыслями о загадочной актрисе. Однажды их жизни в корне меняются: Бен натыкается на будоражащую подсказку, а Роуз на глаза попадается вдохновляющий заголовок... Эти два происшествия становятся отправными точками увлекательных путешествий, полных авантюризма, тайн, загадок и многочисленных ответов, которые так нужны были нашим героям.


Возраст: PG (рекомендуется присутствие родителей)

Релиз от: NNMClub

Продолжительность: 01:56:00
Качество видео: BDRip 1080р
Перевод: Профессиональный многоголосый, авторский одноголосый
Субтитры: Русские (Ник Чубан, Вадим Мартишевский, PhysKids, Orangeice), английские (вшитые, отключаемые)

Видео: H.264, 1920x804 (2.40:1), ~8100 kbps, 23.976 fps
Аудио#1: AAC, 2.0 ch, 230 Kbps - Русский MVO, Jaskier
Аудио#2: AAC, 2.0 ch, 230 Kbps - Русский AVO, BadBajo
Аудио#3: AAC, 2.0 ch, 230 Kbps - English Original
Аудио#4: AC3, 6.0 ch, 640 Kbps - Русский MVO, Jaskier
Аудио#5: AC3, 6.0 ch, 384 Kbps - Русский AVO, BadBajo
Аудио#6: AC3, 6.0 ch, 640 Kbps - English Original

Общее
Полное имя : /Volumes/HDD/Movies/NNMC/Wonderstruck.2017.BDRip.1080p.m4v
Формат : MPEG-4
Профиль формата : Base Media / Version 2
Идентификатор кодека : mp42 (isom/iso2/avc1/mp41)
Размер файла : 8,49 Гбайт
Продолжительность : 1 ч. 56 м.
Режим общего битрейта : Переменный
Общий поток : 10,5 Мбит/сек
Название фильма : Мир, полный чудес
Исполнитель : Todd Haynes
Режиссёр : Todd Haynes
Исполнитель : Oakes Fegley / Millicent Simmonds / Julianne Moore / Michelle Williams / Jaden Michael / Cory Michael Smith / Tom Noonan / Amy Hargreaves / James Urbaniak / Hays Wellford / Damian Young / Morgan Turner / Ekaterina Samsonov / Anthony Natale / Sawyer Nunes / Brian Berrebbi / Michael Wren Gucciardo / Tom Waters / Patrick Murney / Connor Moeller / Mackenzie Grace Castle / Derek Chadwick / Raul Torres
Сценарист : Brian Selznick / Brian Selznick
Продюсер : John Sloss / Christine Vachon / Pamela Koffler
Исполнительный продюсер : Brian Bell
Студия-производитель : Amazon Studios, Cinetic Media, FilmNation Entertainment, Killer Films, Picrow
Жанр : драма
Тип содержимого : Short Film
Дата записи : UTC 2017-10-13 12:00:00
Дата кодирования : UTC 2020-02-10 19:16:10
Дата пометки : UTC 2020-02-11 06:24:16
Программа кодирования : HandBrake 1.3.1 2020010400
Обложка : Yes
LongDescription : История Бена и Роуз, которые живут в разные эпохи и не могут смириться с окружающим их миром. Бен мечтает найти своего отца, а мысли Роуз заняты загадочной актрисой. Однажды судьба толкает их на поиски того самого недостающего их жизни элемента.
ContentRating : mpaa|PG|200|

Видео #1
Идентификатор : 1
Формат : AVC
Формат/Информация : Advanced Video Codec
Профиль формата : High@L4.1
Настройки формата : CABAC / 5 Ref Frames
Параметр CABAC формата : Да
Параметр ReFrames формата : 5 кадров
Идентификатор кодека : avc1
Идентификатор кодека/Информация : Advanced Video Coding
Продолжительность : 1 ч. 56 м.
Битрейт : 8100 Кбит/сек
Ширина : 1920 пикселей
Высота : 804 пикселя
Соотношение сторон : 2,40:1
Режим частоты кадров : Переменный
Частота кадров : 23,976 (24000/1001) кадра/сек
Минимальная частота кадров : 23,974 кадра/сек
Максимальная частота кадров : 23,981 кадра/сек
Цветовое пространство : YUV
Субдискретизация насыщенности : 4:2:0
Битовая глубина : 8 бит
Тип развёртки : Прогрессивная
Бит/(Пиксели*Кадры) : 0.219
Размер потока : 6,56 Гбайт (77%)
Библиотека кодирования : x264 core 157 r2935 545de2f
Настройки программы : cabac=1 / ref=5 / deblock=1:-1:-1 / analyse=0x3:0x133 / me=umh / subme=10 / psy=1 / psy_rd=1.00:0.15 / mixed_ref=1 / me_range=24 / chroma_me=1 / trellis=2 / 8x8dct=1 / cqm=0 / deadzone=21,11 / fast_pskip=1 / chroma_qp_offset=-3 / threads=6 / lookahead_threads=1 / sliced_threads=0 / nr=0 / decimate=1 / interlaced=0 / bluray_compat=0 / constrained_intra=0 / bframes=8 / b_pyramid=2 / b_adapt=2 / b_bias=0 / direct=3 / weightb=1 / open_gop=0 / weightp=2 / keyint=240 / keyint_min=24 / scenecut=40 / intra_refresh=0 / rc_lookahead=60 / rc=2pass / mbtree=1 / bitrate=8100 / ratetol=1.0 / qcomp=0.60 / qpmin=0 / qpmax=69 / qpstep=4 / cplxblur=20.0 / qblur=0.5 / vbv_maxrate=62500 / vbv_bufsize=78125 / nal_hrd=none / filler=0 / ip_ratio=1.40 / aq=1:1.00
Язык : English
Дата кодирования : UTC 2020-02-10 19:16:10
Дата пометки : UTC 2020-02-10 19:16:10
Цветовой диапазон : Limited
Основные цвета : BT.709
Характеристики трансфера : BT.709
Коэффициенты матрицы : BT.709
Menus : 13,14
Codec configuration box : avcC

Видео #2
Идентификатор : 14
Формат : JPEG
Идентификатор кодека : jpeg
Продолжительность : 1 ч. 55 м.
Вид битрейта : Переменный
Битрейт : 381 бит/сек
Ширина : 640 пикселей
Высота : 268 пикселей
Соотношение сторон : 2,40:1
Режим частоты кадров : Переменный
Частота кадров : 0,002 кадр/сек
Минимальная частота кадров : 0,002 кадр/сек
Максимальная частота кадров : 0,003 кадр/сек
Цветовое пространство : YUV
Субдискретизация насыщенности : 4:2:0
Битовая глубина : 8 бит
Метод сжатия : С потерями
Бит/(Пиксели*Кадры) : 1.111
Размер потока : 372 Кбайт (0%)
Язык : English
Default : Нет
Дата кодирования : UTC 2020-02-11 06:24:15
Дата пометки : UTC 2020-02-11 06:24:15
Menu For : 1
ColorSpace_ICC : RGB

Аудио #1
Идентификатор : 2
Формат : AAC LC
Формат/Информация : Advanced Audio Codec Low Complexity
Идентификатор кодека : mp4a-40-2
Продолжительность : 1 ч. 56 м.
Вид битрейта : Переменный
Битрейт : 230 Кбит/сек
Максимальный битрейт : 423 Кбит/сек
Каналы : 2 канала
Channel layout : L R
Частота : 48,0 КГц
Частота кадров : 46,875 кадров/сек (1024 SPF)
Метод сжатия : С потерями
Размер потока : 191 Мбайт (2%)
Заголовок : MVO [Jaskier]
Язык : Russian
Default : Да
Alternate group : 1
Дата кодирования : UTC 2020-02-10 19:16:10
Дата пометки : UTC 2020-02-10 19:16:10
Fallback From : 5
Menus : 13
tagc : public.main-program-content

Аудио #2
Идентификатор : 3
Формат : AAC LC
Формат/Информация : Advanced Audio Codec Low Complexity
Идентификатор кодека : mp4a-40-2
Продолжительность : 1 ч. 56 м.
Вид битрейта : Переменный
Битрейт : 230 Кбит/сек
Максимальный битрейт : 406 Кбит/сек
Каналы : 2 канала
Channel layout : L R
Частота : 48,0 КГц
Частота кадров : 46,875 кадров/сек (1024 SPF)
Метод сжатия : С потерями
Размер потока : 190 Мбайт (2%)
Заголовок : AVO [BadBajo]
Язык : Russian
Default : Нет
Alternate group : 1
Дата кодирования : UTC 2020-02-10 19:16:10
Дата пометки : UTC 2020-02-10 19:16:10
Fallback From : 6
Menus : 13
tagc : public.auxiliary-content

Аудио #3
Идентификатор : 4
Формат : AAC LC
Формат/Информация : Advanced Audio Codec Low Complexity
Идентификатор кодека : mp4a-40-2
Продолжительность : 1 ч. 56 м.
Вид битрейта : Переменный
Битрейт : 230 Кбит/сек
Максимальный битрейт : 465 Кбит/сек
Каналы : 2 канала
Channel layout : L R
Частота : 48,0 КГц
Частота кадров : 46,875 кадров/сек (1024 SPF)
Метод сжатия : С потерями
Размер потока : 191 Мбайт (2%)
Заголовок : Original
Язык : English
Default : Нет
Alternate group : 1
Дата кодирования : UTC 2020-02-10 19:16:10
Дата пометки : UTC 2020-02-10 19:16:10
Fallback From : 7
Menus : 13
tagc : public.main-program-content

Аудио #4
Идентификатор : 5
Формат : AC-3
Формат/Информация : Audio Coding 3
Коммерческое название : Dolby Digital
Идентификатор кодека : ac-3
Продолжительность : 1 ч. 56 м.
Вид битрейта : Постоянный
Битрейт : 640 Кбит/сек
Каналы : 6 каналов
Channel layout : L R C LFE Ls Rs
Частота : 48,0 КГц
Частота кадров : 31,250 кадров/сек (1536 SPF)
Метод сжатия : С потерями
Размер потока : 531 Мбайт (6%)
Заголовок : MVO [Jaskier]
Язык : Russian
Service kind : Complete Main
Default : Inherited From: 2
Alternate group : 1
Дата кодирования : UTC 2020-02-10 19:16:10
Дата пометки : UTC 2020-02-10 19:16:10
Fallback To : 2
tagc : public.main-program-content

Аудио #5
Идентификатор : 6
Формат : AC-3
Формат/Информация : Audio Coding 3
Коммерческое название : Dolby Digital
Идентификатор кодека : ac-3
Продолжительность : 1 ч. 56 м.
Вид битрейта : Постоянный
Битрейт : 384 Кбит/сек
Каналы : 6 каналов
Channel layout : L R C LFE Ls Rs
Частота : 48,0 КГц
Частота кадров : 31,250 кадров/сек (1536 SPF)
Метод сжатия : С потерями
Размер потока : 319 Мбайт (4%)
Заголовок : AVO [BadBajo]
Язык : Russian
Service kind : Complete Main
Default : Нет
Alternate group : 1
Дата кодирования : UTC 2020-02-10 19:16:10
Дата пометки : UTC 2020-02-10 19:16:10
Fallback To : 3
tagc : public.auxiliary-content

Аудио #6
Идентификатор : 7
Формат : AC-3
Формат/Информация : Audio Coding 3
Коммерческое название : Dolby Digital
Идентификатор кодека : ac-3
Продолжительность : 1 ч. 56 м.
Вид битрейта : Постоянный
Битрейт : 640 Кбит/сек
Каналы : 6 каналов
Channel layout : L R C LFE Ls Rs
Частота : 48,0 КГц
Частота кадров : 31,250 кадров/сек (1536 SPF)
Метод сжатия : С потерями
Размер потока : 531 Мбайт (6%)
Заголовок : Original
Язык : English
Service kind : Complete Main
Default : Нет
Alternate group : 1
Дата кодирования : UTC 2020-02-10 19:16:10
Дата пометки : UTC 2020-02-10 19:16:10
Fallback To : 4
tagc : public.main-program-content

Текст #1
Идентификатор : 8
Формат : Timed Text
Режим смешивания : sbtl
Идентификатор кодека : tx3g
Продолжительность : 1 ч. 55 м.
Вид битрейта : Переменный
Битрейт : 55 бит/сек
Размер потока : 46,3 Кбайт (0%)
Заголовок : Nick Chuban
Язык : Russian
Default : Да
Forced : Нет
Alternate group : 2
Дата кодирования : UTC 2020-02-10 19:16:10
Дата пометки : UTC 2020-02-10 19:16:10
Menus : 13
tagc : public.main-program-content

Текст #2
Идентификатор : 9
Формат : Timed Text
Режим смешивания : sbtl
Идентификатор кодека : tx3g
Продолжительность : 1 ч. 50 м.
Вид битрейта : Переменный
Битрейт : 52 бит/сек
Размер потока : 42,5 Кбайт (0%)
Заголовок : V.Martyshevsky
Язык : Russian
Default : Нет
Forced : Нет
Alternate group : 2
Дата кодирования : UTC 2020-02-10 19:16:10
Дата пометки : UTC 2020-02-10 19:16:10
Menus : 13
tagc : public.auxiliary-content

Текст #3
Идентификатор : 10
Формат : Timed Text
Режим смешивания : sbtl
Идентификатор кодека : tx3g
Продолжительность : 1 ч. 50 м.
Вид битрейта : Переменный
Битрейт : 50 бит/сек
Размер потока : 41,0 Кбайт (0%)
Заголовок : PhysKids
Язык : Russian
Default : Нет
Forced : Нет
Alternate group : 2
Дата кодирования : UTC 2020-02-10 19:16:10
Дата пометки : UTC 2020-02-10 19:16:10
Menus : 13
tagc : public.auxiliary-content

Текст #4
Идентификатор : 11
Формат : Timed Text
Режим смешивания : sbtl
Идентификатор кодека : tx3g
Продолжительность : 1 ч. 52 м.
Вид битрейта : Переменный
Битрейт : 44 бит/сек
Размер потока : 36,4 Кбайт (0%)
Заголовок : Orangeice
Язык : Russian
Default : Нет
Forced : Нет
Alternate group : 2
Дата кодирования : UTC 2020-02-10 19:16:10
Дата пометки : UTC 2020-02-10 19:16:10
Menus : 13
tagc : public.auxiliary-content

Текст #5
Идентификатор : 12
Формат : Timed Text
Режим смешивания : sbtl
Идентификатор кодека : tx3g
Продолжительность : 1 ч. 55 м.
Вид битрейта : Переменный
Битрейт : 39 бит/сек
Размер потока : 33,2 Кбайт (0%)
Язык : English
Default : Нет
Forced : Нет
Alternate group : 2
Дата кодирования : UTC 2020-02-10 19:16:10
Дата пометки : UTC 2020-02-10 19:16:10
Menus : 13
tagc : public.main-program-content

Меню
Идентификатор : 13
Идентификатор кодека : text
Продолжительность : 1 ч. 55 м.
Язык : English
Дата кодирования : UTC 2020-02-10 19:16:10
Дата пометки : UTC 2020-02-10 19:16:10
Menu For : 1,2,3,4,8,9,10,11,12
00:00:00.000 : Chapter 1
00:06:20.213 : Chapter 2
00:13:52.749 : Chapter 3
00:20:45.244 : Chapter 4
00:28:22.034 : Chapter 5
00:33:22.834 : Chapter 6
00:40:00.231 : Chapter 7
00:48:26.195 : Chapter 8
00:57:29.780 : Chapter 9
01:02:45.095 : Chapter 10
01:10:11.290 : Chapter 11
01:18:42.468 : Chapter 12
01:25:36.798 : Chapter 13
01:34:13.106 : Chapter 14
01:41:29.041 : Chapter 15
01:50:35.462 : Chapter 16


Name: Мир, полный чудес
Artist: Todd Haynes
Media Kind: Movie
HD Video: 1080p
Genre: драма
Release Date: 2017-10-13T12:00:00Z
Long Description: История Бена и Роуз, которые живут в разные эпохи и не могут смириться с окружающим их миром. Бен мечтает найти своего отца, а мысли Роуз заняты загадочной актрисой. Однажды судьба толкает их на поиски того самого недостающего их жизни элемента.
Rating: mpaa|PG|200|
Studio: Amazon Studios, Cinetic Media, FilmNation Entertainment, Killer Films, Picrow
Cast: Oakes Fegley, Millicent Simmonds, Julianne Moore, Michelle Williams, Jaden Michael, Cory Michael Smith, Tom Noonan, Amy Hargreaves, James Urbaniak, Hays Wellford, Damian Young, Morgan Turner, Ekaterina Samsonov, Anthony Natale, Sawyer Nunes, Brian Berrebbi, Michael Wren Gucciardo, Tom Waters, Patrick Murney, Connor Moeller, Mackenzie Grace Castle, Derek Chadwick, Raul Torres
Director: Todd Haynes
Producers: John Sloss, Christine Vachon, Pamela Koffler
Executive Producer: Brian Bell
Screenwriters: Brian Selznick, Brian Selznick
Encoding Tool: HandBrake 1.3.1 2020010400


x264 [info]: frame I:961 Avg QP:15.75 size:151008
x264 [info]: frame P:38090 Avg QP:18.39 size: 64120
x264 [info]: frame B:127823 Avg QP:19.79 size: 34883
x264 [info]: consecutive B-frames: 3.7% 4.2% 8.4% 9.7% 11.5% 53.3% 6.0% 1.4% 1.9%
x264 [info]: mb I I16..4: 15.4% 71.1% 13.4%
x264 [info]: mb P I16..4: 3.1% 16.6% 1.1% P16..4: 41.2% 16.6% 10.9% 0.2% 0.1% skip:10.2%
x264 [info]: mb B I16..4: 0.3% 3.5% 0.1% B16..8: 44.5% 9.9% 2.4% direct: 6.7% skip:32.6% L0:48.1% L1:45.8% BI: 6.1%
x264 [info]: 8x8 transform intra:82.6% inter:67.4%
x264 [info]: direct mvs spatial:98.8% temporal:1.2%
x264 [info]: coded y,uvDC,uvAC intra: 80.1% 34.6% 18.4% inter: 31.3% 16.7% 2.9%
x264 [info]: i16 v,h,dc,p: 44% 14% 19% 23%
x264 [info]: i8 v,h,dc,ddl,ddr,vr,hd,vl,hu: 10% 7% 17% 10% 12% 11% 11% 10% 11%
x264 [info]: i4 v,h,dc,ddl,ddr,vr,hd,vl,hu: 31% 7% 9% 8% 10% 9% 9% 8% 8%
x264 [info]: i8c dc,h,v,p: 69% 13% 12% 6%
x264 [info]: Weighted P-Frames: Y:4.3% UV:2.2%
x264 [info]: ref P L0: 50.3% 7.9% 21.5% 10.4% 8.9% 1.0% 0.1%
x264 [info]: ref B L0: 74.0% 17.5% 7.0% 1.5%
x264 [info]: ref B L1: 92.8% 7.2%
x264 [info]: kb/s:8099.19
Скриншоты:


Все одноименные релизы в Клубе
Время раздачи: 24/7 (до появления первых 3-5 скачавших)

Релиз подготовлен для просмотра на Apple TV, iPad, iPhone, iPod Touch.
Для просмотра данного релиза на компьютере с ОС Windows рекомендуется использовать VLC media player
[NNMClub.to]_Wonderstruck.2017.BDRip.1080p.m4v.torrent
 Торрент: Платиновая раздача  Зарегистрирован
 
Скачать


Примагнититься
 Зарегистрирован:   11 Фев 2020 09:58:55
 Размер:   8,49 GB  (
 Рейтинг:    (Голосов: 5)
 Поблагодарили:   49
 Проверка:   Оформление проверено модератором 11 Фев 2020 10:32:32
Как cкачать  ·  Как раздать  ·  Правильно оформить  ·  Поднять ратио!  

_________________
«Всё против нас, только ветер навстречу…».
🍏Apple iMac 21.5 (mid 2011) / Intel Core i5 2.7 GHz / AMD Radeon HD 6770M 512 Mb / 12GB DDR3 / Apple Trackpad, Apple Keyboard / macOS High Sierra 10.13.6 (17G13033)
Весельчак У ®
Модератор Apple
Uploader 100+
Стаж: 6 лет 5 мес.
Сообщений: 6124
Ratio: 161,175
Поблагодарили: 197969
92.98%
Откуда: От Москвы недалеко...
ussr.gif
Спасибо mike7025 за предоставленный материал

_________________
«Всё против нас, только ветер навстречу…».
🍏Apple iMac 21.5 (mid 2011) / Intel Core i5 2.7 GHz / AMD Radeon HD 6770M 512 Mb / 12GB DDR3 / Apple Trackpad, Apple Keyboard / macOS High Sierra 10.13.6 (17G13033)
Показать сообщения:   
Начать новую тему   Ответить на тему    Торрент-трекер NNM-Club -> Аудио и Видео -> Зарубежное видео HD для устройств Apple Часовой пояс: GMT + 3
Страница 1 из 1