Классический форум-трекер
canvas not supported
Нас вместе: 4 118 144

Успеть до полуночи / Midnight Run (1988) BDRip [720p] ATV [MVO]


 
 
RSS
Начать новую тему   Ответить на тему    Торрент-трекер NNM-Club -> Аудио и Видео -> Зарубежное видео HD для устройств Apple
Автор Сообщение
Весельчак У ®
Модератор Apple
Uploader 100+
Стаж: 6 лет 6 мес.
Сообщений: 6375
Ratio: 162,766
Поблагодарили: 205605
92.03%
Откуда: От Москвы недалеко...
ussr.gif
Успеть до полуночи / Midnight Run (1988) BDRip [720p] ATV [MVO]«A tough bounty hunter. A sensitive criminal»
Производство: США / Universal Pictures, City Light Films
Жанр: Триллер, приключения, криминал, комедия, боевик

Режиссер: Мартин Брест
Продюсер: Мартин Брест, Уильям С. Гилмор, Дэн Йорк
Актеры: Роберт Де Ниро, Чарльз Гродин, Яфет Котто, Джон Эштон, Деннис Фарина, Джо Пантольяно, Ричард Форонджи, Роберт Миранда, Джек Кихоу, Уэнди Филлипс

Описание:
Джек Уолш — опытный профессионал, мастер своего дела. Когда-то он служил в полиции, а теперь занимается частным сыском. Его специализация — операции по поимке беглых преступников. В этот раз Джек занят поисками Джонатана Мардукаса, известного под кличкой «Герцог». Мардукас, скромный и интеллигентный бухгалтер, умудрился украсть у мафии 15 миллионов долларов. По договоренности Джек должен поймать «Герцога», заковать в наручники и доставить на самолете из Нью-Йорка в Лос-Анджелес в условленный срок. За это Уолш получит целых сто тысяч долларов.
Для искушенного «охотника за головами» подобное задание — сущий пустяк. Но Джек не учел, что помимо него за Мардукасом активно охотятся гангстеры, ФБР и вероломный коллега-конкурент. Более того, Мардукас панически боится летать и Джеку предстоит везти Герцога через всю Америку.


Возраст: 16+ (зрителям, достигшим 16 лет)
Рейтинг MPAA: R (лицам до 17 лет обязательно присутствие взрослого)

Релиз от: NNMClub

Продолжительность: 02:06:19
Качество видео: BDRip 720p
Перевод: Профессиональный многоголосый, авторский одноголосый
Субтитры: Русские (вшитые, отключаемые), английские (вшитые, отключаемые)

Видео: H.264, 1278х692 (1,85:1), ~11.2 Mbps, 23.976 fps
Аудио#1: AAC, 2.0 ch, 222 Kbps - Русский MVO, R5
Аудио#2: AAC, 2.0 ch, 180 Kbps - Русский MVO, CTC
Аудио#3: AAC, 2.0 ch, 230 Kbps - Русский MVO, Первый канал
Аудио#4: AAC, 2.0 ch, 230 Kbps - Русский DVO, Премьер Мультимедиа
Аудио#5: AAC, 2.0 ch, 223 Kbps - Русский AVO, А. Михалев
Аудио#6: AAC, 2.0 ch, 226 Kbps - Русский AVO, Ю. Сербин
Аудио#7: AAC, 2.0 ch, 223 Kbps - Русский AVO, Л. Володарский
Аудио#8: AAC, 2.0 ch, 227 Kbps - Русский AVO, Е. Гаевский
Аудио#9: AAC, 2.0 ch, 175 Kbps - Український MVO, ICTV
Аудио#10: AAC, 2.0 ch, 173 Kbps - Український MVO, НЛО-TV
Аудио#11: AAC, 2.0 ch, 226 Kbps - English Original
Аудио#12: AC3, 6.0 ch, 448 Kbps - Русский MVO, R5
Аудио#13: AC3, 6.0 ch, 448 Kbps - Русский AVO, А. Михалев
Аудио#14: AC3, 6.0 ch, 448 Kbps - Русский AVO, Ю. Сербин
Аудио#15: AC3, 6.0 ch, 448 Kbps - Русский AVO, Л. Володарский
Аудио#16: AC3, 6.0 ch, 448 Kbps - Русский AVO, Е. Гаевский
Аудио#17: AC3, 6.0 ch, 448 Kbps - English Original

Общее
Полное имя : /Volumes/HDD/Movies/NNMC/Midnight.Run.1988.BDRip.720p.m4v
Формат : MPEG-4
Идентификатор кодека : M4V (M4V /M4A /mp42/isom)
Размер файла : 14,3 Гбайт
Продолжительность : 2 ч. 6 м.
Режим общего битрейта : Переменный
Общий поток : 16,2 Мбит/сек
Название фильма : Успеть До Полуночи (1988)
Исполнитель : Martin Brest
Режиссёр : Martin Brest
Исполнитель : Robert De Niro / Charles Grodin / Dennis Farina / Joe Pantoliano
Сценарист : George Gallo
Продюсер : Martin Brest
Студия-производитель : Universal Pictures
Жанр : Комедии
Тип содержимого : Short Film
Дата записи : UTC 1988-07-20 07:00:00
Дата кодирования : UTC 2020-02-11 08:36:56
Дата пометки : UTC 2020-02-11 08:47:49
Авторское право : © 1988 Universal Studios.
Обложка : Yes
LongDescription : Джек Уолш (Роберт де Ниро) - опытный профессионал, мастер своего дела. Когда-то он служил в полиции, а теперь занимается частным сыском. Его специализация - операции по поимке беглых преступников. В этот раз Джек занят поисками Джонатана Мандукиса (Гродин), известного под кличкой «Герцог». Мандукис, скромный и интеллигентный бухгалтер, умудрился украсть у мафии 15 миллионов долларов. По договоренности Джек должен поймать «Герцога», заковать в наручники и доставить на самолете из Нью-Йорка в Лос-Анджелес в условленный срок. За это Уолш получит целых сто тысяч долларов. Для искушенного «охотника за головами» подобное задание - сущий пустяк. Но Джек не учел, что помимо него за Мандукисом активно охотятся гангстеры, ФБР и вероломный коллега-конкурент. Более того, Мандукис панически боится летать и Джеку предстоит везти Герцога через всю Америку.
AppleStoreCountry : Russia
AppleStoreCatalogID : 750971037
ContentRating : ru-movie|16+|375|

Видео #1
Идентификатор : 1
Формат : AVC
Формат/Информация : Advanced Video Codec
Профиль формата : High@L4.1
Настройки формата : CABAC / 9 Ref Frames
Параметр CABAC формата : Да
Параметр ReFrames формата : 9 кадров
Идентификатор кодека : avc1
Идентификатор кодека/Информация : Advanced Video Coding
Продолжительность : 2 ч. 6 м.
Битрейт : 11,2 Мбит/сек
Ширина : 1278 пикселей
Высота : 692 пикселя
Соотношение сторон : 1,85:1
Режим частоты кадров : Переменный
Частота кадров : 23,976 (24000/1001) кадра/сек
Минимальная частота кадров : 23,810 кадра/сек
Максимальная частота кадров : 24,390 кадра/сек
Цветовое пространство : YUV
Субдискретизация насыщенности : 4:2:0
Битовая глубина : 8 бит
Тип развёртки : Прогрессивная
Бит/(Пиксели*Кадры) : 0.528
Размер потока : 9,87 Гбайт (69%)
Библиотека кодирования : x264 core 152 r2851kMod ba24899
Настройки программы : cabac=1 / ref=9 / deblock=1:-3:-3 / analyse=0x3:0x113 / me=umh / subme=11 / psy=1 / fade_compensate=0.00 / psy_rd=1.00:0.00 / mixed_ref=1 / me_range=48 / chroma_me=1 / trellis=2 / 8x8dct=1 / cqm=0 / deadzone=21,11 / fast_pskip=0 / chroma_qp_offset=-2 / threads=12 / lookahead_threads=3 / sliced_threads=0 / nr=0 / decimate=0 / interlaced=0 / bluray_compat=0 / constrained_intra=0 / bframes=11 / b_pyramid=2 / b_adapt=2 / b_bias=0 / direct=3 / weightb=1 / open_gop=0 / weightp=2 / keyint=240 / keyint_min=23 / scenecut=40 / intra_refresh=0 / rc_lookahead=40 / rc=2pass / mbtree=0 / bitrate=11200 / ratetol=1.0 / qcomp=0.60 / qpmin=0 / qpmax=39 / qpstep=4 / cplxblur=20.0 / qblur=0.5 / vbv_maxrate=50000 / vbv_bufsize=62500 / nal_hrd=none / filler=0 / ip_ratio=1.25 / pb_ratio=1.30 / aq=2:0.90
Язык : English
Дата кодирования : UTC 2020-02-11 08:36:56
Дата пометки : UTC 2020-02-11 08:47:34
Цветовой диапазон : Limited
Основные цвета : BT.709
Характеристики трансфера : BT.709
Коэффициенты матрицы : BT.709
Menus : 21,22
Codec configuration box : avcC

Видео #2
Идентификатор : 22
Формат : JPEG
Идентификатор кодека : jpeg
Продолжительность : 2 ч. 6 м.
Вид битрейта : Переменный
Битрейт : 681 бит/сек
Ширина : 640 пикселей
Высота : 346 пикселей
Соотношение сторон : 1,85:1
Режим частоты кадров : Переменный
Частота кадров : 0,002 кадр/сек
Минимальная частота кадров : 0,001 кадр/сек
Максимальная частота кадров : 0,002 кадр/сек
Цветовое пространство : YUV
Субдискретизация насыщенности : 4:2:0
Битовая глубина : 8 бит
Метод сжатия : С потерями
Бит/(Пиксели*Кадры) : 1.538
Размер потока : 499 Кбайт (0%)
Язык : English
Default : Нет
Дата кодирования : UTC 2020-02-11 08:47:47
Дата пометки : UTC 2020-02-11 08:47:47
Menu For : 1
ColorSpace_ICC : RGB

Аудио #1
Идентификатор : 2
Формат : AAC LC
Формат/Информация : Advanced Audio Codec Low Complexity
Идентификатор кодека : mp4a-40-2
Продолжительность : 2 ч. 6 м.
Вид битрейта : Переменный
Битрейт : 222 Кбит/сек
Максимальный битрейт : 380 Кбит/сек
Каналы : 2 канала
Channel layout : L R
Частота : 48,0 КГц
Частота кадров : 46,875 кадров/сек (1024 SPF)
Метод сжатия : С потерями
Размер потока : 201 Мбайт (1%)
Язык : Russian
Default : Да
Alternate group : 1
Дата кодирования : UTC 2020-02-11 08:36:56
Дата пометки : UTC 2020-02-11 08:47:34
Fallback From : 13
tagc : public.main-program-content

Аудио #2
Идентификатор : 3
Формат : AAC LC
Формат/Информация : Advanced Audio Codec Low Complexity
Идентификатор кодека : mp4a-40-2
Продолжительность : 2 ч. 6 м.
Вид битрейта : Переменный
Битрейт : 180 Кбит/сек
Максимальный битрейт : 202 Кбит/сек
Каналы : 2 канала
Channel layout : L R
Частота : 48,0 КГц
Частота кадров : 46,875 кадров/сек (1024 SPF)
Метод сжатия : С потерями
Размер потока : 163 Мбайт (1%)
Язык : Russian
Default : Нет
Alternate group : 1
Дата кодирования : UTC 2020-02-11 08:36:56
Дата пометки : UTC 2020-02-11 08:47:34
tagc : public.auxiliary-content

Аудио #3
Идентификатор : 4
Формат : AAC LC
Формат/Информация : Advanced Audio Codec Low Complexity
Идентификатор кодека : mp4a-40-2
Продолжительность : 2 ч. 6 м.
Вид битрейта : Переменный
Битрейт : 230 Кбит/сек
Максимальный битрейт : 350 Кбит/сек
Каналы : 2 канала
Channel layout : L R
Частота : 48,0 КГц
Частота кадров : 46,875 кадров/сек (1024 SPF)
Метод сжатия : С потерями
Размер потока : 208 Мбайт (1%)
Язык : Russian
Default : Нет
Alternate group : 1
Дата кодирования : UTC 2020-02-11 08:36:56
Дата пометки : UTC 2020-02-11 08:47:34
tagc : public.auxiliary-content

Аудио #4
Идентификатор : 5
Формат : AAC LC
Формат/Информация : Advanced Audio Codec Low Complexity
Идентификатор кодека : mp4a-40-2
Продолжительность : 2 ч. 6 м.
Вид битрейта : Переменный
Битрейт : 230 Кбит/сек
Максимальный битрейт : 315 Кбит/сек
Каналы : 2 канала
Channel layout : L R
Частота : 48,0 КГц
Частота кадров : 46,875 кадров/сек (1024 SPF)
Метод сжатия : С потерями
Размер потока : 208 Мбайт (1%)
Язык : Russian
Default : Нет
Alternate group : 1
Дата кодирования : UTC 2020-02-11 08:36:56
Дата пометки : UTC 2020-02-11 08:47:34
tagc : public.auxiliary-content

Аудио #5
Идентификатор : 6
Формат : AAC LC
Формат/Информация : Advanced Audio Codec Low Complexity
Идентификатор кодека : mp4a-40-2
Продолжительность : 2 ч. 6 м.
Вид битрейта : Переменный
Битрейт : 223 Кбит/сек
Максимальный битрейт : 377 Кбит/сек
Каналы : 2 канала
Channel layout : L R
Частота : 48,0 КГц
Частота кадров : 46,875 кадров/сек (1024 SPF)
Метод сжатия : С потерями
Размер потока : 201 Мбайт (1%)
Язык : Russian
Default : Нет
Alternate group : 1
Дата кодирования : UTC 2020-02-11 08:36:56
Дата пометки : UTC 2020-02-11 08:47:34
Fallback From : 14
tagc : public.auxiliary-content

Аудио #6
Идентификатор : 7
Формат : AAC LC
Формат/Информация : Advanced Audio Codec Low Complexity
Идентификатор кодека : mp4a-40-2
Продолжительность : 2 ч. 6 м.
Вид битрейта : Переменный
Битрейт : 226 Кбит/сек
Максимальный битрейт : 377 Кбит/сек
Каналы : 2 канала
Channel layout : L R
Частота : 48,0 КГц
Частота кадров : 46,875 кадров/сек (1024 SPF)
Метод сжатия : С потерями
Размер потока : 204 Мбайт (1%)
Язык : Russian
Default : Нет
Alternate group : 1
Дата кодирования : UTC 2020-02-11 08:36:56
Дата пометки : UTC 2020-02-11 08:47:34
Fallback From : 15
tagc : public.auxiliary-content

Аудио #7
Идентификатор : 8
Формат : AAC LC
Формат/Информация : Advanced Audio Codec Low Complexity
Идентификатор кодека : mp4a-40-2
Продолжительность : 2 ч. 6 м.
Вид битрейта : Переменный
Битрейт : 223 Кбит/сек
Максимальный битрейт : 378 Кбит/сек
Каналы : 2 канала
Channel layout : L R
Частота : 48,0 КГц
Частота кадров : 46,875 кадров/сек (1024 SPF)
Метод сжатия : С потерями
Размер потока : 201 Мбайт (1%)
Язык : Russian
Default : Нет
Alternate group : 1
Дата кодирования : UTC 2020-02-11 08:36:56
Дата пометки : UTC 2020-02-11 08:47:34
Fallback From : 16
tagc : public.auxiliary-content

Аудио #8
Идентификатор : 9
Формат : AAC LC
Формат/Информация : Advanced Audio Codec Low Complexity
Идентификатор кодека : mp4a-40-2
Продолжительность : 2 ч. 6 м.
Вид битрейта : Переменный
Битрейт : 227 Кбит/сек
Максимальный битрейт : 378 Кбит/сек
Каналы : 2 канала
Channel layout : L R
Частота : 48,0 КГц
Частота кадров : 46,875 кадров/сек (1024 SPF)
Метод сжатия : С потерями
Размер потока : 205 Мбайт (1%)
Язык : Russian
Default : Нет
Alternate group : 1
Дата кодирования : UTC 2020-02-11 08:36:56
Дата пометки : UTC 2020-02-11 08:47:34
Fallback From : 17
tagc : public.auxiliary-content

Аудио #9
Идентификатор : 10
Формат : AAC LC
Формат/Информация : Advanced Audio Codec Low Complexity
Идентификатор кодека : mp4a-40-2
Продолжительность : 2 ч. 6 м.
Вид битрейта : Переменный
Битрейт : 175 Кбит/сек
Максимальный битрейт : 191 Кбит/сек
Каналы : 2 канала
Channel layout : L R
Частота : 48,0 КГц
Частота кадров : 46,875 кадров/сек (1024 SPF)
Метод сжатия : С потерями
Размер потока : 158 Мбайт (1%)
Язык : Ukrainian
Default : Нет
Alternate group : 1
Дата кодирования : UTC 2020-02-11 08:36:56
Дата пометки : UTC 2020-02-11 08:47:34
tagc : public.main-program-content

Аудио #10
Идентификатор : 11
Формат : AAC LC
Формат/Информация : Advanced Audio Codec Low Complexity
Идентификатор кодека : mp4a-40-2
Продолжительность : 2 ч. 6 м.
Вид битрейта : Переменный
Битрейт : 173 Кбит/сек
Максимальный битрейт : 195 Кбит/сек
Каналы : 2 канала
Channel layout : L R
Частота : 48,0 КГц
Частота кадров : 46,875 кадров/сек (1024 SPF)
Метод сжатия : С потерями
Размер потока : 156 Мбайт (1%)
Язык : Ukrainian
Default : Нет
Alternate group : 1
Дата кодирования : UTC 2020-02-11 08:36:56
Дата пометки : UTC 2020-02-11 08:47:34
tagc : public.auxiliary-content

Аудио #11
Идентификатор : 12
Формат : AAC LC
Формат/Информация : Advanced Audio Codec Low Complexity
Идентификатор кодека : mp4a-40-2
Продолжительность : 2 ч. 6 м.
Вид битрейта : Переменный
Битрейт : 226 Кбит/сек
Максимальный битрейт : 378 Кбит/сек
Каналы : 2 канала
Channel layout : L R
Частота : 48,0 КГц
Частота кадров : 46,875 кадров/сек (1024 SPF)
Метод сжатия : С потерями
Размер потока : 204 Мбайт (1%)
Язык : English
Default : Нет
Alternate group : 1
Дата кодирования : UTC 2020-02-11 08:36:56
Дата пометки : UTC 2020-02-11 08:47:34
Fallback From : 18
tagc : public.main-program-content

Аудио #12
Идентификатор : 13
Формат : AC-3
Формат/Информация : Audio Coding 3
Коммерческое название : Dolby Digital
Идентификатор кодека : ac-3
Продолжительность : 2 ч. 6 м.
Вид битрейта : Постоянный
Битрейт : 448 Кбит/сек
Каналы : 6 каналов
Channel layout : L R C LFE Ls Rs
Частота : 48,0 КГц
Частота кадров : 31,250 кадров/сек (1536 SPF)
Метод сжатия : С потерями
Размер потока : 405 Мбайт (3%)
Язык : Russian
Service kind : Complete Main
Default : Inherited From: 2
Alternate group : 1
Дата кодирования : UTC 2020-02-11 08:36:56
Дата пометки : UTC 2020-02-11 08:47:34
Fallback To : 2
tagc : public.main-program-content

Аудио #13
Идентификатор : 14
Формат : AC-3
Формат/Информация : Audio Coding 3
Коммерческое название : Dolby Digital
Идентификатор кодека : ac-3
Продолжительность : 2 ч. 6 м.
Вид битрейта : Постоянный
Битрейт : 448 Кбит/сек
Каналы : 6 каналов
Channel layout : L R C LFE Ls Rs
Частота : 48,0 КГц
Частота кадров : 31,250 кадров/сек (1536 SPF)
Метод сжатия : С потерями
Размер потока : 405 Мбайт (3%)
Язык : Russian
Service kind : Complete Main
Default : Нет
Alternate group : 1
Дата кодирования : UTC 2020-02-11 08:36:56
Дата пометки : UTC 2020-02-11 08:47:34
Fallback To : 6
tagc : public.auxiliary-content

Аудио #14
Идентификатор : 15
Формат : AC-3
Формат/Информация : Audio Coding 3
Коммерческое название : Dolby Digital
Идентификатор кодека : ac-3
Продолжительность : 2 ч. 6 м.
Вид битрейта : Постоянный
Битрейт : 448 Кбит/сек
Каналы : 6 каналов
Channel layout : L R C LFE Ls Rs
Частота : 48,0 КГц
Частота кадров : 31,250 кадров/сек (1536 SPF)
Метод сжатия : С потерями
Размер потока : 405 Мбайт (3%)
Язык : Russian
Service kind : Complete Main
Default : Нет
Alternate group : 1
Дата кодирования : UTC 2020-02-11 08:36:56
Дата пометки : UTC 2020-02-11 08:47:34
Fallback To : 7
tagc : public.auxiliary-content

Аудио #15
Идентификатор : 16
Формат : AC-3
Формат/Информация : Audio Coding 3
Коммерческое название : Dolby Digital
Идентификатор кодека : ac-3
Продолжительность : 2 ч. 6 м.
Вид битрейта : Постоянный
Битрейт : 448 Кбит/сек
Каналы : 6 каналов
Channel layout : L R C LFE Ls Rs
Частота : 48,0 КГц
Частота кадров : 31,250 кадров/сек (1536 SPF)
Метод сжатия : С потерями
Размер потока : 405 Мбайт (3%)
Язык : Russian
Service kind : Complete Main
Default : Нет
Alternate group : 1
Дата кодирования : UTC 2020-02-11 08:36:56
Дата пометки : UTC 2020-02-11 08:47:34
Fallback To : 8
tagc : public.auxiliary-content

Аудио #16
Идентификатор : 17
Формат : AC-3
Формат/Информация : Audio Coding 3
Коммерческое название : Dolby Digital
Идентификатор кодека : ac-3
Продолжительность : 2 ч. 6 м.
Вид битрейта : Постоянный
Битрейт : 448 Кбит/сек
Каналы : 6 каналов
Channel layout : L R C LFE Ls Rs
Частота : 48,0 КГц
Частота кадров : 31,250 кадров/сек (1536 SPF)
Метод сжатия : С потерями
Размер потока : 405 Мбайт (3%)
Язык : Russian
Service kind : Complete Main
Default : Нет
Alternate group : 1
Дата кодирования : UTC 2020-02-11 08:36:56
Дата пометки : UTC 2020-02-11 08:47:34
Fallback To : 9
tagc : public.auxiliary-content

Аудио #17
Идентификатор : 18
Формат : AC-3
Формат/Информация : Audio Coding 3
Коммерческое название : Dolby Digital
Идентификатор кодека : ac-3
Продолжительность : 2 ч. 6 м.
Вид битрейта : Постоянный
Битрейт : 448 Кбит/сек
Каналы : 6 каналов
Channel layout : L R C LFE Ls Rs
Частота : 48,0 КГц
Частота кадров : 31,250 кадров/сек (1536 SPF)
Метод сжатия : С потерями
Размер потока : 405 Мбайт (3%)
Язык : English
Service kind : Complete Main
Default : Нет
Alternate group : 1
Дата кодирования : UTC 2020-02-11 08:36:56
Дата пометки : UTC 2020-02-11 08:47:34
Fallback To : 12
tagc : public.main-program-content

Текст #1
Идентификатор : 19
Формат : Timed Text
Режим смешивания : sbtl
Идентификатор кодека : tx3g
Продолжительность : 2 ч. 2 м.
Вид битрейта : Переменный
Битрейт : 115 бит/сек
Размер потока : 103 Кбайт (0%)
Язык : Russian
Default : Да
Forced : Нет
Alternate group : 2
Дата кодирования : UTC 2020-02-11 08:36:56
Дата пометки : UTC 2020-02-11 08:47:34
tagc : public.main-program-content

Текст #2
Идентификатор : 20
Формат : Timed Text
Режим смешивания : sbtl
Идентификатор кодека : tx3g
Продолжительность : 2 ч. 2 м.
Вид битрейта : Переменный
Битрейт : 71 бит/сек
Размер потока : 63,3 Кбайт (0%)
Язык : English
Default : Нет
Forced : Нет
Alternate group : 2
Дата кодирования : UTC 2020-02-11 08:36:56
Дата пометки : UTC 2020-02-11 08:47:34
tagc : public.main-program-content

Меню
Идентификатор : 21
Идентификатор кодека : text
Продолжительность : 2 ч. 6 м.
Язык : English
Дата кодирования : UTC 2020-02-11 08:47:34
Дата пометки : UTC 2020-02-11 08:47:34
Menu For : 1
00:00:00.000 : Chapter 1
00:13:56.500 : Chapter 2
00:22:28.430 : Chapter 3
00:32:16.351 : Chapter 4
00:41:54.260 : Chapter 5
00:54:40.277 : Chapter 6
01:05:56.117 : Chapter 7
01:18:18.568 : Chapter 8
01:25:43.970 : Chapter 9
01:33:32.479 : Chapter 10
01:44:13.287 : Chapter 11
01:52:50.845 : Chapter 12


Name: Успеть До Полуночи (1988)
Artist: Martin Brest
Media Kind: Movie
Genre: Комедии
Release Date: 1988-07-20T07:00:00Z
Long Description: Джек Уолш (Роберт де Ниро) - опытный профессионал, мастер своего дела. Когда-то он служил в полиции, а теперь занимается частным сыском. Его специализация - операции по поимке беглых преступников. В этот раз Джек занят поисками Джонатана Мандукиса (Гродин), известного под кличкой «Герцог». Мандукис, скромный и интеллигентный бухгалтер, умудрился украсть у мафии 15 миллионов долларов. По договоренности Джек должен поймать «Герцога», заковать в наручники и доставить на самолете из Нью-Йорка в Лос-Анджелес в условленный срок. За это Уолш получит целых сто тысяч долларов. Для искушенного «охотника за головами» подобное задание - сущий пустяк. Но Джек не учел, что помимо него за Мандукисом активно охотятся гангстеры, ФБР и вероломный коллега-конкурент. Более того, Мандукис панически боится летать и Джеку предстоит везти Герцога через всю Америку.
Rating: ru-movie|16+|375|
Studio: Universal Pictures
Cast: Robert De Niro, Charles Grodin, Dennis Farina, Joe Pantoliano
Director: Martin Brest
Producers: Martin Brest
Screenwriters: George Gallo
Copyright: © 1988 Universal Studios.
content ID: 750971037
iTunes Country: 143469

Скриншоты:


Все одноименные релизы в Клубе
Время раздачи: 24/7 (до появления первых 3-5 скачавших)

Релиз подготовлен для просмотра на Apple TV, iPad, iPhone, iPod Touch.
Для просмотра данного релиза на компьютере с ОС Windows рекомендуется использовать VLC media player
[NNMClub.to]_Midnight.Run.1988.BDRip.720p.m4v.torrent
 Торрент: Платиновая раздача  Зарегистрирован
 
Скачать


Примагнититься
 Зарегистрирован:   11 Фев 2020 12:14:34
 Размер:   14,3 GB  (
 Рейтинг:    (Голосов: 9)
 Поблагодарили:   40
 Проверка:   Оформление проверено модератором 11 Фев 2020 21:28:34
Как cкачать  ·  Как раздать  ·  Правильно оформить  ·  Поднять ратио!  

_________________
«Всё против нас, только ветер навстречу…».
🍏Apple iMac 21.5 (mid 2011) / Intel Core i5 2.7 GHz / AMD Radeon HD 6770M 512 Mb / 12GB DDR3 / Apple Trackpad, Apple Keyboard / macOS High Sierra 10.13.6 (17G13033)
Deathwalker
Стаж: 13 лет 3 мес.
Сообщений: 75
Ratio: 21,17
Поблагодарили: 110
92.04%
ussr.gif
Шикарный подбор озвучки.
tanhorn
Стаж: 10 лет 1 мес.
Сообщений: 634
Ratio: 37,41
27.93%
Откуда: Capital
russia.gif
Озвучка - да.
Предпочитаю все равно оригинал.
Но! Спасибо за хорошее кино!

_________________
Ergo bimbanus
Показать сообщения:   
Начать новую тему   Ответить на тему    Торрент-трекер NNM-Club -> Аудио и Видео -> Зарубежное видео HD для устройств Apple Часовой пояс: GMT + 3
Страница 1 из 1