Классический форум-трекер
canvas not supported
Нас вместе: 4 094 426

Жадность / Greedy (1994) BDRip [1080p] ATV


 
 
RSS
Начать новую тему   Ответить на тему    Торрент-трекер NNM-Club -> Аудио и Видео -> Зарубежное видео HD для устройств Apple
Автор Сообщение
Весельчак У ®
Модератор Apple
Стаж: 6 лет 2 мес.
Сообщений: 4867
Ratio: 140,748
Поблагодарили: 158291
95.44%
Откуда: От Москвы недалеко...
ussr.gif
Жадность / Greedy (1994) BDRip [1080p] ATV«Where there's a will...there's a relative»
Производство: США / Imagine Entertainment
Жанр: Комедия

Режиссер: Джонатан Линн
Продюсер: Брайан Грейзер, Джордж Фолси мл., Дэвид Т. Френдли
Актеры: Майкл Дж. Фокс, Кирк Дуглас, Нэнси Трэвис, Оливия д’Або, Фил Хартмен, Эд Бегли мл., Джер Бернс, Коллин Кэмп, Боб Бэлабан, Джойс Хайзер

Описание:
Жадность часто толкает на неблаговидные поступки в погоне за вожделенными деньгами. Это отлично понимает старый лукавый миллионер Джо МакТиг. У него нет своих детей и прямых наследников. Зато, есть куча дальних и близких родственников, стаей кружащихся вокруг него в надежде отхватить лакомый кусок от дядюшкиного наследства.
Старик играет с ними, как кошка с мышками. Он нанимает молоденькую симпатичную сиделку Молли Ричардсон и явно к ней благоволит. В стане родственников смятение. Молли — прямая и явная угроза их планам. Надо действовать!


Возраст: 0+ (для любой зрительской аудитории)
Рейтинг MPAA: PG-13 (детям до 13 лет просмотр нежелателен)

Рклиз от: NNMClub

Продолжительность: 01:52:21
Качество видео: BDRip 1080р
Перевод: Профессиональный многоголосый, авторский одноголосый
Субтитры: Русские (вшитые, отключаемые), английские (вшитые, отключаемые)

Видео: H.264, 1920x1040 (1,85:1), ~8100 kbps, 23.976 fps
Аудио#1: AAC, 2.0 ch, 181 Kbps - Русский MVO, Blu-Ray EUR/R5
Аудио#2: AAC, 2.0 ch, 230 Kbps - Русский AVO, Юрий Живов
Аудио#3: AAC, 2.0 ch, 230 Kbps - English Original
Аудио#4: AC3, 6.0 ch, 640 Kbps - Русский AVO, Юрий Живов
Аудио#5: AC3, 6.0 ch, 640 Kbps - English Original

Общее
Полное имя : /Volumes/HDD/Movies/NNMC/Greedy.1994.BDRip.1080p.m4v
Формат : MPEG-4
Профиль формата : Base Media / Version 2
Идентификатор кодека : mp42 (isom/iso2/avc1/mp41)
Размер файла : 7,88 Гбайт
Продолжительность : 1 ч. 52 м.
Режим общего битрейта : Переменный
Общий поток : 10,0 Мбит/сек
Название фильма : Жадность
Исполнитель : Jonathan Lynn
Композитор : Randy Edelman
Режиссёр : Jonathan Lynn
Исполнитель : Michael J. Fox / Kirk Douglas / Nancy Travis / Olivia d'Abo / Phil Hartman / Ed Begley Jr. / Colleen Camp / Mary Ellen Trainor / Siobhan Fallon Hogan / Jere Burns / Bob Balaban / Joyce Hyser / Kevin McCarthy / Khandi Alexander / Jonathan Lynn / Austin Pendleton / Adam Hendershott / Eric Lloyd / Kirsten Dunst / Lisa Bradley / Rita Gomez / John Lafayette
Сценарист : Lowell Ganz / Babaloo Mandel
Продюсер : Brian Grazer
Исполнительный продюсер : George Folsey Jr., David T. Friendly
Студия-производитель : Imagine Entertainment, Universal Pictures
Жанр : комедия
Тип содержимого : Short Film
Дата записи : UTC 1994-03-04 12:00:00
Дата кодирования : UTC 2020-02-12 02:09:54
Дата пометки : UTC 2020-02-12 15:49:59
Программа кодирования : HandBrake 1.3.1 2020010400
Обложка : Yes
LongDescription : Жадность часто толкает на неблаговидные поступки в погоне за вожделенными деньгами. Это отлично понимает старый лукавый миллионер Джо МакТиг. У него нет своих детей и прямых наследников. Зато, есть куча дальних и близких родственников, стаей кружащихся вокруг него в надежде отхватить лакомый кусок от дядюшкиного наследства.
ContentRating : mpaa|PG-13|300|

Видео #1
Идентификатор : 1
Формат : AVC
Формат/Информация : Advanced Video Codec
Профиль формата : High@L4.1
Настройки формата : CABAC / 4 Ref Frames
Параметр CABAC формата : Да
Параметр ReFrames формата : 4 кадра
Идентификатор кодека : avc1
Идентификатор кодека/Информация : Advanced Video Coding
Продолжительность : 1 ч. 52 м.
Битрейт : 8100 Кбит/сек
Ширина : 1920 пикселей
Высота : 1040 пикселей
Соотношение сторон : 1,85:1
Режим частоты кадров : Переменный
Частота кадров : 23,976 (24000/1001) кадра/сек
Минимальная частота кадров : 23,974 кадра/сек
Максимальная частота кадров : 23,981 кадра/сек
Цветовое пространство : YUV
Субдискретизация насыщенности : 4:2:0
Битовая глубина : 8 бит
Тип развёртки : Прогрессивная
Бит/(Пиксели*Кадры) : 0.169
Размер потока : 6,35 Гбайт (81%)
Библиотека кодирования : x264 core 157 r2935 545de2f
Настройки программы : cabac=1 / ref=4 / deblock=1:-1:-1 / analyse=0x3:0x133 / me=umh / subme=10 / psy=1 / psy_rd=1.00:0.15 / mixed_ref=1 / me_range=24 / chroma_me=1 / trellis=2 / 8x8dct=1 / cqm=0 / deadzone=21,11 / fast_pskip=1 / chroma_qp_offset=-3 / threads=6 / lookahead_threads=1 / sliced_threads=0 / nr=0 / decimate=1 / interlaced=0 / bluray_compat=0 / constrained_intra=0 / bframes=8 / b_pyramid=2 / b_adapt=2 / b_bias=0 / direct=3 / weightb=1 / open_gop=0 / weightp=2 / keyint=240 / keyint_min=24 / scenecut=40 / intra_refresh=0 / rc_lookahead=60 / rc=2pass / mbtree=1 / bitrate=8100 / ratetol=1.0 / qcomp=0.60 / qpmin=0 / qpmax=69 / qpstep=4 / cplxblur=20.0 / qblur=0.5 / vbv_maxrate=62500 / vbv_bufsize=78125 / nal_hrd=none / filler=0 / ip_ratio=1.40 / aq=1:1.00
Язык : English
Дата кодирования : UTC 2020-02-12 02:09:54
Дата пометки : UTC 2020-02-12 02:09:54
Цветовой диапазон : Limited
Основные цвета : BT.709
Характеристики трансфера : BT.709
Коэффициенты матрицы : BT.709
Menus : 9,14
Codec configuration box : avcC

Видео #2
Идентификатор : 14
Формат : JPEG
Идентификатор кодека : jpeg
Продолжительность : 1 ч. 52 м.
Вид битрейта : Переменный
Битрейт : 1286 бит/сек
Ширина : 640 пикселей
Высота : 346 пикселей
Соотношение сторон : 1,85:1
Режим частоты кадров : Переменный
Частота кадров : 0,003 кадр/сек
Минимальная частота кадров : 0,001 кадр/сек
Максимальная частота кадров : 0,008 кадр/сек
Цветовое пространство : YUV
Субдискретизация насыщенности : 4:2:0
Битовая глубина : 8 бит
Метод сжатия : С потерями
Бит/(Пиксели*Кадры) : 1.936
Размер потока : 942 Кбайт (0%)
Язык : English
Default : Нет
Дата кодирования : UTC 2020-02-12 15:49:57
Дата пометки : UTC 2020-02-12 15:49:58
Menu For : 1
ColorSpace_ICC : RGB

Аудио #1
Идентификатор : 2
Формат : AAC LC
Формат/Информация : Advanced Audio Codec Low Complexity
Идентификатор кодека : mp4a-40-2
Продолжительность : 1 ч. 52 м.
Вид битрейта : Переменный
Битрейт : 181 Кбит/сек
Максимальный битрейт : 217 Кбит/сек
Каналы : 2 канала
Channel layout : L R
Частота : 48,0 КГц
Частота кадров : 46,875 кадров/сек (1024 SPF)
Метод сжатия : С потерями
Размер потока : 145 Мбайт (2%)
Заголовок : MVO [Blu-Ray EUR/R5]
Язык : Russian
Default : Да
Alternate group : 1
Дата кодирования : UTC 2020-02-12 02:09:54
Дата пометки : UTC 2020-02-12 02:09:54
Menus : 9
tagc : public.auxiliary-content

Аудио #2
Идентификатор : 5
Формат : AAC LC
Формат/Информация : Advanced Audio Codec Low Complexity
Идентификатор кодека : mp4a-40-2
Продолжительность : 1 ч. 52 м.
Вид битрейта : Переменный
Битрейт : 230 Кбит/сек
Максимальный битрейт : 383 Кбит/сек
Каналы : 2 канала
Channel layout : L R
Частота : 48,0 КГц
Частота кадров : 46,875 кадров/сек (1024 SPF)
Метод сжатия : С потерями
Размер потока : 185 Мбайт (2%)
Заголовок : AVO [Юрий Живов]
Язык : Russian
Default : Нет
Alternate group : 1
Дата кодирования : UTC 2020-02-12 02:09:54
Дата пометки : UTC 2020-02-12 02:09:54
Fallback From : 7
Menus : 9
tagc : public.main-program-content

Аудио #3
Идентификатор : 6
Формат : AAC LC
Формат/Информация : Advanced Audio Codec Low Complexity
Идентификатор кодека : mp4a-40-2
Продолжительность : 1 ч. 52 м.
Вид битрейта : Переменный
Битрейт : 230 Кбит/сек
Максимальный битрейт : 424 Кбит/сек
Каналы : 2 канала
Channel layout : L R
Частота : 48,0 КГц
Частота кадров : 46,875 кадров/сек (1024 SPF)
Метод сжатия : С потерями
Размер потока : 185 Мбайт (2%)
Заголовок : Original
Язык : English
Default : Нет
Alternate group : 1
Дата кодирования : UTC 2020-02-12 02:09:54
Дата пометки : UTC 2020-02-12 02:09:54
Fallback From : 8
Menus : 9
tagc : public.main-program-content

Аудио #4
Идентификатор : 7
Формат : AC-3
Формат/Информация : Audio Coding 3
Коммерческое название : Dolby Digital
Идентификатор кодека : ac-3
Продолжительность : 1 ч. 52 м.
Вид битрейта : Постоянный
Битрейт : 640 Кбит/сек
Каналы : 6 каналов
Channel layout : L R C LFE Ls Rs
Частота : 48,0 КГц
Частота кадров : 31,250 кадров/сек (1536 SPF)
Метод сжатия : С потерями
Размер потока : 514 Мбайт (6%)
Заголовок : AVO [Юрий Живов]
Язык : Russian
Service kind : Complete Main
Default : Нет
Alternate group : 1
Дата кодирования : UTC 2020-02-12 02:09:54
Дата пометки : UTC 2020-02-12 02:09:54
Fallback To : 5
tagc : public.main-program-content

Аудио #5
Идентификатор : 8
Формат : AC-3
Формат/Информация : Audio Coding 3
Коммерческое название : Dolby Digital
Идентификатор кодека : ac-3
Продолжительность : 1 ч. 52 м.
Вид битрейта : Постоянный
Битрейт : 640 Кбит/сек
Каналы : 6 каналов
Channel layout : L R C LFE Ls Rs
Частота : 48,0 КГц
Частота кадров : 31,250 кадров/сек (1536 SPF)
Метод сжатия : С потерями
Размер потока : 514 Мбайт (6%)
Заголовок : Original
Язык : English
Service kind : Complete Main
Default : Нет
Alternate group : 1
Дата кодирования : UTC 2020-02-12 02:09:54
Дата пометки : UTC 2020-02-12 02:09:54
Fallback To : 6
tagc : public.main-program-content

Текст #1
Идентификатор : 10
Формат : Timed Text
Режим смешивания : sbtl
Идентификатор кодека : tx3g
Продолжительность : 1 ч. 48 м.
Вид битрейта : Переменный
Битрейт : 94 бит/сек
Размер потока : 74,6 Кбайт (0%)
Язык : English
Default : Да
Forced : Нет
Alternate group : 2
Дата кодирования : UTC 2020-02-12 15:49:44
Дата пометки : UTC 2020-02-12 15:49:44
tagc : public.main-program-content

Текст #2
Идентификатор : 11
Формат : Timed Text
Режим смешивания : sbtl
Идентификатор кодека : tx3g
Продолжительность : 1 ч. 48 м.
Вид битрейта : Переменный
Битрейт : 85 бит/сек
Размер потока : 67,9 Кбайт (0%)
Язык : English
Default : Нет
Forced : Нет
Alternate group : 2
Дата кодирования : UTC 2020-02-12 15:49:44
Дата пометки : UTC 2020-02-12 15:49:44
tagc : public.auxiliary-content

Текст #3
Идентификатор : 12
Формат : Timed Text
Режим смешивания : sbtl
Идентификатор кодека : tx3g
Продолжительность : 1 ч. 48 м.
Вид битрейта : Переменный
Битрейт : 81 бит/сек
Размер потока : 64,3 Кбайт (0%)
Язык : English
Default : Нет
Forced : Нет
Alternate group : 2
Дата кодирования : UTC 2020-02-12 15:49:44
Дата пометки : UTC 2020-02-12 15:49:44
tagc : public.auxiliary-content

Текст #4
Идентификатор : 13
Формат : Timed Text
Режим смешивания : sbtl
Идентификатор кодека : tx3g
Продолжительность : 1 ч. 48 м.
Вид битрейта : Переменный
Битрейт : 123 бит/сек
Размер потока : 97,6 Кбайт (0%)
Язык : Russian
Default : Нет
Forced : Нет
Alternate group : 2
Дата кодирования : UTC 2020-02-12 15:49:44
Дата пометки : UTC 2020-02-12 15:49:44
tagc : public.main-program-content

Меню
Идентификатор : 9
Идентификатор кодека : text
Продолжительность : 1 ч. 52 м.
Язык : English
Дата кодирования : UTC 2020-02-12 02:09:54
Дата пометки : UTC 2020-02-12 02:09:54
Menu For : 1,2,5,6
00:00:00.000 : Chapter 1
00:03:01.598 : Chapter 2
00:08:06.528 : Chapter 3
00:13:30.310 : Chapter 4
00:15:35.476 : Chapter 5
00:22:25.135 : Chapter 6
00:34:03.333 : Chapter 7
00:38:38.024 : Chapter 8
00:47:57.375 : Chapter 9
00:50:43.499 : Chapter 10
01:02:23.365 : Chapter 11
01:05:39.978 : Chapter 12
01:14:27.088 : Chapter 13
01:20:32.369 : Chapter 14
01:26:36.817 : Chapter 15
01:35:36.064 : Chapter 16
01:42:23.137 : Chapter 17
01:48:41.473 : Chapter 18


Name: Жадность
Artist: Jonathan Lynn
Media Kind: Movie
HD Video: 1080p
Genre: комедия
Release Date: 1994-03-04T12:00:00Z
Long Description: Жадность часто толкает на неблаговидные поступки в погоне за вожделенными деньгами. Это отлично понимает старый лукавый миллионер Джо МакТиг. У него нет своих детей и прямых наследников. Зато, есть куча дальних и близких родственников, стаей кружащихся вокруг него в надежде отхватить лакомый кусок от дядюшкиного наследства.
Rating: mpaa|PG-13|300|
Studio: Imagine Entertainment, Universal Pictures
Cast: Michael J. Fox, Kirk Douglas, Nancy Travis, Olivia d'Abo, Phil Hartman, Ed Begley Jr., Colleen Camp, Mary Ellen Trainor, Siobhan Fallon Hogan, Jere Burns, Bob Balaban, Joyce Hyser, Kevin McCarthy, Khandi Alexander, Jonathan Lynn, Austin Pendleton, Adam Hendershott, Eric Lloyd, Kirsten Dunst, Lisa Bradley, Rita Gomez, John Lafayette
Director: Jonathan Lynn
Producers: Brian Grazer
Executive Producer: George Folsey Jr., David T. Friendly
Screenwriters: Lowell Ganz, Babaloo Mandel
Encoding Tool: HandBrake 1.3.1 2020010400
Composer: Randy Edelman


x264 [info]: frame I:1270 Avg QP:20.66 size:194077
x264 [info]: frame P:31953 Avg QP:23.13 size: 73725
x264 [info]: frame B:128418 Avg QP:25.36 size: 32866
x264 [info]: consecutive B-frames: 1.3% 1.1% 6.1% 12.1% 17.5% 56.6% 4.0% 0.8% 0.5%
x264 [info]: mb I I16..4: 3.0% 88.6% 8.4%
x264 [info]: mb P I16..4: 0.8% 16.6% 0.9% P16..4: 47.6% 17.3% 9.1% 0.2% 0.0% skip: 7.6%
x264 [info]: mb B I16..4: 0.0% 2.8% 0.1% B16..8: 42.2% 8.6% 1.7% direct: 8.6% skip:35.9% L0:46.5% L1:44.9% BI: 8.6%
x264 [info]: 8x8 transform intra:91.8% inter:72.8%
x264 [info]: direct mvs spatial:99.4% temporal:0.6%
x264 [info]: coded y,uvDC,uvAC intra: 94.4% 64.7% 18.0% inter: 35.0% 17.2% 0.2%
x264 [info]: i16 v,h,dc,p: 37% 23% 12% 29%
x264 [info]: i8 v,h,dc,ddl,ddr,vr,hd,vl,hu: 10% 10% 7% 9% 13% 14% 11% 13% 12%
x264 [info]: i4 v,h,dc,ddl,ddr,vr,hd,vl,hu: 10% 9% 3% 8% 14% 16% 14% 12% 13%
x264 [info]: i8c dc,h,v,p: 38% 30% 20% 13%
x264 [info]: Weighted P-Frames: Y:5.6% UV:0.9%
x264 [info]: ref P L0: 45.9% 11.6% 29.4% 12.4% 0.7% 0.0%
x264 [info]: ref B L0: 84.2% 12.5% 3.4%
x264 [info]: ref B L1: 94.7% 5.3%
x264 [info]: kb/s:8096.15
Скриншоты:


Все одноименные релизы в Клубе
Время раздачи: 24/7 (до появления первых 3-5 скачавших)

Релиз подготовлен для просмотра на Apple TV, iPad, iPhone, iPod Touch.
Для просмотра данного релиза на компьютере с ОС Windows рекомендуется использовать VLC media player
[NNMClub.to]_Greedy.1994.BDRip.1080p.m4v.torrent
 Торрент: Платиновая раздача  Зарегистрирован
 
Скачать


Примагнититься
 Зарегистрирован:   12 Фев 2020 19:32:12
 Размер:   7,88 GB  (
 Рейтинг:   4,9 (Голосов: 14)
 Поблагодарили:   65
 Проверка:   Оформление проверено модератором 12 Фев 2020 22:41:20
Как cкачать  ·  Как раздать  ·  Правильно оформить  ·  Поднять ратио!  

_________________
«Всё против нас, только ветер навстречу…».
🍏Apple iMac 21.5 (mid 2011) / Intel Core i5 2.7 GHz / AMD Radeon HD 6770M 512 Mb / 12GB DDR3 / Apple Trackpad, Apple Keyboard / macOS High Sierra 10.13.6 (17G8030)
serg80-80
Стаж: 8 лет 4 мес.
Сообщений: 13
Ratio: 7,28
0.2%
Достать ножи лайт?
Ourger
Стаж: 2 года 6 мес.
Сообщений: 167
Ratio: 0,592
Поблагодарили: 4
100%
nnm-club.gif
serg80-80 писал(а): Перейти к сообщению
Достать ножи лайт?

И близко не стоит, это фильм круче. Дед крутой!) Фильм супер! Спсибо)
Показать сообщения:   
Начать новую тему   Ответить на тему    Торрент-трекер NNM-Club -> Аудио и Видео -> Зарубежное видео HD для устройств Apple Часовой пояс: GMT + 3
Страница 1 из 1