Классический форум-трекер
canvas not supported
Нас вместе: 4 117 911

Ford против Ferrari / Ford v Ferrari (2019) BDRip [1080p] ATV


 
 
RSS
Начать новую тему   Ответить на тему    Торрент-трекер NNM-Club -> Аудио и Видео -> Зарубежное видео HD для устройств Apple
Автор Сообщение
Весельчак У ®
Модератор Apple
Uploader 100+
Стаж: 6 лет 6 мес.
Сообщений: 6375
Ratio: 162,754
Поблагодарили: 205508
92.03%
Откуда: От Москвы недалеко...
ussr.gif
Ford против Ferrari / Ford v Ferrari (2019) BDRip [1080p] ATV«They took the American dream for a ride»
Производство: США, Франция / Chernin Entertainment, 20th Century Fox Film Corporation
Жанр: Биография, спорт, драма, боевик

Режиссер: Джеймс Мэнголд
Продюсер: Dani Bernfeld, Питер Чернин, Anthony Dixon
Актеры: Кристиан Бэйл, Мэтт Дэймон, Катрина Балф, Трэйси Леттс, Джон Бернтал, Ноа Джуп, Джош Лукас, Ремо Джироне, Рэй Маккиннон, Джей Джей Филд

Описание:
Фильм рассказывает о взаимоотношениях американского автомобильного конструктора Кэрролла Шелби и отважного британского гонщика Кена Майлза, которые вместе бросили вызов корпорациям и собственным демонам, чтобы создать абсолютно новый спорткар, который смог конкурировать с Ferrari на чемпионате мира, прошедшем во Франции в середине 1960-х.


Возраст: 16+ (зрителям, достигшим 16 лет
Рейтинг MPAA: PG-13 (детям до 13 лет просмотр нежелателен)
Дата мировой премьеры: 30 августа 2019
Дата российской премьеры: 14 ноября 2019, «Двадцатый Век Фокс СНГ»

Продолжительность: 02:32:35
Качество видео: BDRip 1080р
Перевод: Дублированный (iTunes), многоголосый профессиональный
Субтитры: Русские (Forced, full), украинские (Forced, full), английские

Релиз от: NNMClub

Видео: H.264, 1920x804 (2.40:1), ~8100 kbps, 23.976 fps
Аудио#1: AAC, 2.0 ch, 230 Kbps - Русский DUB, iTunes
Аудио#2: AAC, 2.0 ch, 230 Kbps - Русский MVO, HDRezka Studio
Аудио#3: AAC, 2.0 ch, 228 Kbps - Український DUB, iTunes
Аудио#4: AAC, 2.0 ch, 233 Kbps - English Original
Аудио#5: AC3, 6.0 ch, 384 Kbps - Русский DUB, iTunes
Аудио#6: AC3, 6.0 ch, 448 Kbps - Русский MVO, HDRezka Studio
Аудио#7: AC3, 6.0 ch, 640 Kbps - English Original

Общее
Полное имя : /Volumes/HDD/Movies/NNMC/Ford.v.Ferrari.2019.BDRip.1080p.m4v
Формат : MPEG-4
Профиль формата : Base Media / Version 2
Идентификатор кодека : mp42 (isom/iso2/avc1/mp41)
Размер файла : 11,2 Гбайт
Продолжительность : 2 ч. 32 м.
Режим общего битрейта : Переменный
Общий поток : 10,5 Мбит/сек
Название фильма : Ford против Ferrari
Исполнитель : James Mangold
Композитор : Marco Beltrami
Режиссёр : James Mangold
Исполнитель : Matt Damon / Christian Bale / Jon Bernthal / Caitriona Balfe / Tracy Letts / Josh Lucas
Сценарист : Jez Butterworth / John-Henry Butterworth / Jason Keller
Продюсер : James Mangold / Peter Chernin / Jenno Topping
Исполнительный продюсер : Michael Mann, Kevin Halloran, Adam Somner, Dani Bernfeld
Студия-производитель : 20th Century Fox
Жанр : Боевики и приключения
Тип содержимого : Short Film
Дата записи : UTC 2019-11-15 08:00:00
Дата кодирования : UTC 2020-02-14 12:08:22
Дата пометки : UTC 2020-02-15 04:52:56
Программа кодирования : HandBrake 1.3.1 2020010400
Авторское право : © 2019 Twentieth Century Fox Film Corporation.
Обложка : Yes
LongDescription : Обладатели премии «Оскар» Мэтт Дэймон и Кристиан Бэйл в реальной истории двух мечтателей: американского автомобильного конструктора Кэрролла Шелби (Деймон) и отважного британского гонщика Кена Майлза (Бейл), которые вместе создают абсолютно новый спорткар для Ford, чтобы бросить вызов бесспорному лидеру заездов Ferrari в гонке «24 часа Ле-Мана» во Франции в 1966 году.
AppleStoreCountry : Russia
AppleStoreCatalogID : 1484427364
ContentRating : ru-movie|16+|375|

Видео #1
Идентификатор : 1
Формат : AVC
Формат/Информация : Advanced Video Codec
Профиль формата : High@L4.1
Настройки формата : CABAC / 5 Ref Frames
Параметр CABAC формата : Да
Параметр ReFrames формата : 5 кадров
Идентификатор кодека : avc1
Идентификатор кодека/Информация : Advanced Video Coding
Продолжительность : 2 ч. 32 м.
Битрейт : 8100 Кбит/сек
Ширина : 1920 пикселей
Высота : 804 пикселя
Соотношение сторон : 2,40:1
Режим частоты кадров : Переменный
Частота кадров : 23,976 (24000/1001) кадра/сек
Минимальная частота кадров : 23,974 кадра/сек
Максимальная частота кадров : 23,981 кадра/сек
Цветовое пространство : YUV
Субдискретизация насыщенности : 4:2:0
Битовая глубина : 8 бит
Тип развёртки : Прогрессивная
Бит/(Пиксели*Кадры) : 0.219
Размер потока : 8,63 Гбайт (77%)
Библиотека кодирования : x264 core 157 r2935 545de2f
Настройки программы : cabac=1 / ref=5 / deblock=1:-1:-1 / analyse=0x3:0x133 / me=umh / subme=10 / psy=1 / psy_rd=1.00:0.15 / mixed_ref=1 / me_range=24 / chroma_me=1 / trellis=2 / 8x8dct=1 / cqm=0 / deadzone=21,11 / fast_pskip=1 / chroma_qp_offset=-3 / threads=6 / lookahead_threads=1 / sliced_threads=0 / nr=0 / decimate=1 / interlaced=0 / bluray_compat=0 / constrained_intra=0 / bframes=8 / b_pyramid=2 / b_adapt=2 / b_bias=0 / direct=3 / weightb=1 / open_gop=0 / weightp=2 / keyint=240 / keyint_min=24 / scenecut=40 / intra_refresh=0 / rc_lookahead=60 / rc=2pass / mbtree=1 / bitrate=8100 / ratetol=1.0 / qcomp=0.60 / qpmin=0 / qpmax=69 / qpstep=4 / cplxblur=20.0 / qblur=0.5 / vbv_maxrate=62500 / vbv_bufsize=78125 / nal_hrd=none / filler=0 / ip_ratio=1.40 / aq=1:1.00
Язык : English
Дата кодирования : UTC 2020-02-14 12:08:22
Дата пометки : UTC 2020-02-14 12:08:22
Цветовой диапазон : Limited
Основные цвета : BT.709
Характеристики трансфера : BT.709
Коэффициенты матрицы : BT.709
Menus : 18,19
Codec configuration box : avcC

Видео #2
Идентификатор : 19
Формат : JPEG
Идентификатор кодека : jpeg
Продолжительность : 2 ч. 32 м.
Вид битрейта : Переменный
Битрейт : 1236 бит/сек
Ширина : 640 пикселей
Высота : 268 пикселей
Соотношение сторон : 2,40:1
Режим частоты кадров : Переменный
Частота кадров : 0,004 кадр/сек
Минимальная частота кадров : 0,003 кадр/сек
Максимальная частота кадров : 0,012 кадр/сек
Цветовое пространство : YUV
Субдискретизация насыщенности : 4:2:0
Битовая глубина : 8 бит
Метод сжатия : С потерями
Бит/(Пиксели*Кадры) : 1.802
Размер потока : 1,47 Мбайт (0%)
Язык : English
Default : Нет
Дата кодирования : UTC 2020-02-15 04:52:53
Дата пометки : UTC 2020-02-15 04:52:55
Menu For : 1
ColorSpace_ICC : RGB

Аудио #1
Идентификатор : 2
Формат : AAC LC
Формат/Информация : Advanced Audio Codec Low Complexity
Идентификатор кодека : mp4a-40-2
Продолжительность : 2 ч. 32 м.
Вид битрейта : Переменный
Битрейт : 230 Кбит/сек
Максимальный битрейт : 419 Кбит/сек
Каналы : 2 канала
Channel layout : L R
Частота : 48,0 КГц
Частота кадров : 46,875 кадров/сек (1024 SPF)
Метод сжатия : С потерями
Размер потока : 251 Мбайт (2%)
Заголовок : DUB [iTunes]
Язык : Russian
Default : Да
Alternate group : 1
Дата кодирования : UTC 2020-02-14 12:08:22
Дата пометки : UTC 2020-02-14 12:08:22
Fallback From : 6
Menus : 18
tagc : public.main-program-content

Аудио #2
Идентификатор : 3
Формат : AAC LC
Формат/Информация : Advanced Audio Codec Low Complexity
Идентификатор кодека : mp4a-40-2
Продолжительность : 2 ч. 32 м.
Вид битрейта : Переменный
Битрейт : 230 Кбит/сек
Максимальный битрейт : 415 Кбит/сек
Каналы : 2 канала
Channel layout : L R
Частота : 48,0 КГц
Частота кадров : 46,875 кадров/сек (1024 SPF)
Метод сжатия : С потерями
Размер потока : 251 Мбайт (2%)
Заголовок : MVO [HDRezka Studio]
Язык : Russian
Default : Нет
Alternate group : 1
Дата кодирования : UTC 2020-02-14 12:08:22
Дата пометки : UTC 2020-02-14 12:08:22
Fallback From : 7
Menus : 18
tagc : public.auxiliary-content

Аудио #3
Идентификатор : 4
Формат : AAC LC
Формат/Информация : Advanced Audio Codec Low Complexity
Идентификатор кодека : mp4a-40-2
Продолжительность : 2 ч. 32 м.
Вид битрейта : Переменный
Битрейт : 228 Кбит/сек
Максимальный битрейт : 381 Кбит/сек
Каналы : 2 канала
Channel layout : L R
Частота : 48,0 КГц
Частота кадров : 46,875 кадров/сек (1024 SPF)
Метод сжатия : С потерями
Размер потока : 249 Мбайт (2%)
Заголовок : iTunes
Язык : Ukrainian
Default : Нет
Alternate group : 1
Дата кодирования : UTC 2020-02-14 12:08:22
Дата пометки : UTC 2020-02-14 12:08:22
Menus : 18
tagc : public.main-program-content

Аудио #4
Идентификатор : 5
Формат : AAC LC
Формат/Информация : Advanced Audio Codec Low Complexity
Идентификатор кодека : mp4a-40-2
Продолжительность : 2 ч. 32 м.
Вид битрейта : Переменный
Битрейт : 233 Кбит/сек
Максимальный битрейт : 440 Кбит/сек
Каналы : 2 канала
Channel layout : L R
Частота : 48,0 КГц
Частота кадров : 46,875 кадров/сек (1024 SPF)
Метод сжатия : С потерями
Размер потока : 254 Мбайт (2%)
Заголовок : Original
Язык : English
Default : Нет
Alternate group : 1
Дата кодирования : UTC 2020-02-14 12:08:22
Дата пометки : UTC 2020-02-14 12:08:22
Fallback From : 8
Menus : 18
tagc : public.main-program-content

Аудио #5
Идентификатор : 6
Формат : AC-3
Формат/Информация : Audio Coding 3
Коммерческое название : Dolby Digital
Идентификатор кодека : ac-3
Продолжительность : 2 ч. 32 м.
Вид битрейта : Постоянный
Битрейт : 384 Кбит/сек
Каналы : 6 каналов
Channel layout : L R C LFE Ls Rs
Частота : 48,0 КГц
Частота кадров : 31,250 кадров/сек (1536 SPF)
Метод сжатия : С потерями
Размер потока : 419 Мбайт (4%)
Заголовок : iTunes
Язык : Russian
Service kind : Complete Main
Default : Inherited From: 2
Alternate group : 1
Дата кодирования : UTC 2020-02-14 12:08:22
Дата пометки : UTC 2020-02-14 12:08:22
Fallback To : 2
tagc : public.main-program-content

Аудио #6
Идентификатор : 7
Формат : AC-3
Формат/Информация : Audio Coding 3
Коммерческое название : Dolby Digital
Идентификатор кодека : ac-3
Продолжительность : 2 ч. 32 м.
Вид битрейта : Постоянный
Битрейт : 448 Кбит/сек
Каналы : 6 каналов
Channel layout : L R C LFE Ls Rs
Частота : 48,0 КГц
Частота кадров : 31,250 кадров/сек (1536 SPF)
Метод сжатия : С потерями
Размер потока : 489 Мбайт (4%)
Заголовок : MVO [HDRezka Studio]
Язык : Russian
Service kind : Complete Main
Default : Нет
Alternate group : 1
Дата кодирования : UTC 2020-02-14 12:08:22
Дата пометки : UTC 2020-02-14 12:08:22
Fallback To : 3
tagc : public.auxiliary-content

Аудио #7
Идентификатор : 8
Формат : AC-3
Формат/Информация : Audio Coding 3
Коммерческое название : Dolby Digital
Идентификатор кодека : ac-3
Продолжительность : 2 ч. 32 м.
Вид битрейта : Постоянный
Битрейт : 640 Кбит/сек
Каналы : 6 каналов
Channel layout : L R C LFE Ls Rs
Частота : 48,0 КГц
Частота кадров : 31,250 кадров/сек (1536 SPF)
Метод сжатия : С потерями
Размер потока : 699 Мбайт (6%)
Заголовок : Original
Язык : English
Service kind : Complete Main
Default : Нет
Alternate group : 1
Дата кодирования : UTC 2020-02-14 12:08:22
Дата пометки : UTC 2020-02-14 12:08:22
Fallback To : 5
tagc : public.main-program-content

Текст #1
Идентификатор : 9
Формат : Timed Text
Режим смешивания : sbtl
Идентификатор кодека : tx3g
Продолжительность : 2 ч. 32 м.
Вид битрейта : Переменный
Битрейт : 1 бит/сек
Размер потока : 986 байт (0%)
Заголовок : Forced [iTunes]
Язык : Russian
Default : Да
Forced : Нет
Alternate group : 2
Дата кодирования : UTC 2020-02-14 12:08:22
Дата пометки : UTC 2020-02-14 12:08:22
Menus : 18
tagc : public.subtitles.forced-only

Текст #2
Идентификатор : 10
Формат : Timed Text
Режим смешивания : sbtl
Идентификатор кодека : tx3g
Продолжительность : 2 ч. 32 м.
Вид битрейта : Переменный
Битрейт : 132 бит/сек
Размер потока : 147 Кбайт (0%)
Заголовок : Full [iTunes]
Язык : Russian
Default : Нет
Forced : Нет
Alternate group : 2
Дата кодирования : UTC 2020-02-14 12:08:22
Дата пометки : UTC 2020-02-14 12:08:22
Menus : 18
tagc : public.main-program-content

Текст #3
Идентификатор : 11
Формат : Timed Text
Режим смешивания : sbtl
Идентификатор кодека : tx3g
Продолжительность : 2 ч. 27 м.
Вид битрейта : Переменный
Битрейт : 2 бит/сек
Размер потока : 1,72 Кбайт (0%)
Заголовок : Forced [no name]
Язык : Russian
Default : Нет
Forced : Нет
Alternate group : 2
Дата кодирования : UTC 2020-02-14 12:08:22
Дата пометки : UTC 2020-02-14 12:08:22
Menus : 18
tagc : public.subtitles.forced-only

Текст #4
Идентификатор : 12
Формат : Timed Text
Режим смешивания : sbtl
Идентификатор кодека : tx3g
Продолжительность : 2 ч. 27 м.
Вид битрейта : Переменный
Битрейт : 120 бит/сек
Размер потока : 129 Кбайт (0%)
Заголовок : Full [blindAvocado]
Язык : Russian
Default : Нет
Forced : Нет
Alternate group : 2
Дата кодирования : UTC 2020-02-14 12:08:22
Дата пометки : UTC 2020-02-14 12:08:22
Menus : 18
tagc : public.auxiliary-content

Текст #5
Идентификатор : 13
Формат : Timed Text
Режим смешивания : sbtl
Идентификатор кодека : tx3g
Продолжительность : 2 ч. 32 м.
Вид битрейта : Переменный
Битрейт : 2 бит/сек
Размер потока : 2,36 Кбайт (0%)
Заголовок : Forced
Язык : Ukrainian
Default : Нет
Forced : Нет
Alternate group : 2
Дата кодирования : UTC 2020-02-14 12:08:22
Дата пометки : UTC 2020-02-14 12:08:22
Menus : 18
tagc : public.subtitles.forced-only

Текст #6
Идентификатор : 14
Формат : Timed Text
Режим смешивания : sbtl
Идентификатор кодека : tx3g
Продолжительность : 2 ч. 32 м.
Вид битрейта : Переменный
Битрейт : 137 бит/сек
Размер потока : 153 Кбайт (0%)
Заголовок : Full
Язык : Ukrainian
Default : Нет
Forced : Нет
Alternate group : 2
Дата кодирования : UTC 2020-02-14 12:08:22
Дата пометки : UTC 2020-02-14 12:08:22
Menus : 18
tagc : public.main-program-content

Текст #7
Идентификатор : 15
Формат : Timed Text
Режим смешивания : sbtl
Идентификатор кодека : tx3g
Продолжительность : 1 ч. 53 м.
Вид битрейта : Переменный
Битрейт : 1 бит/сек
Размер потока : 553 байт (0%)
Заголовок : Forced
Язык : English
Default : Нет
Forced : Нет
Alternate group : 2
Дата кодирования : UTC 2020-02-14 12:08:22
Дата пометки : UTC 2020-02-14 12:08:22
Menus : 18
tagc : public.subtitles.forced-only

Текст #8
Идентификатор : 16
Формат : Timed Text
Режим смешивания : sbtl
Идентификатор кодека : tx3g
Продолжительность : 2 ч. 25 м.
Вид битрейта : Переменный
Битрейт : 90 бит/сек
Размер потока : 95,6 Кбайт (0%)
Заголовок : Full
Язык : English
Default : Нет
Forced : Нет
Alternate group : 2
Дата кодирования : UTC 2020-02-14 12:08:22
Дата пометки : UTC 2020-02-14 12:08:22
Menus : 18
tagc : public.main-program-content

Текст #9
Идентификатор : 17
Формат : Timed Text
Режим смешивания : sbtl
Идентификатор кодека : tx3g
Продолжительность : 2 ч. 32 м.
Вид битрейта : Переменный
Битрейт : 122 бит/сек
Размер потока : 137 Кбайт (0%)
Заголовок : SDH
Язык : English
Default : Нет
Forced : Нет
Alternate group : 2
Дата кодирования : UTC 2020-02-14 12:08:22
Дата пометки : UTC 2020-02-14 12:08:22
Menus : 18
tagc : public.accessibility.transcribes-spoken-dialog

Меню
Идентификатор : 18
Идентификатор кодека : text
Продолжительность : 2 ч. 32 м.
Язык : English
Дата кодирования : UTC 2020-02-14 12:08:22
Дата пометки : UTC 2020-02-14 12:08:22
Вид битрейта : CBR
Menu For : 1,2,3,4,5,9,10,11,12,13,14,15,16,17
00:00:00.000 : Глава 01
00:04:45.619 : Глава 02
00:07:32.535 : Глава 03
00:10:02.811 : Глава 04
00:15:39.313 : Глава 05
00:20:15.172 : Глава 06
00:21:39.799 : Глава 07
00:26:00.893 : Глава 08
00:31:57.874 : Глава 09
00:34:09.756 : Глава 10
00:39:13.268 : Глава 11
00:42:06.899 : Глава 12
00:45:57.004 : Глава 13
00:48:38.666 : Глава 14
00:51:22.079 : Глава 15
00:55:03.675 : Глава 16
00:57:50.801 : Глава 17
01:00:27.040 : Глава 18
01:06:33.490 : Глава 19
01:11:59.816 : Глава 20
01:16:13.903 : Глава 21
01:19:30.516 : Глава 22
01:24:18.762 : Глава 23
01:29:25.110 : Глава 24
01:33:16.174 : Глава 25
01:38:11.302 : Глава 26
01:40:57.468 : Глава 27
01:43:23.322 : Глава 28
01:45:49.218 : Глава 29
01:50:39.091 : Глава 30
01:53:38.353 : Глава 31
01:57:47.602 : Глава 32
02:00:16.668 : Глава 33
02:05:22.890 : Глава 34
02:09:18.501 : Глава 35
02:12:01.497 : Глава 36
02:15:26.410 : Глава 37
02:18:23.128 : Глава 38
02:20:46.438 : Глава 39
02:26:27.612 : Глава 40
Вид битрейта : Постоянный


Name: Ford против Ferrari
Artist: James Mangold
Media Kind: Movie
HD Video: 1080p
Genre: Боевики и приключения
Release Date: 2019-11-15T08:00:00Z
Long Description: Обладатели премии «Оскар» Мэтт Дэймон и Кристиан Бэйл в реальной истории двух мечтателей: американского автомобильного конструктора Кэрролла Шелби (Деймон) и отважного британского гонщика Кена Майлза (Бейл), которые вместе создают абсолютно новый спорткар для Ford, чтобы бросить вызов бесспорному лидеру заездов Ferrari в гонке «24 часа Ле-Мана» во Франции в 1966 году.
Rating: ru-movie|16+|375|
Studio: 20th Century Fox
Cast: Matt Damon, Christian Bale, Jon Bernthal, Caitriona Balfe, Tracy Letts, Josh Lucas
Director: James Mangold
Producers: James Mangold, Peter Chernin, Jenno Topping
Executive Producer: Michael Mann, Kevin Halloran, Adam Somner, Dani Bernfeld
Screenwriters: Jez Butterworth, John-Henry Butterworth, Jason Keller
Copyright: © 2019 Twentieth Century Fox Film Corporation.
Encoding Tool: HandBrake 1.3.1 2020010400
content ID: 1484427364
iTunes Country: 143469
Composer: Marco Beltrami


x264 [info]: frame I:1832 Avg QP:16.00 size:229225
x264 [info]: frame P:56076 Avg QP:18.72 size: 69959
x264 [info]: frame B:161603 Avg QP:20.36 size: 30472
x264 [info]: consecutive B-frames: 4.9% 5.0% 13.1% 17.3% 15.8% 38.0% 4.2% 0.9% 0.8%
x264 [info]: mb I I16..4: 6.6% 81.7% 11.7%
x264 [info]: mb P I16..4: 2.1% 17.6% 1.7% P16..4: 39.0% 17.0% 11.2% 0.5% 0.2% skip:10.8%
x264 [info]: mb B I16..4: 0.3% 3.2% 0.2% B16..8: 40.7% 10.0% 2.2% direct: 8.0% skip:35.3% L0:45.9% L1:42.2% BI:11.9%
x264 [info]: 8x8 transform intra:83.7% inter:68.0%
x264 [info]: direct mvs spatial:98.3% temporal:1.7%
x264 [info]: coded y,uvDC,uvAC intra: 84.5% 87.5% 67.3% inter: 29.3% 33.7% 9.1%
x264 [info]: i16 v,h,dc,p: 21% 29% 8% 42%
x264 [info]: i8 v,h,dc,ddl,ddr,vr,hd,vl,hu: 11% 13% 12% 8% 11% 10% 12% 10% 13%
x264 [info]: i4 v,h,dc,ddl,ddr,vr,hd,vl,hu: 25% 18% 4% 6% 10% 10% 11% 7% 9%
x264 [info]: i8c dc,h,v,p: 48% 23% 15% 14%
x264 [info]: Weighted P-Frames: Y:2.0% UV:1.0%
x264 [info]: ref P L0: 49.2% 12.0% 21.8% 8.3% 8.3% 0.5% 0.0%
x264 [info]: ref B L0: 74.9% 17.0% 6.4% 1.7%
x264 [info]: ref B L1: 93.9% 6.1%
x264 [info]: kb/s:8097.78
Скриншоты:


Все одноименные релизы в Клубе
Время раздачи: 24/7 (до появления первых 3-5 скачавших)

Релиз подготовлен для просмотра на Apple TV, iPad, iPhone, iPod Touch.
Для просмотра данного релиза на компьютере с ОС Windows рекомендуется использовать VLC media player
[NNMClub.to]_Ford.v.Ferrari.2019.BDRip.1080p.m4v.torrent
 Торрент: Платиновая раздача  Зарегистрирован
 
Скачать


Примагнититься
 Зарегистрирован:   15 Фев 2020 08:16:50
 Размер:   11,2 GB  (
 Рейтинг:   5 (Голосов: 11)
 Поблагодарили:   61
 Проверка:   Оформление проверено модератором 15 Фев 2020 10:20:15
Как cкачать  ·  Как раздать  ·  Правильно оформить  ·  Поднять ратио!  

_________________
«Всё против нас, только ветер навстречу…».
🍏Apple iMac 21.5 (mid 2011) / Intel Core i5 2.7 GHz / AMD Radeon HD 6770M 512 Mb / 12GB DDR3 / Apple Trackpad, Apple Keyboard / macOS High Sierra 10.13.6 (17G13033)
Показать сообщения:   
Начать новую тему   Ответить на тему    Торрент-трекер NNM-Club -> Аудио и Видео -> Зарубежное видео HD для устройств Apple Часовой пояс: GMT + 3
Страница 1 из 1