Классический форум-трекер
canvas not supported
Нас вместе: 4 103 275

Герой (2019) BDRip [720p] ATV


 
 
RSS
Начать новую тему   Ответить на тему    Торрент-трекер NNM-Club -> Аудио и Видео -> Отечественное видео HD для устройств Apple
Автор Сообщение
Весельчак У ®
Модератор Apple
Стаж: 6 лет 3 мес.
Сообщений: 5295
Ratio: 149,311
Поблагодарили: 172542
94.12%
Откуда: От Москвы недалеко...
ussr.gif
Герой (2019) BDRip [720p] ATV«Если не ты, то кто»
Производство: Россия / Телеканал «РОССИЯ 1», Карго Фильм
Жанр: Триллер, комедия, боевик, криминал

Режиссер: Карен Оганесян
Продюсер: Карен Оганесян, Полина Иванова
Актеры: Александр Петров, Владимир Машков, Светлана Ходченкова, Ян Алабушев, Константин Лавроненко, Марина Петренко, Анастасия Тодореску, Тобиас Аспелин

Описание:
15 лет назад Андрей под руководством своего отца, полковника Родина, прошел обучение в секретной спецшколе, где из подростков готовили агентов Службы внешней разведки. Когда экспериментальный проект закрыли, Андрей «сжёг мосты», остался в Европе и старался не вспоминать о прошлом. Но однажды ему звонит отец, которого все считали погибшим. Тот сообщает, что на Андрея открыта охота, но кто решил его уничтожить — неизвестно. Спасаясь бегством, он находит Машу, с которой учился в спецшколе. Андрею предстоит пройти через любовь и предательство и узнать об истинных масштабах беспощадной шпионской игры, в которую он оказался втянут поневоле.


Возраст: 12+ (зрителям, достигшим 12 лет)
Дата мировой премьеры: 26 сентября 2019
Дата российской премьеры: 26 сентября 2019, «Централ Партнершип»

Релиз от: NNMClub

Продолжительность: 02:00:45
Качество видео: BDRip 720p
Перевод: Не требуется, русский (GER Transfer, Лицензия)
Субтитры: Русские (харсаб, на иностранную речь)

Видео: H.264, 1280x536 (2.40:1), ~3119 kbps, 23.976 fps
Аудио#1: AAC, 2 ch, 230 Kbps - Русский
Аудио#2: AC3, 6 ch, 640 Kbps - Русский

Общее
Полное имя : /Volumes/HDD/Movies/NNMC/Герой.2019.BDRip.720p.m4v
Формат : MPEG-4
Идентификатор кодека : M4V (M4V /M4A /mp42/isom)
Размер файла : 3,37 Гбайт
Продолжительность : 2 ч. 1 м.
Режим общего битрейта : Переменный
Общий поток : 3987 Кбит/сек
Название фильма : Герой
Исполнитель : Карен Оганесян
Режиссёр : Карен Оганесян
Исполнитель : Александр Петров / Владимир Машков / Svetlana Khodchenkova / Константин Лавроненко / Анастасия Тодореску
Сценарист : Николай Куликов
Продюсер : Карен Оганесян / Полина Иванова
Студия-производитель : ООО «Карго»
Жанр : Триллеры
Тип содержимого : Short Film
Дата записи : UTC 2019-09-26 07:00:00
Дата кодирования : UTC 2020-02-28 13:40:01
Дата пометки : UTC 2020-02-28 13:43:18
Авторское право : © 2019 ООО «Централ Партнершип Сейлз Хаус»
Обложка : Yes
LongDescription : 15 лет назад Андрей под руководством своего отца, полковника Родина, прошел обучение в секретной спецшколе, где из подростков готовили агентов Службы внешней разведки. Когда экспериментальный проект закрыли, Андрей «сжёг мосты», остался в Европе и старался не вспоминать о прошлом. Но однажды ему звонит отец, которого все считали погибшим. Тот сообщает, что на Андрея открыта охота, но кто решил его уничтожить — неизвестно. Спасаясь бегством, он находит Машу, с которой учился в спецшколе. Андрею предстоит пройти через любовь и предательство и узнать об истинных масштабах беспощадной шпионской игры, в которую он оказался втянут поневоле.
HDVideo : Yes
AppleStoreCountry : Russia
AppleStoreCatalogID : 1483984260
ContentRating : ru-movie|12+|200|

Видео #1
Идентификатор : 1
Формат : AVC
Формат/Информация : Advanced Video Codec
Профиль формата : High@L4.1
Настройки формата : CABAC / 12 Ref Frames
Параметр CABAC формата : Да
Параметр ReFrames формата : 12 кадров
Идентификатор кодека : avc1
Идентификатор кодека/Информация : Advanced Video Coding
Продолжительность : 2 ч. 0 м.
Битрейт : 3119 Кбит/сек
Ширина : 1280 пикселей
Высота : 536 пикселей
Соотношение сторон : 2,40:1
Режим частоты кадров : Переменный
Частота кадров : 23,976 (24000/1001) кадра/сек
Минимальная частота кадров : 23,810 кадра/сек
Максимальная частота кадров : 24,390 кадра/сек
Цветовое пространство : YUV
Субдискретизация насыщенности : 4:2:0
Битовая глубина : 8 бит
Тип развёртки : Прогрессивная
Бит/(Пиксели*Кадры) : 0.190
Размер потока : 2,63 Гбайт (78%)
Библиотека кодирования : x264 core 157 r2969 d4099dd
Настройки программы : cabac=1 / ref=12 / deblock=1:-3:-3 / analyse=0x3:0x113 / me=umh / subme=10 / psy=1 / psy_rd=1.00:0.00 / mixed_ref=1 / me_range=32 / chroma_me=1 / trellis=2 / 8x8dct=1 / cqm=0 / deadzone=21,11 / fast_pskip=0 / chroma_qp_offset=-2 / threads=17 / lookahead_threads=2 / sliced_threads=0 / nr=0 / decimate=0 / interlaced=0 / bluray_compat=0 / constrained_intra=0 / bframes=8 / b_pyramid=2 / b_adapt=2 / b_bias=0 / direct=3 / weightb=1 / open_gop=0 / weightp=2 / keyint=230 / keyint_min=23 / scenecut=40 / intra_refresh=0 / rc_lookahead=40 / rc=crf / mbtree=0 / crf=17.0 / qcomp=0.60 / qpmin=0 / qpmax=51 / qpstep=4 / vbv_maxrate=50000 / vbv_bufsize=62000 / crf_max=0.0 / nal_hrd=none / filler=0 / ip_ratio=1.40 / pb_ratio=1.30 / aq=2:0.80
Язык : English
Дата кодирования : UTC 2020-02-28 13:40:01
Дата пометки : UTC 2020-02-28 13:43:12
Menus : 5,6
Codec configuration box : avcC

Видео #2
Идентификатор : 6
Формат : JPEG
Идентификатор кодека : jpeg
Продолжительность : 2 ч. 0 м.
Вид битрейта : Переменный
Битрейт : 498 бит/сек
Ширина : 640 пикселей
Высота : 268 пикселей
Соотношение сторон : 2,40:1
Режим частоты кадров : Переменный
Частота кадров : 0,002 кадр/сек
Минимальная частота кадров : 0,001 кадр/сек
Максимальная частота кадров : 1,996 кадра/сек
Цветовое пространство : YUV
Субдискретизация насыщенности : 4:2:0
Битовая глубина : 8 бит
Метод сжатия : С потерями
Бит/(Пиксели*Кадры) : 1.452
Размер потока : 395 Кбайт (0%)
Язык : English
Default : Нет
Дата кодирования : UTC 2020-02-28 13:43:18
Дата пометки : UTC 2020-02-28 13:43:18
Menu For : 1
ColorSpace_ICC : RGB

Аудио #1
Идентификатор : 2
Формат : AAC LC
Формат/Информация : Advanced Audio Codec Low Complexity
Идентификатор кодека : mp4a-40-2
Продолжительность : 2 ч. 1 м.
Вид битрейта : Переменный
Битрейт : 230 Кбит/сек
Максимальный битрейт : 406 Кбит/сек
Каналы : 2 канала
Channel layout : L R
Частота : 48,0 КГц
Частота кадров : 46,875 кадров/сек (1024 SPF)
Метод сжатия : С потерями
Размер потока : 199 Мбайт (6%)
Язык : Russian
Default : Да
Alternate group : 1
Дата кодирования : UTC 2020-02-28 13:40:01
Дата пометки : UTC 2020-02-28 13:43:12
Fallback From : 3
tagc : public.main-program-content

Аудио #2
Идентификатор : 3
Формат : AC-3
Формат/Информация : Audio Coding 3
Коммерческое название : Dolby Digital
Идентификатор кодека : ac-3
Продолжительность : 2 ч. 1 м.
Вид битрейта : Постоянный
Битрейт : 640 Кбит/сек
Каналы : 6 каналов
Channel layout : L R C LFE Ls Rs
Частота : 48,0 КГц
Частота кадров : 31,250 кадров/сек (1536 SPF)
Метод сжатия : С потерями
Размер потока : 554 Мбайт (16%)
Язык : Russian
Service kind : Complete Main
Default : Inherited From: 2
Alternate group : 1
Дата кодирования : UTC 2020-02-28 13:40:01
Дата пометки : UTC 2020-02-28 13:43:12
Fallback To : 2
tagc : public.main-program-content

Текст
Идентификатор : 4
Формат : Timed Text
Режим смешивания : sbtl
Идентификатор кодека : tx3g
Продолжительность : 1 ч. 46 м.
Вид битрейта : Переменный
Битрейт : 6 бит/сек
Размер потока : 4,94 Кбайт (0%)
Язык : Russian
Default : Да
Forced : Нет
Alternate group : 2
Дата кодирования : UTC 2020-02-28 13:40:01
Дата пометки : UTC 2020-02-28 13:43:12
tagc : public.subtitles.forced-only

Меню
Идентификатор : 5
Идентификатор кодека : text
Продолжительность : 2 ч. 0 м.
Язык : English
Дата кодирования : UTC 2020-02-28 13:43:12
Дата пометки : UTC 2020-02-28 13:43:12
Вид битрейта : CBR
Menu For : 1
00:00:00.000 : Chapter 01
00:09:36.742 : Chapter 02
00:19:43.682 : Chapter 03
00:32:55.848 : Chapter 04
00:44:50.271 : Chapter 05
00:55:24.404 : Chapter 06
01:03:05.031 : Chapter 07
01:11:12.268 : Chapter 08
01:21:25.839 : Chapter 09
01:30:52.322 : Chapter 10
01:41:47.518 : Chapter 11
01:53:30.095 : Chapter 12
02:00:44.528 : Chapter 13
Вид битрейта : Постоянный


Name: Герой
Artist: Карен Оганесян
Media Kind: Movie
HD Video: 720p
Genre: Триллеры
Release Date: 2019-09-26T07:00:00Z
Long Description: 15 лет назад Андрей под руководством своего отца, полковника Родина, прошел обучение в секретной спецшколе, где из подростков готовили агентов Службы внешней разведки. Когда экспериментальный проект закрыли, Андрей «сжёг мосты», остался в Европе и старался не вспоминать о прошлом. Но однажды ему звонит отец, которого все считали погибшим. Тот сообщает, что на Андрея открыта охота, но кто решил его уничтожить — неизвестно. Спасаясь бегством, он находит Машу, с которой учился в спецшколе. Андрею предстоит пройти через любовь и предательство и узнать об истинных масштабах беспощадной шпионской игры, в которую он оказался втянут поневоле.
Rating: ru-movie|12+|200|
Studio: ООО «Карго»
Cast: Александр Петров, Владимир Машков, Svetlana Khodchenkova, Константин Лавроненко, Анастасия Тодореску
Director: Карен Оганесян
Producers: Карен Оганесян, Полина Иванова
Screenwriters: Николай Куликов
Copyright: © 2019 ООО «Централ Партнершип Сейлз Хаус»
content ID: 1483984260
iTunes Country: 143469

Скриншоты:


Все одноименные релизы в Клубе
Время раздачи: 24/7 (до появления первых 3-5 скачавших)

Релиз подготовлен для просмотра на Apple TV, iPad, iPhone, iPod Touch.
Для просмотра данного релиза на компьютере с ОС Windows рекомендуется использовать VLC media player
[NNMClub.to]_Geroĭ.2019.BDRip.720p.m4v.torrent
 Торрент: Платиновая раздача  Зарегистрирован
 
Скачать


Примагнититься
 Зарегистрирован:   28 Фев 2020 16:51:57
 Размер:   3,37 GB  (
 Рейтинг:   4,3 (Голосов: 28)
 Поблагодарили:   115
 Проверка:   Оформление проверено модератором 28 Фев 2020 19:14:35
Как cкачать  ·  Как раздать  ·  Правильно оформить  ·  Поднять ратио!  

_________________
«Всё против нас, только ветер навстречу…».
🍏Apple iMac 21.5 (mid 2011) / Intel Core i5 2.7 GHz / AMD Radeon HD 6770M 512 Mb / 12GB DDR3 / Apple Trackpad, Apple Keyboard / macOS High Sierra 10.13.6 (17G12034)
rogala51
Стаж: 6 лет
Сообщений: 1052
Ratio: 3,915
100%
usa.gif
Еще один Борн.

_________________
Вообще то мне всё равно.
Pr@etori@n
Стаж: 10 лет 11 мес.
Сообщений: 2289
Ratio: 274,424
Раздал: 69,35 TB
Поблагодарили: 4410
100%
russia.gif
Пусть еще один. Посмотрел с другого релиза. Из трех наших фильмов: "Солдатик" "Ржев" и этот только последний можно было смотреть. Хоть и сказка.

_________________
Mess with the best — die like the rest
Zarica
Стаж: 8 лет 5 мес.
Сообщений: 1
Ratio: 0,443
0.3%
Откуда: Гродно
belarus.gif
Полковник по фамилии Родина- и смотреть уже не хочется
hryundel007
Стаж: 4 года 5 мес.
Сообщений: 81
Ratio: 11,183
100%
Откуда: Калининград
russia.gif
Не смотря на звездный состав, фильм отстой!!! На мой взгляд, конечно.
Задолбало подражание голливуду, со спецэффектами, бездушный, ненужный фильм!
Еле дотянул по середины, убил время!!!
Показать сообщения:   
Начать новую тему   Ответить на тему    Торрент-трекер NNM-Club -> Аудио и Видео -> Отечественное видео HD для устройств Apple Часовой пояс: GMT + 3
Страница 1 из 1