Классический форум-трекер
canvas not supported
Нас вместе: 4 102 815

Особенные / Hors normes (2019) WEB-DL [720p] ATV


 
 
RSS
Начать новую тему   Ответить на тему    Торрент-трекер NNM-Club -> Аудио и Видео -> Зарубежное видео HD для устройств Apple
Автор Сообщение
Весельчак У ®
Модератор Apple
Стаж: 6 лет 3 мес.
Сообщений: 5276
Ratio: 148,999
Поблагодарили: 172085
94.12%
Откуда: От Москвы недалеко...
ussr.gif
Особенные / Hors normes (2019) WEB-DL [720p] ATV
Производство: Франция / 120 Films, Canal+fr, Ciné, Cinémage 13, Cofimage 30
Жанр: Драма, комедия

Режиссер: Оливье Накаш, Эрик Толедано
Продюсер: Николя Дюваль-Адассовски, Эрве Руэ
Актеры: Венсан Кассель, Реда Катеб, Элен Венсан, Брайан Мьялундама, Альбан Иванов, Бенжамин Лесьер, Марко Локателли, Катрин Муше, Фредерик Пьеро, Сулиан Брахим

Описание:
Они живут среди нас, встречаются на улицах, в вагонах метро и подъездах многоэтажек. Мы не замечаем их существования или просто боимся заметить. Это мог бы быть сюжет фильма о супергероях. Но они не парят над землей и не стреляют молниями. Это история о людях, которым отчаянно нужна помощь, и о человеке, подарившем им всю свою жизнь.


Возраст: 12+ (зрителям, достигшим 12 лет)
Дата мировой премьеры: 25 мая 2019
Дата российской премьеры: 16 января 2020, «Capella Film», «Маурис Филм»

Релиз от: NNMClub

Продолжительность: 01:53:29
Качество видео: WEB-DL 720p
Перевод: Дублированный (iTunes)
Субтитры: Отсутствуют

Видео: H.264, 1280x536 (2.40:1), ~4051 kbps, 23.976 fps
Аудио#1: AAC, 2 ch, 225 Kbps - Русский DUB, iTunes
Аудио#2: AC3, 6 ch, 384 Kbps - Русский DUB, iTunes

Общее
Полное имя : /Volumes/HDD/Movies/NNMC/Hors.normes.2019.WEB-DL.720p.m4v
Формат : MPEG-4
Идентификатор кодека : M4V (M4V /M4A /mp42/isom)
Размер файла : 3,70 Гбайт
Продолжительность : 1 ч. 53 м.
Режим общего битрейта : Переменный
Общий поток : 4667 Кбит/сек
Название фильма : Особенные
Исполнитель : Оливье Накаш & Эрик Толедано
Режиссёр : Оливье Накаш & Эрик Толедано
Исполнитель : Венсан Кассель / Реда Катеб
Сценарист : Оливье Накаш / Эрик Толедано
Продюсер : Николя Дюваль-Адассовски
Студия-производитель : Quad Productions, Ten Films
Жанр : Драма
Тип содержимого : Short Film
Дата записи : UTC 2020-01-16 08:00:00
Дата кодирования : UTC 2020-02-28 20:30:34
Дата пометки : UTC 2020-02-28 20:35:15
Авторское право : © 2020 Маурис Филм
Обложка : Yes
LongDescription : Они живут среди нас, встречаются на улицах, в вагонах метро и подъездах многоэтажек. Мы не замечаем их существования или просто боимся заметить. Это мог бы быть сюжет фильма о супергероях. Но они не парят над землей и не стреляют молниями. Это история о людях, которым отчаянно нужна помощь, и о человеке, подарившем им всю свою жизнь.
HDVideo : Yes
AppleStoreCountry : Russia
AppleStoreCatalogID : 1498936300
ContentRating : ru-movie|12+|200|

Видео #1
Идентификатор : 1
Формат : AVC
Формат/Информация : Advanced Video Codec
Профиль формата : Main@L3.1
Настройки формата : 2 Ref Frames
Параметр CABAC формата : Нет
Параметр ReFrames формата : 2 кадра
Идентификатор кодека : avc1
Идентификатор кодека/Информация : Advanced Video Coding
Продолжительность : 1 ч. 53 м.
Битрейт : 4051 Кбит/сек
Ширина : 1280 пикселей
Высота : 536 пикселей
Соотношение сторон : 2,40:1
Режим частоты кадров : Переменный
Частота кадров : 23,976 (24000/1001) кадра/сек
Минимальная частота кадров : 23,810 кадра/сек
Максимальная частота кадров : 24,390 кадра/сек
Цветовое пространство : YUV
Субдискретизация насыщенности : 4:2:0
Битовая глубина : 8 бит
Тип развёртки : Прогрессивная
Бит/(Пиксели*Кадры) : 0.246
Размер потока : 3,21 Гбайт (87%)
Язык : French
Дата кодирования : UTC 2020-02-28 20:30:34
Дата пометки : UTC 2020-02-28 20:35:09
Цветовой диапазон : Limited
Основные цвета : BT.709
Характеристики трансфера : BT.709
Коэффициенты матрицы : BT.709
Menus : 4,5
Codec configuration box : avcC

Видео #2
Идентификатор : 5
Формат : JPEG
Идентификатор кодека : jpeg
Продолжительность : 1 ч. 53 м.
Вид битрейта : Переменный
Битрейт : 407 бит/сек
Ширина : 640 пикселей
Высота : 268 пикселей
Соотношение сторон : 2,40:1
Режим частоты кадров : Переменный
Частота кадров : 0,002 кадр/сек
Минимальная частота кадров : 0,001 кадр/сек
Максимальная частота кадров : 0,004 кадр/сек
Цветовое пространство : YUV
Субдискретизация насыщенности : 4:2:0
Битовая глубина : 8 бит
Метод сжатия : С потерями
Бит/(Пиксели*Кадры) : 1.186
Размер потока : 372 Кбайт (0%)
Язык : French
Default : Нет
Дата кодирования : UTC 2020-02-28 20:35:14
Дата пометки : UTC 2020-02-28 20:35:14
Menu For : 1
ColorSpace_ICC : RGB

Аудио #1
Идентификатор : 2
Формат : AAC LC
Формат/Информация : Advanced Audio Codec Low Complexity
Идентификатор кодека : mp4a-40-2
Продолжительность : 1 ч. 53 м.
Вид битрейта : Переменный
Битрейт : 225 Кбит/сек
Максимальный битрейт : 338 Кбит/сек
Каналы : 2 канала
Channel layout : L R
Частота : 48,0 КГц
Частота кадров : 46,875 кадров/сек (1024 SPF)
Метод сжатия : С потерями
Размер потока : 183 Мбайт (5%)
Язык : Russian
Default : Да
Alternate group : 1
Дата кодирования : UTC 2020-02-28 20:30:34
Дата пометки : UTC 2020-02-28 20:35:09
Fallback From : 3
tagc : public.main-program-content

Аудио #2
Идентификатор : 3
Формат : AC-3
Формат/Информация : Audio Coding 3
Коммерческое название : Dolby Digital
Идентификатор кодека : ac-3
Продолжительность : 1 ч. 53 м.
Вид битрейта : Постоянный
Битрейт : 384 Кбит/сек
Каналы : 6 каналов
Channel layout : L R C LFE Ls Rs
Частота : 48,0 КГц
Частота кадров : 31,250 кадров/сек (1536 SPF)
Метод сжатия : С потерями
Размер потока : 312 Мбайт (8%)
Язык : Russian
Service kind : Complete Main
Default : Inherited From: 2
Alternate group : 1
Дата кодирования : UTC 2020-02-28 20:30:34
Дата пометки : UTC 2020-02-28 20:35:09
Fallback To : 2
tagc : public.main-program-content

Меню
Идентификатор : 4
Идентификатор кодека : text
Продолжительность : 1 ч. 53 м.
Язык : English
Дата кодирования : UTC 2020-02-28 20:35:09
Дата пометки : UTC 2020-02-28 20:35:09
Menu For : 1
00:00:00.000 : Глава 1
00:06:54.372 : Глава 2
00:15:09.241 : Глава 3
00:25:09.591 : Глава 4
00:37:04.347 : Глава 5
00:43:33.152 : Глава 6
00:51:16.949 : Глава 7
00:58:39.391 : Глава 8
01:04:28.823 : Глава 9
01:10:21.759 : Глава 10
01:17:54.169 : Глава 11
01:23:30.505 : Глава 12
01:32:27.375 : Глава 13
01:37:19.166 : Глава 14
01:41:45.056 : Глава 15


Name: Особенные
Artist: Оливье Накаш & Эрик Толедано
Media Kind: Movie
HD Video: 720p
Genre: Драма
Release Date: 2020-01-16T08:00:00Z
Long Description: Они живут среди нас, встречаются на улицах, в вагонах метро и подъездах многоэтажек. Мы не замечаем их существования или просто боимся заметить. Это мог бы быть сюжет фильма о супергероях. Но они не парят над землей и не стреляют молниями. Это история о людях, которым отчаянно нужна помощь, и о человеке, подарившем им всю свою жизнь.
Rating: ru-movie|12+|200|
Studio: Quad Productions, Ten Films
Cast: Венсан Кассель, Реда Катеб
Director: Оливье Накаш & Эрик Толедано
Producers: Николя Дюваль-Адассовски
Screenwriters: Оливье Накаш, Эрик Толедано
Copyright: © 2020 Маурис Филм
content ID: 1498936300
iTunes Country: 143469

Скриншоты:


Все одноименные релизы в Клубе
Время раздачи: 24/7 (до появления первых 3-5 скачавших)

Релиз подготовлен для просмотра на Apple TV, iPad, iPhone, iPod Touch.
Для просмотра данного релиза на компьютере с ОС Windows рекомендуется использовать VLC media player
[NNMClub.to]_Hors.normes.2019.WEB-DL.720p.m4v.torrent
 Торрент: Платиновая раздача  Зарегистрирован
 
Скачать


Примагнититься
 Зарегистрирован:   29 Фев 2020 00:54:05
 Размер:   3,7 GB  (
 Рейтинг:    (Голосов: 9)
 Поблагодарили:   86
 Проверка:   Оформление проверено модератором 29 Фев 2020 01:22:21
Как cкачать  ·  Как раздать  ·  Правильно оформить  ·  Поднять ратио!  

_________________
«Всё против нас, только ветер навстречу…».
🍏Apple iMac 21.5 (mid 2011) / Intel Core i5 2.7 GHz / AMD Radeon HD 6770M 512 Mb / 12GB DDR3 / Apple Trackpad, Apple Keyboard / macOS High Sierra 10.13.6 (17G12034)
Показать сообщения:   
Начать новую тему   Ответить на тему    Торрент-трекер NNM-Club -> Аудио и Видео -> Зарубежное видео HD для устройств Apple Часовой пояс: GMT + 3
Страница 1 из 1