Классический форум-трекер
canvas not supported
Нас вместе: 4 103 467

Пушки Акимбо / Guns Akimbo (2019) WEB-DL [1080p] ATV [DVO]


 
 
RSS
Начать новую тему   Ответить на тему    Торрент-трекер NNM-Club -> Аудио и Видео -> Зарубежное видео HD для устройств Apple
Автор Сообщение
Весельчак У ®
Модератор Apple
Стаж: 6 лет 4 мес.
Сообщений: 5319
Ratio: 149,721
Поблагодарили: 173032
94.13%
Откуда: От Москвы недалеко...
ussr.gif
Пушки Акимбо / Guns Akimbo (2019) WEB-DL [1080p] ATV«Игра идёт за тобой»
Производство: Великобритания, Германия, Новая Зеландия / Altitude Film Entertainment, Four Knights Film, Hyperion Media Group
Жанр: Боевик, комедия

Режиссер: Джейсон Ли Хауден
Продюсер: Том Херн, Фелипе Марино, Джо Нюротер
Актеры: Дэниэл Рэдклифф, Самара Уивинг, Риз Дэрби, Нед Деннехи, Наташа Лю Бордиццо, Марк Роули, Грант Боулер, Ханако Футман, Джош Роберт Томпсон, Сет Сьостранд

Описание:
Майлз был обычным разработчиком видеоигр, пока его не втянули в кровавый квест. Незнакомцы вломились в дом, прибили к рукам два пистолета и похитили любимую девушку. Теперь Майлзу придётся сразиться с Никс — безжалостной чемпионкой подпольных игр на выживание.


Возраст: 18+ (зрителям, достигшим 18 лет. запрещено для детей)
Рейтинг MPAA: R (лицам до 17 лет обязательно присутствие взрослого)
Дата мировой премьеры: 9 сентября 2019
Дата российской премьеры: 27 февраля 2020, «Каскад фильм»

Релиз от: NNMClub

Продолжительность: 01:37:10
Качество видео: WEB-DL 1080р, Amazon
Перевод: Любительский двухголосый (LakeFilms)
Субтитры: Английские (SDH)
Присутствует ненормативная лексика!

Видео: H.264, 1920x800 (2.40:1), ~8269 kbps, 23.976 fps
Аудио#1: AAC, 2 ch, 192 Kbps - Русский DVO, LakeFilms
Аудио#2: AAC, 2 ch, 198 Kbps - English Original
Аудио#3: AC3, 6 ch, 640 Kbps - English Original

Общее
Полное имя : /Volumes/HDD/Movies/NNMC/Guns.Akimbo.2019.WEB-DL.1080p.m4v
Формат : MPEG-4
Идентификатор кодека : M4V (M4V /M4A /mp42/isom)
Размер файла : 6,36 Гбайт
Продолжительность : 1 ч. 37 м.
Режим общего битрейта : Переменный
Общий поток : 9313 Кбит/сек
Название фильма : Пушки Акимбо
Исполнитель : Jason Lei Howden
Режиссёр : Jason Lei Howden
Исполнитель : Daniel Radcliffe / Samara Weaving / Natasha Liu Bordizzo / Ned Dennehy / Mark Rowley / Hanako Footman / Rhys Darby
Сценарист : Jason Lei Howden
Продюсер : Felipe Marino / Joe Neurauter / Tom Hern
Исполнительный продюсер : Adrian Politowski, Will Clarke, Jay Taylor, Michael J. Mailis, John Jencks, Andy Mayson, Bastien Sirodot, Joe Simpson, Alexander Borgers, Stefan Kapelari, Mortiz Peters
Студия-производитель : Occupant Films, Altitude Film Entertainment, Four Knights Film, Hyperion Media Group, Ingenious Media, Maze Pictures, Pump Metal Films, The Electric Shadow Company
Жанр : комедия, боевик
Тип содержимого : Short Film
Дата записи : UTC 2020-02-27 12:00:00
Дата кодирования : UTC 2020-02-29 14:52:03
Дата пометки : UTC 2020-02-29 14:55:11
Обложка : Yes
LongDescription : В центре сюжета обычный парень, который оказывается втянутым в гладиаторские бои, транслируемые в интернете, и пытается спасти свою похищенную бывшую девушку.

Видео #1
Идентификатор : 1
Формат : AVC
Формат/Информация : Advanced Video Codec
Профиль формата : High@L4
Настройки формата : CABAC / 4 Ref Frames
Параметр CABAC формата : Да
Параметр ReFrames формата : 4 кадра
Идентификатор кодека : avc1
Идентификатор кодека/Информация : Advanced Video Coding
Продолжительность : 1 ч. 37 м.
Вид битрейта : Постоянный
Битрейт : 8269 Кбит/сек
Номинальный битрейт : 10000 Кбит/сек
Ширина : 1920 пикселей
Высота : 800 пикселей
Соотношение сторон : 2,40:1
Режим частоты кадров : Переменный
Частота кадров : 23,976 (24000/1001) кадра/сек
Минимальная частота кадров : 23,810 кадра/сек
Максимальная частота кадров : 24,390 кадра/сек
Цветовое пространство : YUV
Субдискретизация насыщенности : 4:2:0
Битовая глубина : 8 бит
Тип развёртки : Прогрессивная
Бит/(Пиксели*Кадры) : 0.225
Размер потока : 5,65 Гбайт (89%)
Язык : English
Дата кодирования : UTC 2020-02-29 14:52:03
Дата пометки : UTC 2020-02-29 14:55:05
Цветовой диапазон : Limited
Основные цвета : BT.709
Характеристики трансфера : BT.709
Коэффициенты матрицы : BT.709
Menus : 7,8
Codec configuration box : avcC

Видео #2
Идентификатор : 8
Формат : JPEG
Идентификатор кодека : jpeg
Продолжительность : 1 ч. 37 м.
Вид битрейта : Переменный
Битрейт : 487 бит/сек
Ширина : 640 пикселей
Высота : 266 пикселей
Соотношение сторон : 2,40:1
Режим частоты кадров : Переменный
Частота кадров : 0,002 кадр/сек
Минимальная частота кадров : 0,001 кадр/сек
Максимальная частота кадров : 0,004 кадр/сек
Цветовое пространство : YUV
Субдискретизация насыщенности : 4:2:0
Битовая глубина : 8 бит
Метод сжатия : С потерями
Бит/(Пиксели*Кадры) : 1.430
Размер потока : 327 Кбайт (0%)
Язык : English
Default : Нет
Дата кодирования : UTC 2020-02-29 14:55:10
Дата пометки : UTC 2020-02-29 14:55:11
Menu For : 1
ColorSpace_ICC : RGB

Аудио #1
Идентификатор : 2
Формат : AAC LC
Формат/Информация : Advanced Audio Codec Low Complexity
Идентификатор кодека : mp4a-40-2
Продолжительность : 1 ч. 37 м.
Вид битрейта : Переменный
Битрейт : 192 Кбит/сек
Максимальный битрейт : 318 Кбит/сек
Каналы : 2 канала
Channel layout : L R
Частота : 48,0 КГц
Частота кадров : 46,875 кадров/сек (1024 SPF)
Метод сжатия : С потерями
Размер потока : 136 Мбайт (2%)
Язык : Russian
Default : Да
Alternate group : 1
Дата кодирования : UTC 2020-02-29 14:52:03
Дата пометки : UTC 2020-02-29 14:55:05
tagc : public.main-program-content

Аудио #2
Идентификатор : 3
Формат : AAC LC
Формат/Информация : Advanced Audio Codec Low Complexity
Идентификатор кодека : mp4a-40-2
Продолжительность : 1 ч. 37 м.
Продолжительность оригинала : 1 ч. 37 м.
Вид битрейта : Переменный
Битрейт : 198 Кбит/сек
Максимальный битрейт : 339 Кбит/сек
Каналы : 2 канала
Channel layout : L R
Частота : 48,0 КГц
Частота кадров : 46,875 кадров/сек (1024 SPF)
Метод сжатия : С потерями
Размер потока : 139 Мбайт (2%)
Размер потока оригинала : 139 Мбайт (2%)
Язык : English
Default : Нет
Alternate group : 1
Дата кодирования : UTC 2020-02-29 14:52:03
Дата пометки : UTC 2020-02-29 14:54:04
Fallback From : 4
tagc : public.main-program-content

Аудио #3
Идентификатор : 4
Формат : AC-3
Формат/Информация : Audio Coding 3
Коммерческое название : Dolby Digital
Идентификатор кодека : ac-3
Продолжительность : 1 ч. 37 м.
Вид битрейта : Постоянный
Битрейт : 640 Кбит/сек
Каналы : 6 каналов
Channel layout : L R C LFE Ls Rs
Частота : 48,0 КГц
Частота кадров : 31,250 кадров/сек (1536 SPF)
Метод сжатия : С потерями
Размер потока : 448 Мбайт (7%)
Язык : English
Service kind : Complete Main
Default : Нет
Alternate group : 1
Дата кодирования : UTC 2020-02-29 14:52:03
Дата пометки : UTC 2020-02-29 14:54:03
Fallback To : 3
tagc : public.main-program-content

Текст #1
Идентификатор : 5
Формат : Timed Text
Режим смешивания : sbtl
Идентификатор кодека : tx3g
Продолжительность : 1 ч. 30 м.
Вид битрейта : Переменный
Битрейт : 81 бит/сек
Размер потока : 53,5 Кбайт (0%)
Язык : English
Default : Да
Forced : Нет
Alternate group : 2
Дата кодирования : UTC 2020-02-29 14:52:03
Дата пометки : UTC 2020-02-29 14:55:05
tagc : public.main-program-content

Текст #2
Идентификатор : 6
Формат : Timed Text
Режим смешивания : sbtl
Идентификатор кодека : tx3g
Продолжительность : 1 ч. 30 м.
Вид битрейта : Переменный
Битрейт : 80 бит/сек
Размер потока : 53,2 Кбайт (0%)
Язык : English
Default : Нет
Forced : Нет
Alternate group : 2
Дата кодирования : UTC 2020-02-29 14:52:03
Дата пометки : UTC 2020-02-29 14:55:05
tagc : public.accessibility.transcribes-spoken-dialog

Меню
Идентификатор : 7
Идентификатор кодека : text
Продолжительность : 1 ч. 37 м.
Язык : English
Дата кодирования : UTC 2020-02-29 14:55:05
Дата пометки : UTC 2020-02-29 14:55:05
Menu For : 1
00:00:00.000 : 1
00:04:15.000 : 2
00:12:40.000 : 3
00:22:38.000 : 4
00:31:55.000 : 5
00:41:14.000 : 6
00:51:44.000 : 7
01:01:40.000 : 8
01:10:00.000 : 9
01:21:25.000 : 10
01:30:08.000 : 11


Name: Пушки Акимбо
Artist: Jason Lei Howden
Media Kind: Movie
HD Video: 1080p
Genre: комедия, боевик
Release Date: 2020-02-27T12:00:00Z
Long Description: В центре сюжета обычный парень, который оказывается втянутым в гладиаторские бои, транслируемые в интернете, и пытается спасти свою похищенную бывшую девушку.
Studio: Occupant Films, Altitude Film Entertainment, Four Knights Film, Hyperion Media Group, Ingenious Media, Maze Pictures, Pump Metal Films, The Electric Shadow Company
Cast: Daniel Radcliffe, Samara Weaving, Natasha Liu Bordizzo, Ned Dennehy, Mark Rowley, Hanako Footman, Rhys Darby
Director: Jason Lei Howden
Producers: Felipe Marino, Joe Neurauter, Tom Hern
Executive Producer: Adrian Politowski, Will Clarke, Jay Taylor, Michael J. Mailis, John Jencks, Andy Mayson, Bastien Sirodot, Joe Simpson, Alexander Borgers, Stefan Kapelari, Mortiz Peters
Screenwriters: Jason Lei Howden

Скриншоты:


Все одноименные релизы в Клубе
Время раздачи: 24/7 (до появления первых 3-5 скачавших)

Релиз подготовлен для просмотра на Apple TV, iPad, iPhone, iPod Touch.
Для просмотра данного релиза на компьютере с ОС Windows рекомендуется использовать VLC media player
[NNMClub.to]_Guns.Akimbo.2019.WEB-DL.1080p.m4v.torrent
 Торрент: Платиновая раздача  Зарегистрирован
 
Скачать


Примагнититься
 Зарегистрирован:   29 Фев 2020 18:05:45
 Размер:   6,36 GB  (
 Рейтинг:   4,9 (Голосов: 22)
 Поблагодарили:   97
 Проверка:   Оформление проверено модератором 29 Фев 2020 22:17:41
Как cкачать  ·  Как раздать  ·  Правильно оформить  ·  Поднять ратио!  

_________________
«Всё против нас, только ветер навстречу…».
🍏Apple iMac 21.5 (mid 2011) / Intel Core i5 2.7 GHz / AMD Radeon HD 6770M 512 Mb / 12GB DDR3 / Apple Trackpad, Apple Keyboard / macOS High Sierra 10.13.6 (17G12034)
Показать сообщения:   
Начать новую тему   Ответить на тему    Торрент-трекер NNM-Club -> Аудио и Видео -> Зарубежное видео HD для устройств Apple Часовой пояс: GMT + 3
Страница 1 из 1