Классический форум-трекер
canvas not supported
Нас вместе: 4 104 393

Миллион мелких осколков / A Million Little Pieces (2018) WEB-DL [1080p] ATV


 
 
RSS
Начать новую тему   Ответить на тему    Торрент-трекер NNM-Club -> Аудио и Видео -> Зарубежное видео HD для устройств Apple
Автор Сообщение
Весельчак У ®
Модератор Apple
Стаж: 6 лет 4 мес.
Сообщений: 5363
Ratio: 151,025
Поблагодарили: 174278
94.22%
Откуда: От Москвы недалеко...
ussr.gif
Миллион мелких осколков / A Million Little Pieces (2018) WEB-DL [1080p] ATV«Я в порядке»
Производство: США / 3Blackdot, Federal Films, Makeready
Жанр: Драма

Режиссер: Сэм Тейлор-Джонсон
Продюсер: Памела Эбди, Алекс Хейнеман, Эндрю Рона
Актеры: Аарон Тейлор-Джонсон, Билли Боб Торнтон, Одесса Янг, Джованни Рибизи, Джульетт Льюис, Дэш Майок, Чарльз Парнелл, Райан Херст, Давид Дастмалчян, Том Амандес

Описание:
Молодой писатель Джеймс просыпается в разбитом состоянии на борту самолета в Миннеаполисе, ничего не помня о предыдущих событиях. Вскоре выясняется, что Джеймс направлен в реабилитационный центр. Испытания, выпавшие на долю героя, должны исцелить его от душевных страданий. В процессе терапии он сближается с другими пациентами — харизматичным боссом мафии и молодой девушкой, в которую по правилам клиники ему запрещено влюбляться.


Возраст: 18+ (зрителям, достигшим 18 лет. запрещено для детей)
Рейтинг MPAA: R (лицам до 17 лет обязательно присутствие взрослого)
Дата мировой премьеры: 10 сентября 2018
Дата российской премьеры: 30 января 2020, «Russian World Vision»

Продолжительность: 01:52:37
Качество видео: WEB-DL 1080р (Amazon)
Перевод: Дублированный (iTunes)
Субтитры: Английские (full, SDH)

Видео: H.264, 1920x800 (2.40:1), ~6049 kbps, 23.976 fps
Аудио#1: AAC, 2 ch, 197 Kbps - Русский DUB, iTunes
Аудио#2: AAC, 2 ch, 192 Kbps - English Original
Аудио#3: AC3, 6 ch, 384 Kbps - Русский DUB, iTunes
Аудио#4: AC3, 6 ch, 640 Kbps - English Original

Общее
Полное имя : /Volumes/HDD/Movies/NNMC/A.Million.Little.Pieces.2018.WEB-DL.1080p.m4v
Формат : MPEG-4
Идентификатор кодека : M4V (M4V /M4A /mp42/isom)
Размер файла : 5,88 Гбайт
Продолжительность : 1 ч. 52 м.
Режим общего битрейта : Переменный
Общий поток : 7468 Кбит/сек
Название фильма : Миллион мелких осколков
Исполнитель : Sam Taylor-Johnson
Композитор : Atticus Ross, Claudia Sarne, Leopold Ross
Режиссёр : Sam Taylor-Johnson
Исполнитель : Aaron Taylor-Johnson / Billy Bob Thornton / Odessa Young / Giovanni Ribisi / Juliette Lewis / Charlie Hunnam / Ryan Hurst / Tom Amandes / Carla Juri / Andy Mackenzie / David Dastmalchian / Andy Buckley / Dash Mihok / Carson Meyer / Eugene Byrd / Charles Parnell / Logan Devore
Сценарист : Aaron Taylor-Johnson / James Frey / Sam Taylor-Johnson
Продюсер : Pamela Abdy / Aaron Taylor-Johnson / Andrew Rona / Alex Heineman / Sam Taylor-Johnson
Исполнительный продюсер : Dara Weintraub, Dana Sano, David Krintzman
Студия-производитель : Makeready, The Picture Company, 3BlackDot, Federal Films, Snoopsquirrel
Жанр : драма
Тип содержимого : Short Film
Дата записи : UTC 2019-08-30 12:00:00
Дата кодирования : UTC 2020-03-01 14:34:58
Дата пометки : UTC 2020-03-01 14:38:35
Обложка : Yes
LongDescription : Молодой писатель Джеймс просыпается на борту самолета в Чикаго, ничего не помня о предыдущих событиях и причинах своего разбитого состояния. Вскоре выясняется, что он против воли направлен в строгий реабилитационный центр, где лечат алкоголизм и наркоманию. Джеймс проходит лечение на грани пыток. Одновременно он сближается с другими пациентами — зависимым боссом мафии и молодой наркоманкой, в которую по правилам клиники ему запрещено влюбляться.
ContentRating : mpaa|R|400|

Видео #1
Идентификатор : 1
Формат : AVC
Формат/Информация : Advanced Video Codec
Профиль формата : High@L4
Настройки формата : CABAC / 4 Ref Frames
Параметр CABAC формата : Да
Параметр ReFrames формата : 4 кадра
Идентификатор кодека : avc1
Идентификатор кодека/Информация : Advanced Video Coding
Продолжительность : 1 ч. 52 м.
Вид битрейта : Постоянный
Битрейт : 6049 Кбит/сек
Номинальный битрейт : 10000 Кбит/сек
Ширина : 1920 пикселей
Высота : 800 пикселей
Соотношение сторон : 2,40:1
Режим частоты кадров : Переменный
Частота кадров : 23,976 (24000/1001) кадра/сек
Минимальная частота кадров : 23,810 кадра/сек
Максимальная частота кадров : 24,390 кадра/сек
Цветовое пространство : YUV
Субдискретизация насыщенности : 4:2:0
Битовая глубина : 8 бит
Тип развёртки : Прогрессивная
Бит/(Пиксели*Кадры) : 0.164
Размер потока : 4,76 Гбайт (81%)
Язык : English
Дата кодирования : UTC 2020-03-01 14:34:58
Дата пометки : UTC 2020-03-01 14:38:24
Цветовой диапазон : Limited
Основные цвета : BT.709
Характеристики трансфера : BT.709
Коэффициенты матрицы : BT.709
Menus : 8,9
Codec configuration box : avcC

Видео #2
Идентификатор : 9
Формат : JPEG
Идентификатор кодека : jpeg
Продолжительность : 1 ч. 52 м.
Вид битрейта : Переменный
Битрейт : 388 бит/сек
Ширина : 640 пикселей
Высота : 266 пикселей
Соотношение сторон : 2,40:1
Режим частоты кадров : Переменный
Частота кадров : 0,002 кадр/сек
Минимальная частота кадров : 0,001 кадр/сек
Максимальная частота кадров : 0,004 кадр/сек
Цветовое пространство : YUV
Субдискретизация насыщенности : 4:2:0
Битовая глубина : 8 бит
Метод сжатия : С потерями
Бит/(Пиксели*Кадры) : 1.140
Размер потока : 355 Кбайт (0%)
Язык : English
Default : Нет
Дата кодирования : UTC 2020-03-01 14:38:34
Дата пометки : UTC 2020-03-01 14:38:35
Menu For : 1
ColorSpace_ICC : RGB

Аудио #1
Идентификатор : 2
Формат : AAC LC
Формат/Информация : Advanced Audio Codec Low Complexity
Идентификатор кодека : mp4a-40-2
Продолжительность : 1 ч. 52 м.
Вид битрейта : Переменный
Битрейт : 197 Кбит/сек
Максимальный битрейт : 321 Кбит/сек
Каналы : 2 канала
Channel layout : L R
Частота : 48,0 КГц
Частота кадров : 46,875 кадров/сек (1024 SPF)
Метод сжатия : С потерями
Размер потока : 158 Мбайт (3%)
Язык : Russian
Default : Да
Alternate group : 1
Дата кодирования : UTC 2020-03-01 14:34:58
Дата пометки : UTC 2020-03-01 14:38:24
Fallback From : 4
tagc : public.main-program-content

Аудио #2
Идентификатор : 3
Формат : AAC LC
Формат/Информация : Advanced Audio Codec Low Complexity
Идентификатор кодека : mp4a-40-2
Продолжительность : 1 ч. 52 м.
Продолжительность оригинала : 1 ч. 52 м.
Вид битрейта : Переменный
Битрейт : 192 Кбит/сек
Максимальный битрейт : 322 Кбит/сек
Каналы : 2 канала
Channel layout : L R
Частота : 48,0 КГц
Частота кадров : 46,875 кадров/сек (1024 SPF)
Метод сжатия : С потерями
Размер потока : 152 Мбайт (3%)
Размер потока оригинала : 152 Мбайт (3%)
Язык : English
Default : Нет
Alternate group : 1
Дата кодирования : UTC 2020-03-01 14:34:58
Дата пометки : UTC 2020-03-01 14:37:46
Fallback From : 5
tagc : public.main-program-content

Аудио #3
Идентификатор : 4
Формат : AC-3
Формат/Информация : Audio Coding 3
Коммерческое название : Dolby Digital
Идентификатор кодека : ac-3
Продолжительность : 1 ч. 52 м.
Вид битрейта : Постоянный
Битрейт : 384 Кбит/сек
Каналы : 6 каналов
Channel layout : L R C LFE Ls Rs
Частота : 48,0 КГц
Частота кадров : 31,250 кадров/сек (1536 SPF)
Метод сжатия : С потерями
Размер потока : 309 Мбайт (5%)
Язык : Russian
Service kind : Complete Main
Default : Inherited From: 2
Alternate group : 1
Дата кодирования : UTC 2020-03-01 14:34:58
Дата пометки : UTC 2020-03-01 14:38:24
Fallback To : 2
tagc : public.main-program-content

Аудио #4
Идентификатор : 5
Формат : AC-3
Формат/Информация : Audio Coding 3
Коммерческое название : Dolby Digital
Идентификатор кодека : ac-3
Продолжительность : 1 ч. 52 м.
Вид битрейта : Постоянный
Битрейт : 640 Кбит/сек
Каналы : 6 каналов
Channel layout : L R C LFE Ls Rs
Частота : 48,0 КГц
Частота кадров : 31,250 кадров/сек (1536 SPF)
Метод сжатия : С потерями
Размер потока : 516 Мбайт (9%)
Язык : English
Service kind : Complete Main
Default : Нет
Alternate group : 1
Дата кодирования : UTC 2020-03-01 14:34:58
Дата пометки : UTC 2020-03-01 14:37:45
Fallback To : 3
tagc : public.main-program-content

Текст #1
Идентификатор : 6
Формат : Timed Text
Режим смешивания : sbtl
Идентификатор кодека : tx3g
Продолжительность : 1 ч. 52 м.
Вид битрейта : Переменный
Битрейт : 62 бит/сек
Размер потока : 51,1 Кбайт (0%)
Язык : English
Default : Да
Forced : Нет
Alternate group : 2
Дата кодирования : UTC 2020-03-01 14:34:58
Дата пометки : UTC 2020-03-01 14:38:24
tagc : public.main-program-content

Текст #2
Идентификатор : 7
Формат : Timed Text
Режим смешивания : sbtl
Идентификатор кодека : tx3g
Продолжительность : 1 ч. 52 м.
Вид битрейта : Переменный
Битрейт : 65 бит/сек
Размер потока : 53,6 Кбайт (0%)
Язык : English
Default : Нет
Forced : Нет
Alternate group : 2
Дата кодирования : UTC 2020-03-01 14:34:58
Дата пометки : UTC 2020-03-01 14:38:24
tagc : public.accessibility.transcribes-spoken-dialog

Меню
Идентификатор : 8
Идентификатор кодека : text
Продолжительность : 1 ч. 52 м.
Язык : English
Дата кодирования : UTC 2020-03-01 14:38:24
Дата пометки : UTC 2020-03-01 14:38:24
Menu For : 1
00:00:00.000 : Глава 1
00:03:58.916 : Глава 2
00:07:50.249 : Глава 3
00:16:18.832 : Глава 4
00:24:17.915 : Глава 5
00:30:51.789 : Глава 6
00:38:18.164 : Глава 7
00:46:39.247 : Глава 8
00:53:26.205 : Глава 9
01:01:39.830 : Глава 10
01:05:54.205 : Глава 11
01:17:46.205 : Глава 12
01:24:14.787 : Глава 13
01:31:37.787 : Глава 14
01:41:37.162 : Глава 15


Name: Миллион мелких осколков
Artist: Sam Taylor-Johnson
Media Kind: Movie
HD Video: 1080p
Genre: драма
Release Date: 2019-08-30T12:00:00Z
Long Description: Молодой писатель Джеймс просыпается на борту самолета в Чикаго, ничего не помня о предыдущих событиях и причинах своего разбитого состояния. Вскоре выясняется, что он против воли направлен в строгий реабилитационный центр, где лечат алкоголизм и наркоманию. Джеймс проходит лечение на грани пыток. Одновременно он сближается с другими пациентами — зависимым боссом мафии и молодой наркоманкой, в которую по правилам клиники ему запрещено влюбляться.
Rating: mpaa|R|400|
Studio: Makeready, The Picture Company, 3BlackDot, Federal Films, Snoopsquirrel
Cast: Aaron Taylor-Johnson, Billy Bob Thornton, Odessa Young, Giovanni Ribisi, Juliette Lewis, Charlie Hunnam, Ryan Hurst, Tom Amandes, Carla Juri, Andy Mackenzie, David Dastmalchian, Andy Buckley, Dash Mihok, Carson Meyer, Eugene Byrd, Charles Parnell, Logan Devore
Director: Sam Taylor-Johnson
Producers: Pamela Abdy, Aaron Taylor-Johnson, Andrew Rona, Alex Heineman, Sam Taylor-Johnson
Executive Producer: Dara Weintraub, Dana Sano, David Krintzman
Screenwriters: Aaron Taylor-Johnson, James Frey, Sam Taylor-Johnson
Composer: Atticus Ross, Claudia Sarne, Leopold Ross

Скриншоты:


Все одноименные релизы в Клубе
Время раздачи: 24/7 (до появления первых 3-5 скачавших)

Релиз подготовлен для просмотра на Apple TV, iPad, iPhone, iPod Touch.
Для просмотра данного релиза на компьютере с ОС Windows рекомендуется использовать VLC media player
[NNMClub.to]_A.Million.Little.Pieces.2018.WEB-DL.1080p.m4v.torrent
 Торрент: Платиновая раздача  Зарегистрирован
 
Скачать


Примагнититься
 Зарегистрирован:   01 Мар 2020 18:03:14
 Размер:   5,88 GB  (
 Рейтинг:    (Голосов: 8)
 Поблагодарили:   37
 Проверка:   Оформление проверено модератором 01 Мар 2020 18:49:58
Как cкачать  ·  Как раздать  ·  Правильно оформить  ·  Поднять ратио!  

_________________
«Всё против нас, только ветер навстречу…».
🍏Apple iMac 21.5 (mid 2011) / Intel Core i5 2.7 GHz / AMD Radeon HD 6770M 512 Mb / 12GB DDR3 / Apple Trackpad, Apple Keyboard / macOS High Sierra 10.13.6 (17G12034)
Показать сообщения:   
Начать новую тему   Ответить на тему    Торрент-трекер NNM-Club -> Аудио и Видео -> Зарубежное видео HD для устройств Apple Часовой пояс: GMT + 3
Страница 1 из 1