Классический форум-трекер
canvas not supported
Нас вместе: 4 103 385

(НЕ)идеальный мужчина (2020) WEB-DL [1080p] ATV


 
 
RSS
Начать новую тему   Ответить на тему    Торрент-трекер NNM-Club -> Аудио и Видео -> Отечественное видео HD для устройств Apple
Автор Сообщение
Весельчак У ®
Модератор Apple
Стаж: 6 лет 4 мес.
Сообщений: 5315
Ratio: 149,679
Поблагодарили: 173001
94.13%
Откуда: От Москвы недалеко...
ussr.gif
(НЕ)идеальный мужчина (2020) WEB-DL [1080p] ATV
Производство: Россия / ГПМ КИТ, Нон-стоп Продакшн
Жанр: Комедия, фантастика, мелодрама

Режиссер: Марюс Вайсберг
Продюсер: Рафаел Минасбекян, Александр Роднянский, Сергей Мелькумов
Актеры: Юлия Александрова, Егор Крид, Роман Курцын, Максим Лагашкин, Артем Сучков, Яна Кошкина, Алика Смехова, Дэниел Барнс, Ирина Гринёва, Владимир Андриянов

Описание:
Свете не везет с отношениями: она вечно подстраивается под парней, унижается и терпит измены. После расставания с очередным непутевым бойфрендом девушка идет работать в компанию по продаже роботов. Те уже стали частью обычной жизни, их не отличить от людей, но не в пример своим создателям роботы чутко реагируют на характер человека, его потребности, привычки и слабости. Когда у одного из роботов обнаруживается программный сбой и его хотят вернуть производителю, Света упрашивает продать его ей, так как… влюбляется в него, приняв технический дефект за проявление личности. Более того, Света хочет связать свою жизнь с чутким, внимательным и заботливым роботом, и это приводит к самым неожиданным последствиям…


Возраст: 12+ (зрителям, достигшим 12 лет)
Дата мировой премьеры: 23 января 2020
Дата российской премьеры: 16 января 2020, «Централ Партнершип»

Продолжительность: 01:28:00
Качество видео: WEB-DL 1080р
Перевод: Не требуется, русский
Субтитры: Отсутствуют

Видео: H.264, 1920x806 (2.40:1), ~4675 kbps, 25.000 fps
Аудио#1: AAC, 2 ch, 197 Kbps - Русский iTunes
Аудио#2: AC3, 6 ch, 384 Kbps - Русский iTunes

Общее
Полное имя : /Volumes/HDD/Movies/NNMC/НЕ.идеальный.мужчина.2020.WEB-DL.1080p.m4v
Формат : MPEG-4
Идентификатор кодека : M4V (M4V /M4A /mp42/isom)
Размер файла : 3,23 Гбайт
Продолжительность : 1 ч. 28 м.
Режим общего битрейта : Переменный
Общий поток : 5262 Кбит/сек
Название фильма : (НЕ)Идеальный мужчина
Исполнитель : Марюс Вайсберг
Режиссёр : Марюс Вайсберг
Исполнитель : Егор Крид / Юлия Александрова / Роман Курцын / Максим Лагашкин / Артем Сучков
Сценарист : Жора Крыжовников / Евгения Хрипкова
Продюсер : Марюс Вайсберг / Александр Роднянский / Сергей Мелькумов
Студия-производитель : Киностудия КИТ, Нон-стоп Продакшн
Жанр : Русские
Тип содержимого : Short Film
Дата записи : UTC 2020-01-16 08:00:00
Дата кодирования : UTC 2020-03-02 14:06:30
Дата пометки : UTC 2020-03-02 14:10:32
Авторское право : © 2019 "Централ Партнершип Сейлз Хаус"
Обложка : Yes
LongDescription : Свете не везет с отношениями: она вечно подстраивается под парней, унижается и терпит измены. После расставания с очередным непутевым бойфрендом девушка идет работать в компанию по продаже роботов. Те уже стали частью обычной жизни, их не отличить от людей, но не в пример своим создателям роботы чутко реагируют на характер человека, его потребности, привычки и слабости. Когда у одного из роботов обнаруживается программный сбой и его хотят вернуть производителю, Света упрашивает продать его ей, так как… влюбляется в него, приняв технический дефект за проявление личности. Более того, Света хочет связать свою жизнь с чутким, внимательным и заботливым роботом, и это приводит к самым неожиданным последствиям…
AppleStoreCountry : Russia
AppleStoreCatalogID : 1496971330
ContentRating : ru-movie|12+|200|

Видео #1
Идентификатор : 1
Формат : AVC
Формат/Информация : Advanced Video Codec
Профиль формата : High@L4
Настройки формата : CABAC / 5 Ref Frames
Параметр CABAC формата : Да
Параметр ReFrames формата : 5 кадров
Идентификатор кодека : avc1
Идентификатор кодека/Информация : Advanced Video Coding
Продолжительность : 1 ч. 28 м.
Битрейт : 4675 Кбит/сек
Ширина : 1920 пикселей
Высота : 806 пикселей
Соотношение сторон : 2,40:1
Режим частоты кадров : Постоянный
Частота кадров : 25,000 кадров/сек
Цветовое пространство : YUV
Субдискретизация насыщенности : 4:2:0
Битовая глубина : 8 бит
Тип развёртки : Прогрессивная
Бит/(Пиксели*Кадры) : 0.121
Размер потока : 2,87 Гбайт (89%)
Язык : English
Дата кодирования : UTC 2020-03-02 14:06:30
Дата пометки : UTC 2020-03-02 14:10:21
Цветовой диапазон : Limited
Основные цвета : BT.709
Характеристики трансфера : BT.709
Коэффициенты матрицы : BT.709
Menus : 4,5
Codec configuration box : avcC

Видео #2
Идентификатор : 5
Формат : JPEG
Идентификатор кодека : jpeg
Продолжительность : 1 ч. 28 м.
Вид битрейта : Переменный
Битрейт : 551 бит/сек
Ширина : 640 пикселей
Высота : 268 пикселей
Соотношение сторон : 2,40:1
Режим частоты кадров : Переменный
Частота кадров : 0,002 кадр/сек
Минимальная частота кадров : 0,002 кадр/сек
Максимальная частота кадров : 0,004 кадр/сек
Цветовое пространство : YUV
Субдискретизация насыщенности : 4:2:0
Битовая глубина : 8 бит
Метод сжатия : С потерями
Бит/(Пиксели*Кадры) : 1.606
Размер потока : 438 Кбайт (0%)
Язык : English
Default : Нет
Дата кодирования : UTC 2020-03-02 14:10:31
Дата пометки : UTC 2020-03-02 14:10:32
Menu For : 1
ColorSpace_ICC : RGB

Аудио #1
Идентификатор : 2
Формат : AAC LC
Формат/Информация : Advanced Audio Codec Low Complexity
Идентификатор кодека : mp4a-40-2
Продолжительность : 1 ч. 28 м.
Вид битрейта : Переменный
Битрейт : 197 Кбит/сек
Максимальный битрейт : 311 Кбит/сек
Каналы : 2 канала
Channel layout : L R
Частота : 48,0 КГц
Частота кадров : 46,875 кадров/сек (1024 SPF)
Метод сжатия : С потерями
Размер потока : 124 Мбайт (4%)
Язык : Russian
Default : Да
Alternate group : 1
Дата кодирования : UTC 2020-03-02 14:06:30
Дата пометки : UTC 2020-03-02 14:10:21
Fallback From : 3
tagc : public.main-program-content

Аудио #2
Идентификатор : 3
Формат : AC-3
Формат/Информация : Audio Coding 3
Коммерческое название : Dolby Digital
Идентификатор кодека : ac-3
Продолжительность : 1 ч. 28 м.
Вид битрейта : Постоянный
Битрейт : 384 Кбит/сек
Каналы : 6 каналов
Channel layout : L R C LFE Ls Rs
Частота : 48,0 КГц
Частота кадров : 31,250 кадров/сек (1536 SPF)
Метод сжатия : С потерями
Размер потока : 242 Мбайт (7%)
Язык : Russian
Service kind : Complete Main
Default : Inherited From: 2
Alternate group : 1
Дата кодирования : UTC 2020-03-02 14:06:30
Дата пометки : UTC 2020-03-02 14:10:21
Fallback To : 2
tagc : public.main-program-content

Меню
Идентификатор : 4
Идентификатор кодека : text
Продолжительность : 1 ч. 28 м.
Язык : English
Дата кодирования : UTC 2020-03-02 14:10:22
Дата пометки : UTC 2020-03-02 14:10:22
Menu For : 1
00:00:00.000 : Глава 1
00:06:53.280 : Глава 2
00:14:47.040 : Глава 3
00:20:15.040 : Глава 4
00:26:21.159 : Глава 5
00:33:22.559 : Глава 6
00:39:21.999 : Глава 7
00:46:59.558 : Глава 8
00:54:24.117 : Глава 9
00:58:59.477 : Глава 10
01:06:41.877 : Глава 11
01:11:57.757 : Глава 12
01:19:45.796 : Глава 13


Name: (НЕ)Идеальный мужчина
Artist: Марюс Вайсберг
Media Kind: 9
HD Video: 2
Genre: Русские
Release Date: 2020-01-16T08:00:00Z
Long Description: Свете не везет с отношениями: она вечно подстраивается под парней, унижается и терпит измены. После расставания с очередным непутевым бойфрендом девушка идет работать в компанию по продаже роботов. Те уже стали частью обычной жизни, их не отличить от людей, но не в пример своим создателям роботы чутко реагируют на характер человека, его потребности, привычки и слабости. Когда у одного из роботов обнаруживается программный сбой и его хотят вернуть производителю, Света упрашивает продать его ей, так как… влюбляется в него, приняв технический дефект за проявление личности. Более того, Света хочет связать свою жизнь с чутким, внимательным и заботливым роботом, и это приводит к самым неожиданным последствиям…
Rating: ru-movie|12+|200|
Studio: Киностудия КИТ, Нон-стоп Продакшн
Cast: Егор Крид, Юлия Александрова, Роман Курцын, Максим Лагашкин, Артем Сучков
Director: Марюс Вайсберг
Producers: Марюс Вайсберг, Александр Роднянский, Сергей Мелькумов
Screenwriters: Жора Крыжовников, Евгения Хрипкова
Copyright: © 2019 "Централ Партнершип Сейлз Хаус"
content ID: 1496971330
iTunes Country: 143469

Скриншоты:


Все одноименные релизы в Клубе
Время раздачи: 24/7 (до появления первых 3-5 скачавших)

Релиз подготовлен для просмотра на Apple TV, iPad, iPhone, iPod Touch.
Для просмотра данного релиза на компьютере с ОС Windows рекомендуется использовать VLC media player
[NNMClub.to]_NE.ideal'nyiĭ.muzhchina.2020.WEB-DL.1080p.m4v.torrent
 Торрент: Платиновая раздача  Зарегистрирован
 
Скачать


Примагнититься
 Зарегистрирован:   02 Мар 2020 17:21:22
 Размер:   3,23 GB  (
 Рейтинг:   4,5 (Голосов: 36)
 Поблагодарили:   163
 Проверка:   Оформление проверено модератором 02 Мар 2020 18:11:09
Как cкачать  ·  Как раздать  ·  Правильно оформить  ·  Поднять ратио!  

_________________
«Всё против нас, только ветер навстречу…».
🍏Apple iMac 21.5 (mid 2011) / Intel Core i5 2.7 GHz / AMD Radeon HD 6770M 512 Mb / 12GB DDR3 / Apple Trackpad, Apple Keyboard / macOS High Sierra 10.13.6 (17G12034)
Sagit1980
Стаж: 7 лет 4 мес.
Сообщений: 1
Ratio: 14,895
0.63%
Фильм неожиданно очень крутой!!!!
kurd13

Online
Стаж: 8 лет 4 мес.
Сообщений: 31
Ratio: 4,366
Поблагодарили: 975
54.14%
ussr.gif
Sagit1980 писал(а): Перейти к сообщению
Фильм неожиданно очень крутой!!!!

НЕ ВЕРЮ!!!))
Lyo-Lya-Lya
Стаж: 1 год 7 мес.
Сообщений: 11
Ratio: 5,612
2.89%
Фильм ужасный. Жаль потраченного времени. Еле досмотрела на перемотках...
Показать сообщения:   
Начать новую тему   Ответить на тему    Торрент-трекер NNM-Club -> Аудио и Видео -> Отечественное видео HD для устройств Apple Часовой пояс: GMT + 3
Страница 1 из 1