Классический форум-трекер
canvas not supported
Нас вместе: 4 103 279

Дом, который построил Джек / The House That Jack Built (2018) BDRip [720p] ATV


 
 
RSS
Начать новую тему   Ответить на тему    Торрент-трекер NNM-Club -> Аудио и Видео -> Зарубежное видео HD для устройств Apple
Автор Сообщение
Весельчак У ®
Модератор Apple
Стаж: 6 лет 3 мес.
Сообщений: 5295
Ratio: 149,311
Поблагодарили: 172544
94.12%
Откуда: От Москвы недалеко...
ussr.gif
Дом, который построил Джек / The House That Jack Built (2018) BDRip [720p] ATV
Производство: Дания, Франция, Германия, Швеция / Zentropa Entertainments, Centre National du Cinéma et de l'Image, Copenhagen Film Fund
Жанр: Ужасы, драма, криминал

Режиссер: Ларс фон Триер
Продюсер: Луиза Вест, Lasse Mucha Andersen, Йонас Баггер
Актеры: Мэтт Диллон, Бруно Ганц, Ума Турман, Шиван Фэллон, Софи Гробёль, Райли Кио, Джереми Дэвис, Джек МакКензи, Эдвард Спелирс, Дэвид Бэйли

Описание:
История серийного убийцы по имени Джек разворачивается в Америке 70-х. За 12 лет блестящей «карьеры» Джеку встретятся назойливая попутчица, наивная подружка и другие очаровательные в своей глупости жертвы. Пять невероятных, до жути изобретательных и порой до смеха абсурдных убийств, к каждому из которых Джек относится как к настоящему произведению искусства.


Возраст: 18+ (зрителям, достигшим 18 лет. запрещено для детей)
Рейтинг MPAA: R (лицам до 17 лет обязательно присутствие взрослого)

Релиз от: NNMClub

Продолжительность: 02:32:34
Качество видео: BDRip 720p
Перевод: Дублированный, авторский одноголосый
Субтитры: Английские (SDH)
Присутствует ненормативная лексика!

Видео: H.264, 1280x538 (2.40:1), ~7000 kbps, 24.000 fps
Аудио#1: AAC, 2 ch, 187 Kbps - Русский DUB, iTunes
Аудио#2: AAC, 2 ch, 192 Kbps - Русский AVO, Юрий Сербин
Аудио#3: AAC, 2 ch, 192 Kbps - Русский AVO, Михаил Яроцкий (без цензуры)
Аудио#4: AAC, 2 ch, 183 Kbps - Український MVO, Студія Pie Post Production
Аудио#5: AAC, 2 ch, 192 Kbps - English Original
Аудио#6: AC3, 6 ch, 384 Kbps - Русский DUB, iTunes
Аудио#7: AC3, 6 ch, 640 Kbps - Русский AVO, Юрий Сербин
Аудио#8: AC3, 6 ch, 640 Kbps - Русский AVO, Михаил Яроцкий (без цензуры)
Аудио#9: AC3, 6 ch, 640 Kbps - English Original

Общее
Полное имя : /Volumes/HDD/Movies/NNMC/The.House.That.Jack.Built.2018.BDRip.720p.m4v
Формат : MPEG-4
Идентификатор кодека : M4V (M4V /M4A /mp42/isom)
Размер файла : 10,9 Гбайт
Продолжительность : 2 ч. 32 м.
Режим общего битрейта : Переменный
Общий поток : 10,2 Мбит/сек
Название фильма : Дом, который построил Джек
Исполнитель : Lars von Trier
Режиссёр : Lars von Trier
Исполнитель : Matt Dillon / Bruno Ganz / Ума Турман / Шиван Фэллон / Софи Гробёль
Сценарист : Lars von Trier
Продюсер : Луиза Вест
Студия-производитель : Zentropa Entertainments,Centre National du Cinéma et de l'Image,Copenhagen Film Fund
Жанр : Триллеры
Тип содержимого : Short Film
Дата записи : UTC 2018-12-06 08:00:00
Дата кодирования : UTC 2020-03-02 18:07:19
Дата пометки : UTC 2020-03-02 18:44:16
Авторское право : © 2018 All Media Company
Обложка : Yes
LongDescription : История серийного убийцы по имени Джек разворачивается в Америке 70-х. За 12 лет блестящей «карьеры» Джеку встретятся назойливая попутчица, наивная подружка и другие очаровательные в своей глупости жертвы. Пять невероятных, до жути изобретательных и порой до смеха абсурдных убийств, к каждому из которых Джек относится как к настоящему произведению искусства.
HDVideo : Yes
AppleStoreCountry : Russia
AppleStoreCatalogID : 1444736900
ContentRating : ru-movie|18+|400|

Видео #1
Идентификатор : 1
Формат : AVC
Формат/Информация : Advanced Video Codec
Профиль формата : High@L4.1
Настройки формата : CABAC / 12 Ref Frames
Параметр CABAC формата : Да
Параметр ReFrames формата : 12 кадров
Идентификатор кодека : avc1
Идентификатор кодека/Информация : Advanced Video Coding
Продолжительность : 2 ч. 32 м.
Битрейт : 7000 Кбит/сек
Ширина : 1280 пикселей
Высота : 536 пикселей
Соотношение сторон : 2,40:1
Режим частоты кадров : Переменный
Частота кадров : 24,000 кадра/сек
Минимальная частота кадров : 23,810 кадра/сек
Максимальная частота кадров : 24,390 кадра/сек
Цветовое пространство : YUV
Субдискретизация насыщенности : 4:2:0
Битовая глубина : 8 бит
Тип развёртки : Прогрессивная
Бит/(Пиксели*Кадры) : 0.425
Размер потока : 7,44 Гбайт (68%)
Библиотека кодирования : x264 core 152 r2851kMod ba24899
Настройки программы : cabac=1 / ref=12 / deblock=1:-3:-3 / analyse=0x3:0x133 / me=umh / subme=10 / psy=1 / fade_compensate=0.00 / psy_rd=1.02:0.00 / mixed_ref=1 / me_range=32 / chroma_me=1 / trellis=2 / 8x8dct=1 / cqm=0 / deadzone=21,11 / fast_pskip=0 / chroma_qp_offset=-2 / threads=6 / lookahead_threads=1 / sliced_threads=0 / nr=0 / decimate=1 / interlaced=0 / bluray_compat=0 / constrained_intra=0 / bframes=8 / b_pyramid=2 / b_adapt=2 / b_bias=0 / direct=3 / weightb=1 / open_gop=0 / weightp=2 / keyint=250 / keyint_min=24 / scenecut=40 / intra_refresh=0 / rc=2pass / mbtree=0 / bitrate=7000 / ratetol=1.0 / qcomp=0.60 / qpmin=0 / qpmax=69 / qpstep=4 / cplxblur=20.0 / qblur=0.5 / ip_ratio=1.30 / pb_ratio=1.20 / aq=1:0.65
Язык : English
Дата кодирования : UTC 2020-03-02 18:07:19
Дата пометки : UTC 2020-03-02 18:44:05
Цветовой диапазон : Limited
Коэффициенты матрицы : BT.709
Menus : 13,14
Codec configuration box : avcC

Видео #2
Идентификатор : 14
Формат : JPEG
Идентификатор кодека : jpeg
Продолжительность : 2 ч. 32 м.
Вид битрейта : Переменный
Битрейт : 240 бит/сек
Ширина : 640 пикселей
Высота : 268 пикселей
Соотношение сторон : 2,40:1
Режим частоты кадров : Переменный
Частота кадров : 0,001 кадр/сек
Минимальная частота кадров : 0,001 кадр/сек
Максимальная частота кадров : 0,004 кадр/сек
Цветовое пространство : YUV
Субдискретизация насыщенности : 4:2:0
Битовая глубина : 8 бит
Метод сжатия : С потерями
Бит/(Пиксели*Кадры) : 1.399
Размер потока : 352 Кбайт (0%)
Язык : English
Default : Нет
Дата кодирования : UTC 2020-03-02 18:44:15
Дата пометки : UTC 2020-03-02 18:44:15
Menu For : 1
ColorSpace_ICC : RGB

Аудио #1
Идентификатор : 2
Формат : AAC LC
Формат/Информация : Advanced Audio Codec Low Complexity
Идентификатор кодека : mp4a-40-2
Продолжительность : 2 ч. 32 м.
Вид битрейта : Переменный
Битрейт : 187 Кбит/сек
Максимальный битрейт : 317 Кбит/сек
Каналы : 2 канала
Channel layout : L R
Частота : 48,0 КГц
Частота кадров : 46,875 кадров/сек (1024 SPF)
Метод сжатия : С потерями
Размер потока : 204 Мбайт (2%)
Язык : Russian
Default : Да
Alternate group : 1
Дата кодирования : UTC 2020-03-02 18:07:19
Дата пометки : UTC 2020-03-02 18:44:05
Fallback From : 7
tagc : public.main-program-content

Аудио #2
Идентификатор : 3
Формат : AAC LC
Формат/Информация : Advanced Audio Codec Low Complexity
Идентификатор кодека : mp4a-40-2
Продолжительность : 2 ч. 32 м.
Вид битрейта : Переменный
Битрейт : 192 Кбит/сек
Максимальный битрейт : 338 Кбит/сек
Каналы : 2 канала
Channel layout : L R
Частота : 48,0 КГц
Частота кадров : 46,875 кадров/сек (1024 SPF)
Метод сжатия : С потерями
Размер потока : 207 Мбайт (2%)
Язык : Russian
Default : Нет
Alternate group : 1
Дата кодирования : UTC 2020-03-02 18:07:19
Дата пометки : UTC 2020-03-02 18:44:05
Fallback From : 8
tagc : public.auxiliary-content

Аудио #3
Идентификатор : 4
Формат : AAC LC
Формат/Информация : Advanced Audio Codec Low Complexity
Идентификатор кодека : mp4a-40-2
Продолжительность : 2 ч. 32 м.
Вид битрейта : Переменный
Битрейт : 192 Кбит/сек
Максимальный битрейт : 331 Кбит/сек
Каналы : 2 канала
Channel layout : L R
Частота : 48,0 КГц
Частота кадров : 46,875 кадров/сек (1024 SPF)
Метод сжатия : С потерями
Размер потока : 207 Мбайт (2%)
Язык : Russian
Default : Нет
Alternate group : 1
Дата кодирования : UTC 2020-03-02 18:07:19
Дата пометки : UTC 2020-03-02 18:44:05
Fallback From : 9
tagc : public.auxiliary-content

Аудио #4
Идентификатор : 5
Формат : AAC LC
Формат/Информация : Advanced Audio Codec Low Complexity
Идентификатор кодека : mp4a-40-2
Продолжительность : 2 ч. 32 м.
Вид битрейта : Переменный
Битрейт : 183 Кбит/сек
Максимальный битрейт : 270 Кбит/сек
Каналы : 2 канала
Channel layout : L R
Частота : 48,0 КГц
Частота кадров : 46,875 кадров/сек (1024 SPF)
Метод сжатия : С потерями
Размер потока : 200 Мбайт (2%)
Язык : Ukrainian
Default : Нет
Alternate group : 1
Дата кодирования : UTC 2020-03-02 18:07:19
Дата пометки : UTC 2020-03-02 18:44:05
tagc : public.main-program-content

Аудио #5
Идентификатор : 6
Формат : AAC LC
Формат/Информация : Advanced Audio Codec Low Complexity
Идентификатор кодека : mp4a-40-2
Продолжительность : 2 ч. 32 м.
Вид битрейта : Переменный
Битрейт : 192 Кбит/сек
Максимальный битрейт : 332 Кбит/сек
Каналы : 2 канала
Channel layout : L R
Частота : 48,0 КГц
Частота кадров : 46,875 кадров/сек (1024 SPF)
Метод сжатия : С потерями
Размер потока : 209 Мбайт (2%)
Язык : English
Default : Нет
Alternate group : 1
Дата кодирования : UTC 2020-03-02 18:07:19
Дата пометки : UTC 2020-03-02 18:44:05
Fallback From : 10
tagc : public.main-program-content

Аудио #6
Идентификатор : 7
Формат : AC-3
Формат/Информация : Audio Coding 3
Коммерческое название : Dolby Digital
Идентификатор кодека : ac-3
Продолжительность : 2 ч. 32 м.
Вид битрейта : Постоянный
Битрейт : 384 Кбит/сек
Каналы : 6 каналов
Channel layout : L R C LFE Ls Rs
Частота : 48,0 КГц
Частота кадров : 31,250 кадров/сек (1536 SPF)
Метод сжатия : С потерями
Размер потока : 419 Мбайт (4%)
Язык : Russian
Service kind : Complete Main
Default : Inherited From: 2
Alternate group : 1
Дата кодирования : UTC 2020-03-02 18:07:19
Дата пометки : UTC 2020-03-02 18:44:05
Fallback To : 2
tagc : public.main-program-content

Аудио #7
Идентификатор : 8
Формат : AC-3
Формат/Информация : Audio Coding 3
Коммерческое название : Dolby Digital
Идентификатор кодека : ac-3
Продолжительность : 2 ч. 32 м.
Вид битрейта : Постоянный
Битрейт : 640 Кбит/сек
Каналы : 6 каналов
Channel layout : L R C LFE Ls Rs
Частота : 48,0 КГц
Частота кадров : 31,250 кадров/сек (1536 SPF)
Метод сжатия : С потерями
Размер потока : 698 Мбайт (6%)
Язык : Russian
Service kind : Complete Main
Default : Нет
Alternate group : 1
Дата кодирования : UTC 2020-03-02 18:07:19
Дата пометки : UTC 2020-03-02 18:44:05
Fallback To : 3
tagc : public.auxiliary-content

Аудио #8
Идентификатор : 9
Формат : AC-3
Формат/Информация : Audio Coding 3
Коммерческое название : Dolby Digital
Идентификатор кодека : ac-3
Продолжительность : 2 ч. 32 м.
Вид битрейта : Постоянный
Битрейт : 640 Кбит/сек
Каналы : 6 каналов
Channel layout : L R C LFE Ls Rs
Частота : 48,0 КГц
Частота кадров : 31,250 кадров/сек (1536 SPF)
Метод сжатия : С потерями
Размер потока : 698 Мбайт (6%)
Язык : Russian
Service kind : Complete Main
Default : Нет
Alternate group : 1
Дата кодирования : UTC 2020-03-02 18:07:19
Дата пометки : UTC 2020-03-02 18:44:05
Fallback To : 4
tagc : public.auxiliary-content

Аудио #9
Идентификатор : 10
Формат : AC-3
Формат/Информация : Audio Coding 3
Коммерческое название : Dolby Digital
Идентификатор кодека : ac-3
Продолжительность : 2 ч. 32 м.
Вид битрейта : Постоянный
Битрейт : 640 Кбит/сек
Каналы : 6 каналов
Channel layout : L R C LFE Ls Rs
Частота : 48,0 КГц
Частота кадров : 31,250 кадров/сек (1536 SPF)
Метод сжатия : С потерями
Размер потока : 698 Мбайт (6%)
Язык : English
Service kind : Complete Main
Default : Нет
Alternate group : 1
Дата кодирования : UTC 2020-03-02 18:07:19
Дата пометки : UTC 2020-03-02 18:44:05
Fallback To : 6
tagc : public.main-program-content

Текст #1
Идентификатор : 11
Формат : Timed Text
Режим смешивания : sbtl
Идентификатор кодека : tx3g
Продолжительность : 2 ч. 32 м.
Вид битрейта : Переменный
Битрейт : 51 бит/сек
Размер потока : 56,6 Кбайт (0%)
Язык : English
Default : Да
Forced : Нет
Alternate group : 2
Дата кодирования : UTC 2020-03-02 18:07:19
Дата пометки : UTC 2020-03-02 18:44:05
tagc : public.main-program-content

Текст #2
Идентификатор : 12
Формат : Timed Text
Режим смешивания : sbtl
Идентификатор кодека : tx3g
Продолжительность : 2 ч. 32 м.
Вид битрейта : Переменный
Битрейт : 54 бит/сек
Размер потока : 60,3 Кбайт (0%)
Язык : English
Default : Нет
Forced : Нет
Alternate group : 2
Дата кодирования : UTC 2020-03-02 18:07:19
Дата пометки : UTC 2020-03-02 18:44:05
tagc : public.accessibility.transcribes-spoken-dialog

Меню
Идентификатор : 13
Идентификатор кодека : text
Продолжительность : 2 ч. 32 м.
Язык : English
Дата кодирования : UTC 2020-03-02 18:44:05
Дата пометки : UTC 2020-03-02 18:44:05
Вид битрейта : CBR
Menu For : 1
00:00:00.000 : Chapter 01
00:08:41.375 : Chapter 02
00:15:11.500 : Chapter 03
00:29:16.499 : Chapter 04
00:42:38.000 : Chapter 05
00:49:34.083 : Chapter 06
00:57:58.417 : Chapter 07
01:17:27.292 : Chapter 08
01:41:17.542 : Chapter 09
01:51:48.208 : Chapter 10
02:13:45.500 : Chapter 11
02:28:28.208 : Chapter 12
Вид битрейта : Постоянный


Name: Дом, который построил Джек
Artist: Lars von Trier
Media Kind: Movie
HD Video: 720p
Genre: Триллеры
Release Date: 2018-12-06T08:00:00Z
Long Description: История серийного убийцы по имени Джек разворачивается в Америке 70-х. За 12 лет блестящей «карьеры» Джеку встретятся назойливая попутчица, наивная подружка и другие очаровательные в своей глупости жертвы. Пять невероятных, до жути изобретательных и порой до смеха абсурдных убийств, к каждому из которых Джек относится как к настоящему произведению искусства.
Rating: ru-movie|18+|400|
Studio: Zentropa Entertainments,Centre National du Cinéma et de l'Image,Copenhagen Film Fund
Cast: Matt Dillon, Bruno Ganz, Ума Турман, Шиван Фэллон, Софи Гробёль
Director: Lars von Trier
Producers: Луиза Вест
Screenwriters: Lars von Trier
Copyright: © 2018 All Media Company
content ID: 1444736900
iTunes Country: 143469

Скриншоты:



Все одноименные релизы в Клубе
Время раздачи: 24/7 (до появления первых 3-5 скачавших)

Релиз подготовлен для просмотра на Apple TV, iPad, iPhone, iPod Touch.
Для просмотра данного релиза на компьютере с ОС Windows рекомендуется использовать VLC media player
[NNMClub.to]_The.House.That.Jack.Built.2018.BDRip.720p.m4v.torrent
 Торрент: Платиновая раздача  Зарегистрирован
 
Скачать


Примагнититься
 Зарегистрирован:   02 Мар 2020 21:56:51
 Размер:   10,9 GB  (
 Рейтинг:    (Голосов: 5)
 Поблагодарили:   40
 Проверка:   Оформление проверено модератором 03 Мар 2020 00:35:32
Как cкачать  ·  Как раздать  ·  Правильно оформить  ·  Поднять ратио!  

_________________
«Всё против нас, только ветер навстречу…».
🍏Apple iMac 21.5 (mid 2011) / Intel Core i5 2.7 GHz / AMD Radeon HD 6770M 512 Mb / 12GB DDR3 / Apple Trackpad, Apple Keyboard / macOS High Sierra 10.13.6 (17G12034)
Показать сообщения:   
Начать новую тему   Ответить на тему    Торрент-трекер NNM-Club -> Аудио и Видео -> Зарубежное видео HD для устройств Apple Часовой пояс: GMT + 3
Страница 1 из 1