Классический форум-трекер
canvas not supported
Нас вместе: 4 102 837

Приходи как есть / Hasta la Vista! (2011) BDRip [1080p] ATV [MVO]


 
 
RSS
Начать новую тему   Ответить на тему    Торрент-трекер NNM-Club -> Аудио и Видео -> Зарубежное видео HD для устройств Apple
Автор Сообщение
Весельчак У ®
Модератор Apple
Стаж: 6 лет 3 мес.
Сообщений: 5276
Ratio: 149,017
Поблагодарили: 172114
94.12%
Откуда: От Москвы недалеко...
ussr.gif
Приходи как есть / Hasta la Vista! (2011) BDRip [1080p] ATV«Аста ла виста, девственность!»
Производство: Бельгия / ÉÉN, Fobic Films, K 2, Mollywood
Жанр: Драма, комедия

Режиссер: Жоффрей Энтховен
Продюсер: Мариано Ванхуф, Аста Филпот, Ян Вринтс
Актеры: Робрехт Ванден Торен, Жилль Де Шрийвер, Том Ауденарт, Изабель де Гертог, Карлейн Силегем, Йохан Хелденберг, Кателин Вербеке, Карел Вингерхетц, Шарлотта Тиммерс, Роос Ван Владерен

Описание:
История трех молодых людей, обожающих красивую жизнь, но ни разу не спавших с женщиной, потому что один из них слеп, второй передвигается на коляске, а третий и вовсе парализован. В поисках женщин они втроем отправляются в Испанию.


Возраст: 16+ (зрителям, достигшим 16 лет)

Продолжительность: 01:49:13
Качество видео: BDRip 1080р
Перевод: Многоголосый профессиональный
Субтитры: Русские, английские (вшитые, отключаемые)

Видео: H.264, 1920x816 (2.35:1), ~11.2 Mbps, 25.000 fps
Аудио#1: AAC, 2 ch, 197 Kbps - Русский MVO
Аудио#2: AAC, 2 ch, 197 Kbps - Dutch Original
Аудио#3: AC3, 6 ch, 640 Kbps - Русский MVO
Аудио#4: AC3, 6 ch, 640 Kbps - Dutch Original

Общее
Полное имя : /Volumes/HDD/Movies/NNMC/Hasta.La.Vista.2011.BDRip.1080p.m4v
Формат : MPEG-4
Идентификатор кодека : M4V (M4V /M4A /mp42/isom)
Размер файла : 9,83 Гбайт
Продолжительность : 1 ч. 49 м.
Режим общего битрейта : Переменный
Общий поток : 12,9 Мбит/сек
Название фильма : Приходи как есть
Исполнитель : Geoffrey Enthoven
Композитор : Jeroen Meuris, Papermouth
Режиссёр : Geoffrey Enthoven
Исполнитель : Robrecht Vanden Thoren / Gilles De Schryver / Tom Audenaert / Isabelle De Hertogh / Karel Vingerhoets / Katelijne Verbeke / Xandra Van Welden / Tuur de Weert / Veerle Baetens / Johan Heldenbergh / Marilou Mermans / Karlijn Sileghem / Sheila Sawhny
Сценарист : Pierre De Clercq / Asta Philpot / Mariano Vanhoof
Продюсер : Mariano Vanhoof / Jan Vrints
Исполнительный продюсер : Asta Philpot
Студия-производитель : Fobic Films, K 2, één
Жанр : драма, комедия
Тип содержимого : Short Film
Дата записи : UTC 2011-09-02 12:00:00
Дата кодирования : UTC 2020-03-05 21:58:17
Дата пометки : UTC 2020-03-05 22:06:26
Обложка : Yes
LongDescription : История трех молодых людей, обожающих красивую жизнь, но ни разу не спавших с женщиной, потому что один из них слеп, второй передвигается на коляске, а третий и вовсе парализован. В поисках женщин они втроем отправляются в Испанию.

Видео #1
Идентификатор : 1
Формат : AVC
Формат/Информация : Advanced Video Codec
Профиль формата : High@L4.1
Настройки формата : CABAC / 4 Ref Frames
Параметр CABAC формата : Да
Параметр ReFrames формата : 4 кадра
Идентификатор кодека : avc1
Идентификатор кодека/Информация : Advanced Video Coding
Продолжительность : 1 ч. 49 м.
Битрейт : 11,2 Мбит/сек
Ширина : 1920 пикселей
Высота : 816 пикселей
Соотношение сторон : 2,35:1
Режим частоты кадров : Постоянный
Частота кадров : 25,000 кадров/сек
Цветовое пространство : YUV
Субдискретизация насыщенности : 4:2:0
Битовая глубина : 8 бит
Тип развёртки : Прогрессивная
Бит/(Пиксели*Кадры) : 0.286
Размер потока : 8,54 Гбайт (87%)
Библиотека кодирования : x264 core 128 r2216 198a7ea
Настройки программы : cabac=1 / ref=4 / deblock=1:-3:-3 / analyse=0x3:0x113 / me=umh / subme=11 / psy=1 / psy_rd=1.00:0.00 / mixed_ref=1 / me_range=24 / chroma_me=1 / trellis=2 / 8x8dct=1 / cqm=0 / deadzone=21,11 / fast_pskip=1 / chroma_qp_offset=-2 / threads=6 / lookahead_threads=1 / sliced_threads=0 / nr=0 / decimate=1 / interlaced=0 / bluray_compat=0 / constrained_intra=0 / bframes=6 / b_pyramid=2 / b_adapt=2 / b_bias=0 / direct=2 / weightb=0 / open_gop=0 / weightp=2 / keyint=250 / keyint_min=25 / scenecut=40 / intra_refresh=0 / rc_lookahead=40 / rc=2pass / mbtree=1 / bitrate=11200 / ratetol=1.0 / qcomp=0.60 / qpmin=0 / qpmax=69 / qpstep=4 / cplxblur=20.0 / qblur=0.5 / ip_ratio=1.40 / aq=1:1.00 / zones=158882,163825,q=40
Язык : English
Дата кодирования : UTC 2020-03-05 21:58:17
Дата пометки : UTC 2020-03-05 22:06:11
Menus : 8,9
Codec configuration box : avcC

Видео #2
Идентификатор : 9
Формат : JPEG
Идентификатор кодека : jpeg
Продолжительность : 1 ч. 49 м.
Вид битрейта : Переменный
Битрейт : 579 бит/сек
Ширина : 640 пикселей
Высота : 272 пикселя
Соотношение сторон : 2,35:1
Режим частоты кадров : Переменный
Частота кадров : 0,002 кадр/сек
Минимальная частота кадров : 0,001 кадр/сек
Максимальная частота кадров : 0,049 кадр/сек
Цветовое пространство : YUV
Субдискретизация насыщенности : 4:2:0
Битовая глубина : 8 бит
Метод сжатия : С потерями
Бит/(Пиксели*Кадры) : 1.663
Размер потока : 460 Кбайт (0%)
Язык : English
Default : Нет
Дата кодирования : UTC 2020-03-05 22:06:25
Дата пометки : UTC 2020-03-05 22:06:26
Menu For : 1
ColorSpace_ICC : RGB

Аудио #1
Идентификатор : 2
Формат : AAC LC
Формат/Информация : Advanced Audio Codec Low Complexity
Идентификатор кодека : mp4a-40-2
Продолжительность : 1 ч. 49 м.
Вид битрейта : Переменный
Битрейт : 197 Кбит/сек
Максимальный битрейт : 305 Кбит/сек
Каналы : 2 канала
Channel layout : L R
Частота : 48,0 КГц
Частота кадров : 46,875 кадров/сек (1024 SPF)
Метод сжатия : С потерями
Размер потока : 154 Мбайт (2%)
Язык : Russian
Default : Да
Alternate group : 1
Дата кодирования : UTC 2020-03-05 21:58:17
Дата пометки : UTC 2020-03-05 22:06:11
Fallback From : 4
tagc : public.main-program-content

Аудио #2
Идентификатор : 3
Формат : AAC LC
Формат/Информация : Advanced Audio Codec Low Complexity
Идентификатор кодека : mp4a-40-2
Продолжительность : 1 ч. 49 м.
Вид битрейта : Переменный
Битрейт : 197 Кбит/сек
Максимальный битрейт : 309 Кбит/сек
Каналы : 2 канала
Channel layout : L R
Частота : 48,0 КГц
Частота кадров : 46,875 кадров/сек (1024 SPF)
Метод сжатия : С потерями
Размер потока : 154 Мбайт (2%)
Язык : Dutch
Default : Нет
Alternate group : 1
Дата кодирования : UTC 2020-03-05 21:58:17
Дата пометки : UTC 2020-03-05 22:06:11
Fallback From : 5
tagc : public.main-program-content

Аудио #3
Идентификатор : 4
Формат : AC-3
Формат/Информация : Audio Coding 3
Коммерческое название : Dolby Digital
Идентификатор кодека : ac-3
Продолжительность : 1 ч. 49 м.
Вид битрейта : Постоянный
Битрейт : 640 Кбит/сек
Каналы : 6 каналов
Channel layout : L R C LFE Ls Rs
Частота : 48,0 КГц
Частота кадров : 31,250 кадров/сек (1536 SPF)
Метод сжатия : С потерями
Размер потока : 500 Мбайт (5%)
Язык : Russian
Service kind : Complete Main
Default : Inherited From: 2
Alternate group : 1
Дата кодирования : UTC 2020-03-05 21:58:17
Дата пометки : UTC 2020-03-05 22:06:11
Fallback To : 2
tagc : public.main-program-content

Аудио #4
Идентификатор : 5
Формат : AC-3
Формат/Информация : Audio Coding 3
Коммерческое название : Dolby Digital
Идентификатор кодека : ac-3
Продолжительность : 1 ч. 49 м.
Вид битрейта : Постоянный
Битрейт : 640 Кбит/сек
Каналы : 6 каналов
Channel layout : L R C LFE Ls Rs
Частота : 48,0 КГц
Частота кадров : 31,250 кадров/сек (1536 SPF)
Метод сжатия : С потерями
Размер потока : 500 Мбайт (5%)
Язык : Dutch
Service kind : Complete Main
Default : Нет
Alternate group : 1
Дата кодирования : UTC 2020-03-05 21:58:17
Дата пометки : UTC 2020-03-05 22:06:11
Fallback To : 3
tagc : public.main-program-content

Текст #1
Идентификатор : 6
Формат : Timed Text
Режим смешивания : sbtl
Идентификатор кодека : tx3g
Продолжительность : 1 ч. 43 м.
Вид битрейта : Переменный
Битрейт : 72 бит/сек
Размер потока : 54,9 Кбайт (0%)
Язык : Russian
Default : Да
Forced : Нет
Alternate group : 2
Дата кодирования : UTC 2020-03-05 21:58:17
Дата пометки : UTC 2020-03-05 22:06:12
tagc : public.main-program-content

Текст #2
Идентификатор : 7
Формат : Timed Text
Режим смешивания : sbtl
Идентификатор кодека : tx3g
Продолжительность : 1 ч. 43 м.
Вид битрейта : Переменный
Битрейт : 41 бит/сек
Размер потока : 31,0 Кбайт (0%)
Язык : English
Default : Нет
Forced : Нет
Alternate group : 2
Дата кодирования : UTC 2020-03-05 21:58:17
Дата пометки : UTC 2020-03-05 22:06:12
tagc : public.main-program-content

Меню
Идентификатор : 8
Идентификатор кодека : text
Продолжительность : 1 ч. 49 м.
Язык : English
Дата кодирования : UTC 2020-03-05 22:06:12
Дата пометки : UTC 2020-03-05 22:06:12
Вид битрейта : CBR
Menu For : 1
00:00:00.000 : 00:00:00.000
00:07:54.224 : 00:07:54.224
00:19:28.876 : 00:19:28.876
00:26:53.111 : 00:26:53.111
00:35:26.708 : 00:35:26.708
00:47:25.426 : 00:47:25.426
00:57:30.489 : 00:57:30.489
01:04:56.476 : 01:04:56.476
01:15:21.100 : 01:15:21.100
01:21:31.220 : 01:21:31.220
01:31:31.403 : 01:31:31.403
01:41:57.862 : 01:41:57.862
01:48:52.735 : 01:48:52.735
Вид битрейта : Постоянный


Name: Приходи как есть
Artist: Geoffrey Enthoven
Media Kind: Movie
HD Video: 1080p
Genre: драма, комедия
Release Date: 2011-09-02T12:00:00Z
Long Description: История трех молодых людей, обожающих красивую жизнь, но ни разу не спавших с женщиной, потому что один из них слеп, второй передвигается на коляске, а третий и вовсе парализован. В поисках женщин они втроем отправляются в Испанию.
Studio: Fobic Films, K 2, één
Cast: Robrecht Vanden Thoren, Gilles De Schryver, Tom Audenaert, Isabelle De Hertogh, Karel Vingerhoets, Katelijne Verbeke, Xandra Van Welden, Tuur de Weert, Veerle Baetens, Johan Heldenbergh, Marilou Mermans, Karlijn Sileghem, Sheila Sawhny
Director: Geoffrey Enthoven
Producers: Mariano Vanhoof, Jan Vrints
Executive Producer: Asta Philpot
Screenwriters: Pierre De Clercq, Asta Philpot, Mariano Vanhoof
Composer: Jeroen Meuris, Papermouth

Скриншоты:


Все одноименные релизы в Клубе
Время раздачи: 24/7 (до появления первых 3-5 скачавших)

Релиз подготовлен для просмотра на Apple TV, iPad, iPhone, iPod Touch.
Для просмотра данного релиза на компьютере с ОС Windows рекомендуется использовать VLC media player
[NNMClub.to]_Hasta.La.Vista.2011.BDRip.1080p.m4v.torrent
 Торрент: Золотая раздача  Зарегистрирован
 
Зарегистрируйтесь и скачайте торрент!
98,5 KB
Free Leech
Примагнититься
 Зарегистрирован:   06 Мар 2020 01:22:36
 Размер:   9,83 GB  (
 Рейтинг:    (Голосов: 7)
 Поблагодарили:   53
 Проверка:   Оформление проверено модератором 06 Мар 2020 02:22:51
Как cкачать  ·  Как раздать  ·  Правильно оформить  ·  Поднять ратио!  

_________________
«Всё против нас, только ветер навстречу…».
🍏Apple iMac 21.5 (mid 2011) / Intel Core i5 2.7 GHz / AMD Radeon HD 6770M 512 Mb / 12GB DDR3 / Apple Trackpad, Apple Keyboard / macOS High Sierra 10.13.6 (17G12034)
ALEKS00007
Стаж: 10 лет 6 мес.
Сообщений: 108
Ratio: 5,036
100%
russia.gif
Название фильма вроде как - "До встречи"
Весёлый
Стаж: 9 лет 10 мес.
Сообщений: 275
Ratio: 177,722
Поблагодарили: 1
100%
Alex_one2

Online
Стаж: 6 лет 3 мес.
Сообщений: 53
Ratio: 0,86
0.19%
Откуда: Крым
russia.gif
На третьем скрине Таня Монтян?
svetlik1
Стаж: 5 лет 9 мес.
Сообщений: 13
Ratio: 239,371
100%
ussr.gif
Что за музыка звучала в борделе ?
beldach
Стаж: 6 лет 3 мес.
Сообщений: 16
Ratio: 3,81
4.42%
Судя по скринам там еще те молодые люди....
Показать сообщения:   
Начать новую тему   Ответить на тему    Торрент-трекер NNM-Club -> Аудио и Видео -> Зарубежное видео HD для устройств Apple Часовой пояс: GMT + 3
Страница 1 из 1